Tags
Language
Tags

The Power Station - The Power Station (1985) {2014, Remastered}

Posted By: popsakov
The Power Station - The Power Station (1985) {2014, Remastered}

The Power Station - The Power Station (1985) {2014, Remastered}
EAC Rip | FLAC (Img) + Cue + Log ~ 499 Mb | MP3 CBR320 ~ 170 Mb
Full Scans | 01:04:53 | RAR 5% Recovery
New Wave, Pop Rock | Parlophone #825646344796

The Power Station is the debut album by the supergroup The Power Station, released in 1985 on Capitol Records. The album peaked at no. 6 on the US Billboard 200 and no. 12 on the UK Albums Chart. All three singles released from the album were Top 40 hits in the United States. An anniversary edition was released 21 February 2005, featuring 7 bonus tracks, as well as a 35-minute DVD. The Power Station was a supergroup formed by Robert Palmer, Tony Thompson (of Chic) and Andy and John Taylor from Duran Duran. They came together in 1984 to record a one-off album, as a respite from the relentless global touring and promotion of Duran Duran. The original plan for this one-album project was for the three musicians (Taylor, Taylor and Thompson) to provide musical continuity to an album full of material, with a different singer performing on each track. Those who were approached included Mick Jagger, Billy Idol, Mars Williams (who eventually contributed brass to the album) and Richard Butler (of The Psychedelic Furs), and Mick Ronson. The group then invited eclectic soul singer Robert Palmer to record vocals for the track "Communication". When he heard that they had recorded demos for "Get It On (Bang a Gong)", he asked to try out vocals on that one as well, and by the end of the day, the group knew that they had found that elusive chemistry which distinguishes successful bands. Before long, they had decided to record the entire album with Palmer. However, the union was not to hold. By the time the band decided to take the 8-track set on the road, Palmer had left to record his solo album Riptide (which, likely because of the involvement of The Power Station participants Edwards, Thompson, and Andy Taylor, is very similar in sound to The Power Station album). He was replaced by Michael Des Barres (famed for co-writing Animotion's "Obsession"). During the promotion cycle for the album, EMI released three singles, including the cover of T. Rex's "Get It On". Versions of these three singles are now included among the bonus tracks on the 2005 re-release. In addition, the re-release also includes the song "Somewhere, Somehow, Someone's Gonna Pay", the only known Power Station song featuring Michael Des Barres on lead vocals. The song was used for the end titles of the Arnold Schwarzenegger action film Commando and was titled "We Fight for Love".
The Power Station - The Power Station (1985) {2014, Remastered}


***************

The Power Station - The Power Station (1985) {2014, Remastered}

The Power Station - The Power Station (1985) {2014, Remastered}

Track List:

01. Some Like It Hot [5:06]
02. Murderess [4:18]
03. Lonely Tonight [3:59]
04. Communication [3:38]
05. Get It On (Bang a Gong) [5:30]
06. Go to Zero [4:59]
07. Harvest for the World [3:38]
08. Still in Your Heart [3:21]
09. Someday, Somehow, Someone’s Gotta Pay [4:33]
10. The Heat Is On [3:19]
11. Communication (long remix) [4:40]
12. Get It On (Bang a Gong) (7') [3:46]
13. Some Like It Hot and the Heat Is On [6:37]
14. Communication (remix) [3:52]
15. Some Like It Hot (7') [3:45]

Exact Audio Copy V1.3 from 2. September 2016

EAC extraction logfile from 23. December 2020, 8:39

The Power Station / The Power Station

Used drive : ATAPI iHAS122 C Adapter: 1 ID: 0

Read mode : Secure
Utilize accurate stream : Yes
Defeat audio cache : Yes
Make use of C2 pointers : No

Read offset correction : 6
Overread into Lead-In and Lead-Out : No
Fill up missing offset samples with silence : Yes
Delete leading and trailing silent blocks : No
Null samples used in CRC calculations : Yes
Used interface : Native Win32 interface for Win NT & 2000

Used output format : Internal WAV Routines
Sample format : 44.100 Hz; 16 Bit; Stereo


TOC of the extracted CD

Track | Start | Length | Start sector | End sector
––––––––––––––––––––––––––––-
1 | 0:00.00 | 5:05.35 | 0 | 22909
2 | 5:05.35 | 4:17.57 | 22910 | 42241
3 | 9:23.17 | 3:58.60 | 42242 | 60151
4 | 13:22.02 | 3:37.20 | 60152 | 76446
5 | 16:59.22 | 5:29.73 | 76447 | 101194
6 | 22:29.20 | 4:58.20 | 101195 | 123564
7 | 27:27.40 | 3:37.10 | 123565 | 139849
8 | 31:04.50 | 3:20.50 | 139850 | 154899
9 | 34:25.25 | 4:32.02 | 154900 | 175301
10 | 38:57.27 | 3:18.38 | 175302 | 190189
11 | 42:15.65 | 4:39.45 | 190190 | 211159
12 | 46:55.35 | 3:45.15 | 211160 | 228049
13 | 50:40.50 | 6:36.27 | 228050 | 257776
14 | 57:17.02 | 3:51.18 | 257777 | 275119
15 | 61:08.20 | 3:44.20 | 275120 | 291939


Range status and errors

Selected range

Filename C:\Users\LondonW1\Desktop\The Power Station - The Power Station.wav

Peak level 99.4 %
Extraction speed 3.2 X
Range quality 100.0 %
Test CRC 2830F6B3
Copy CRC 2830F6B3
Copy OK

No errors occurred


AccurateRip summary

Track 1 accurately ripped (confidence 4) [03D08FF1] (AR v2)
Track 2 accurately ripped (confidence 4) [26865246] (AR v2)
Track 3 accurately ripped (confidence 4) [869A7E8E] (AR v2)
Track 4 accurately ripped (confidence 4) [EFB896D0] (AR v2)
Track 5 accurately ripped (confidence 4) [2FCEF467] (AR v2)
Track 6 accurately ripped (confidence 4) [02FB5D84] (AR v2)
Track 7 accurately ripped (confidence 4) [109A507F] (AR v2)
Track 8 accurately ripped (confidence 4) [1A978B18] (AR v2)
Track 9 accurately ripped (confidence 4) [5F74B27C] (AR v2)
Track 10 accurately ripped (confidence 4) [CA2CBE01] (AR v2)
Track 11 accurately ripped (confidence 4) [03DF6578] (AR v2)
Track 12 accurately ripped (confidence 4) [9CE5A299] (AR v2)
Track 13 accurately ripped (confidence 4) [5E13F77D] (AR v2)
Track 14 accurately ripped (confidence 4) [4C82F2A5] (AR v2)
Track 15 accurately ripped (confidence 4) [0A06A49E] (AR v2)

All tracks accurately ripped

End of status report

–– CUETools DB Plugin V2.1.6

[CTDB TOCID: OyrLwtlXr8nOvSUSTyChCQM_LmQ-] found
Submit result: OyrLwtlXr8nOvSUSTyChCQM_LmQ- has been confirmed
Track | CTDB Status
1 | (196/196) Accurately ripped
2 | (196/196) Accurately ripped
3 | (196/196) Accurately ripped
4 | (196/196) Accurately ripped
5 | (196/196) Accurately ripped
6 | (196/196) Accurately ripped
7 | (196/196) Accurately ripped
8 | (196/196) Accurately ripped
9 | (196/196) Accurately ripped
10 | (196/196) Accurately ripped
11 | (196/196) Accurately ripped
12 | (196/196) Accurately ripped
13 | (195/196) Accurately ripped
14 | (196/196) Accurately ripped
15 | (189/196) Accurately ripped, or (2/196) differs in 10742 samples @03:44:00-03:44:10


==== Log checksum 9848240BD995F183B5645CE89B1BCB4FEDABE9613FDA04FA2C29E7DECB323FD4 ====

[CUETools log; Date: 23.12.2020 13:40:20; Version: 2.1.6]
[CTDB TOCID: OyrLwtlXr8nOvSUSTyChCQM_LmQ-] found.
Track | CTDB Status
1 | (197/197) Accurately ripped
2 | (197/197) Accurately ripped
3 | (197/197) Accurately ripped
4 | (197/197) Accurately ripped
5 | (197/197) Accurately ripped
6 | (197/197) Accurately ripped
7 | (197/197) Accurately ripped
8 | (197/197) Accurately ripped
9 | (197/197) Accurately ripped
10 | (197/197) Accurately ripped
11 | (197/197) Accurately ripped
12 | (197/197) Accurately ripped
13 | (196/197) Accurately ripped
14 | (197/197) Accurately ripped
15 | (190/197) Accurately ripped, or (2/197) differs in 10742 samples @03:44:00-03:44:10
[AccurateRip ID: 0023ded0-0194d3fd-ce0f340f] found.
Track [ CRC | V2 ] Status
01 [8304b1f8|03d08ff1] (000+004/144) Accurately ripped
02 [4991efe3|26865246] (000+004/138) Accurately ripped
03 [67e48f7c|869a7e8e] (000+004/138) Accurately ripped
04 [22462e49|efb896d0] (000+004/139) Accurately ripped
05 [db7bed62|2fcef467] (000+004/142) Accurately ripped
06 [03aba6c6|02fb5d84] (000+004/138) Accurately ripped
07 [4df6b2d0|109a507f] (000+004/138) Accurately ripped
08 [a955a8e8|1a978b18] (000+004/139) Accurately ripped
09 [bc0d2fa0|5f74b27c] (000+004/139) Accurately ripped
10 [7057e791|ca2cbe01] (000+004/136) Accurately ripped
11 [091e8d59|03df6578] (000+004/137) Accurately ripped
12 [c54ff4ab|9ce5a299] (000+004/137) Accurately ripped
13 [c93edaaf|5e13f77d] (000+004/137) Accurately ripped
14 [e56ab5dc|4c82f2a5] (000+004/137) Accurately ripped
15 [2223bd91|0a06a49e] (000+004/135) Accurately ripped
Offsetted by -29:
01 [8cf3bc0c] (002/144) Accurately ripped
02 [c2b0d5d5] (002/138) Accurately ripped
03 [29e5a0e8] (002/138) Accurately ripped
04 [83362013] (002/139) Accurately ripped
05 [a21bb294] (002/142) Accurately ripped
06 [381bd6c7] (002/138) Accurately ripped
07 [0ea134d1] (002/138) Accurately ripped
08 [926bc8c3] (002/139) Accurately ripped
09 [af84529f] (002/139) Accurately ripped
10 [9fac0ea8] (002/136) Accurately ripped
11 [5cacf29b] (002/137) Accurately ripped
12 [069f11b6] (002/137) Accurately ripped
13 [5a0880c1] (002/137) Accurately ripped
14 [17186487] (002/137) Accurately ripped
15 [1b914942] (002/135) Accurately ripped
Offsetted by 6:
01 [54d33d20] (034/144) Accurately ripped
02 [e10ff547] (033/138) Accurately ripped
03 [0ac9db54] (033/138) Accurately ripped
04 [74c202c0] (034/139) Accurately ripped
05 [86c2b5c8] (034/142) Accurately ripped
06 [e425df03] (033/138) Accurately ripped
07 [7e60a992] (033/138) Accurately ripped
08 [ebde52de] (034/139) Accurately ripped
09 [f39c42de] (035/139) Accurately ripped
10 [fc9ec4ff] (033/136) Accurately ripped
11 [42e7bbbc] (033/137) Accurately ripped
12 [9d83dd0a] (034/137) Accurately ripped
13 [0390b853] (032/137) Accurately ripped
14 [2a963972] (034/137) Accurately ripped
15 [ccbae258] (033/135) Accurately ripped
Offsetted by -24:
01 [3bca8558] (002/144) Accurately ripped
02 [eb99da53] (000/138) No match (V2 was not tested)
03 [dc4f601c] (000/138) No match (V2 was not tested)
04 [e28eb098] (000/139) No match (V2 was not tested)
05 [6830da74] (000/142) No match (V2 was not tested)
06 [7641d4e9] (000/138) No match (V2 was not tested)
07 [8c4ed7c8] (000/138) No match (V2 was not tested)
08 [9f330110] (000/139) No match (V2 was not tested)
09 [ddd0e2a8] (000/139) No match (V2 was not tested)
10 [3f3c71d9] (000/136) No match (V2 was not tested)
11 [54a7a1a1] (000/137) No match (V2 was not tested)
12 [652c5353] (000/137) No match (V2 was not tested)
13 [dff7641f] (000/137) No match (V2 was not tested)
14 [d0bca784] (000/137) No match (V2 was not tested)
15 [3842b3f5] (000/135) No match (V2 was not tested)

Track Peak [ CRC32 ] [W/O NULL] [ LOG ]
– 99,4 [2830F6B3] [47609097] CRC32
01 98,7 [DEA39EF2] [132A8F73]
02 98,7 [E30048CA] [F89DAD55]
03 98,7 [8F931B45] [DC4F9FB3]
04 98,9 [189E934F] [B10F0520]
05 98,9 [96219619] [7DB6BFC9]
06 99,4 [0D6E680B] [AAF3317B]
07 98,9 [182BB61A] [E3AB7B14]
08 98,9 [E663BA43] [02C96E92]
09 99,3 [5AC150D2] [906971E7]
10 98,9 [53FC9F06] [2A23E56C]
11 99,2 [DD0B20B0] [DA43D432]
12 98,6 [AFA7CB72] [96CDD610]
13 98,8 [0974821A] [10C0D100]
14 98,7 [155D6770] [AA263C83]
15 98,9 [9101D5B4] [8D8AE272]

The Power Station - The Power Station (1985) {2014, Remastered}


All thanks go to London

>>> My Blog <<<

DOWNLOAD: