Subcategories

Public Image Limited - The Public Image Is Rotten (Songs From The Heart) (2018) [5CD + 2DVD Box Set]

Posted By: v3122
Public Image Limited - The Public Image Is Rotten (Songs From The Heart) (2018) [5CD + 2DVD Box Set]

Public Image Limited - The Public Image Is Rotten (Songs From The Heart) (2018)
EAC | Flac(Image) + Cue + Log & MP3 CBR 320Kbps
Virgin, RottenPiLCD | ~ 2724 or 941 Mb | Scans(jpg) -> 625 Mb
2xDVD9: NTSC 4:3 & 16:9 (720x480) VBR | Dolby AC3, 2 ch -> 16.15 Gb
Alternative Rock / Post-Punk / Experimental / Avantgarde

A career boxset coming in the form of a 5CD/2DVD is released to coincide with the career-spanning documentary film about Public Image Ltd titled The Public Image Is Rotten.
This box set ‘The Public Image Is Rotten (Songs From The Heart)’ features the PiL Singles Collection, B-sides, Rarities and Radio Sessions, 12” Mixes, Unreleased Mixes and Tracks + a Live concert from New York Ritz in July 1989. The DVD includes PiL promo videos + some live footage from the BBC’s Top Of The Pops and Old Grey Whistle Test. Just in case that wasn’t enough, we’ve also included two live concerts, the first Tallinn Rock Summer Festival in Estonia 1988 and the 2013’s Enmore Theatre in Australia.
Public Image Limited - The Public Image Is Rotten (Songs From The Heart) (2018) [5CD + 2DVD Box Set]

Public Image Limited - The Public Image Is Rotten (Songs From The Heart) (2018:

Public Image Limited - The Public Image Is Rotten (Songs From The Heart) (2018) [5CD + 2DVD Box Set]

Tracklist CD1 - Singles 1978-2015:

01 Public Image
02 Death Disco
03 Memories
04 Flowers Of Romance
05 This Is Not A Love Song
06 Bad Life
07 Rise
08 Home
09 Seattle
10 The Body
11 Disappointed
12 Warrior
13 Don’t Ask Me
14 Cruel
15 One Drop
16 Reggie Song
17 Out Of The Woods
18 Double Trouble

Exact Audio Copy V1.3 from 2. September 2016

EAC extraction logfile from 1. August 2018, 19:31

PiL / Singles 1978-2015

Used drive : PLEXTOR BD-R PX-B950SA Adapter: 1 ID: 1

Read mode : Secure
Utilize accurate stream : Yes
Defeat audio cache : Yes
Make use of C2 pointers : No

Read offset correction : 6
Overread into Lead-In and Lead-Out : No
Fill up missing offset samples with silence : Yes
Delete leading and trailing silent blocks : No
Null samples used in CRC calculations : Yes
Used interface : Native Win32 interface for Win NT & 2000

Used output format : Internal WAV Routines
Sample format : 44.100 Hz; 16 Bit; Stereo


TOC of the extracted CD

Track | Start | Length | Start sector | End sector
––––––––––––––––––––––––––––-
1 | 0:00.00 | 2:58.55 | 0 | 13404
2 | 2:58.55 | 4:14.67 | 13405 | 32521
3 | 7:13.47 | 4:51.47 | 32522 | 54393
4 | 12:05.19 | 2:49.33 | 54394 | 67101
5 | 14:54.52 | 3:30.33 | 67102 | 82884
6 | 18:25.10 | 3:50.50 | 82885 | 100184
7 | 22:15.60 | 4:28.21 | 100185 | 120305
8 | 26:44.06 | 4:34.29 | 120306 | 140884
9 | 31:18.35 | 3:38.64 | 140885 | 157298
10 | 34:57.24 | 3:08.04 | 157299 | 171402
11 | 38:05.28 | 4:10.52 | 171403 | 190204
12 | 42:16.05 | 4:01.13 | 190205 | 208292
13 | 46:17.18 | 3:41.62 | 208293 | 224929
14 | 49:59.05 | 5:16.42 | 224930 | 248671
15 | 55:15.47 | 4:51.14 | 248672 | 270510
16 | 60:06.61 | 5:53.64 | 270511 | 297049
17 | 66:00.50 | 9:39.15 | 297050 | 340489
18 | 75:39.65 | 3:55.40 | 340490 | 358154


Range status and errors

Selected range

Filename C:\Users\Alex\Desktop\ALLexxess\PiL\2018 The Public Image Is Rotten (7-Disc Box Set Virgin Records)\CD1\PiL - Singles 1978-2015.wav

Peak level 99.8 %
Extraction speed 8.7 X
Range quality 100.0 %
Test CRC C6C1136E
Copy CRC C6C1136E
Copy OK

No errors occurred


AccurateRip summary

Track 1 not present in database
Track 2 not present in database
Track 3 not present in database
Track 4 not present in database
Track 5 not present in database
Track 6 not present in database
Track 7 not present in database
Track 8 not present in database
Track 9 not present in database
Track 10 not present in database
Track 11 not present in database
Track 12 not present in database
Track 13 not present in database
Track 14 not present in database
Track 15 not present in database
Track 16 not present in database
Track 17 not present in database
Track 18 not present in database

None of the tracks are present in the AccurateRip database

End of status report

–– CUETools DB Plugin V2.1.6

[CTDB TOCID: KBdlzIXyI59pnE4yythzXXm1x1Q-] found
Submit result: KBdlzIXyI59pnE4yythzXXm1x1Q- has been confirmed
Track | CTDB Status
1 | (6/6) Accurately ripped
2 | (6/6) Accurately ripped
3 | (6/6) Accurately ripped
4 | (6/6) Accurately ripped
5 | (6/6) Accurately ripped
6 | (6/6) Accurately ripped
7 | (6/6) Accurately ripped
8 | (6/6) Accurately ripped
9 | (6/6) Accurately ripped
10 | (6/6) Accurately ripped
11 | (6/6) Accurately ripped
12 | (6/6) Accurately ripped
13 | (6/6) Accurately ripped
14 | (6/6) Accurately ripped
15 | (6/6) Accurately ripped
16 | (6/6) Accurately ripped
17 | (6/6) Accurately ripped
18 | (6/6) Accurately ripped


==== Log checksum 19DD97AB9EB11C9ECEB6BC1217097FA3907D6C4C5EE1029AB44B35BAF26DF233 ====


[CUETools log; Date: 04.08.2018 12:46:49; Version: 2.1.5]
[CTDB TOCID: KBdlzIXyI59pnE4yythzXXm1x1Q-] found.
Track | CTDB Status
1 | (9/9) Accurately ripped
2 | (9/9) Accurately ripped
3 | (9/9) Accurately ripped
4 | (9/9) Accurately ripped
5 | (9/9) Accurately ripped
6 | (9/9) Accurately ripped
7 | (9/9) Accurately ripped
8 | (9/9) Accurately ripped
9 | (9/9) Accurately ripped
10 | (9/9) Accurately ripped
11 | (9/9) Accurately ripped
12 | (9/9) Accurately ripped
13 | (9/9) Accurately ripped
14 | (9/9) Accurately ripped
15 | (9/9) Accurately ripped
16 | (9/9) Accurately ripped
17 | (9/9) Accurately ripped
18 | (9/9) Accurately ripped
[AccurateRip ID: 002efa24-027cfe90-0b12a712] disk not present in database.

Track Peak [ CRC32 ] [W/O NULL] [ LOG ]
– 99,8 [C6C1136E] [95BA10D3] CRC32
01 98,8 [622A23F5] [5E4F22A6]
02 98,8 [A494B540] [DD4F0841]
03 98,8 [97CDA0B9] [93578113]
04 88,1 [85A1A859] [14BE1DFC]
05 99,8 [F6E1FF90] [3C3781EF]
06 98,5 [D450CB12] [7E7183B2]
07 98,6 [832546B1] [76A03DF3]
08 98,1 [059E7C2E] [D4DC3596]
09 98,0 [A4C82BCB] [8D2495E4]
10 98,1 [651A11E1] [5D434ACA]
11 98,9 [6495D15F] [13F855DE]
12 98,9 [71B31E93] [567F587F]
13 91,8 [42FC2330] [59BC8CBA]
14 87,7 [E03918E9] [8BDDA6F4]
15 98,8 [4E82D508] [152CDC56]
16 98,8 [E7E0A3FB] [83480588]
17 98,8 [6F5AA6F6] [05A675FB]
18 98,8 [4373B237] [6A1B4926]


Public Image Limited - The Public Image Is Rotten (Songs From The Heart) (2018) [5CD + 2DVD Box Set]

Tracklist CD2 - B-Sides, Rarities & Radio Sessions:

B-Sides
01 The Cowboy Song
02 Half Mix / Megga Mix
03 Another
04 Home is Where the Heart is
05 Blue Water
06 Question Mark
07 Selfish Rubbish
08 USLS1 (Mix)
09 Turkey Tits
Rarities
10 Pied Piper
11 Criminal
Radio Sessions
12 Poptones (BBC, John Peel Session 1979)
13 Careering (BBC, John Peel Session 1979)
14 Chant (BBC, John Peel Session 1979)
15 Cruel (BBC, Mark Goodier Live Session 1992)
16 Acid Drops (BBC, Mark Goodier Live Session 1992)
17 Love Hope (BBC, Mark Goodier Live Session 1992)

Exact Audio Copy V1.3 from 2. September 2016

EAC extraction logfile from 31. July 2018, 19:25

PiL / B-Sides, Rarities & Radio Sessions

Used drive : PLEXTOR BD-R PX-B950SA Adapter: 1 ID: 1

Read mode : Secure
Utilize accurate stream : Yes
Defeat audio cache : Yes
Make use of C2 pointers : No

Read offset correction : 6
Overread into Lead-In and Lead-Out : No
Fill up missing offset samples with silence : Yes
Delete leading and trailing silent blocks : No
Null samples used in CRC calculations : Yes
Used interface : Native Win32 interface for Win NT & 2000

Used output format : Internal WAV Routines
Sample format : 44.100 Hz; 16 Bit; Stereo


TOC of the extracted CD

Track | Start | Length | Start sector | End sector
––––––––––––––––––––––––––––-
1 | 0:00.00 | 2:16.61 | 0 | 10260
2 | 2:16.61 | 6:50.36 | 10261 | 41046
3 | 9:07.22 | 3:48.61 | 41047 | 58207
4 | 12:56.08 | 7:33.32 | 58208 | 92214
5 | 20:29.40 | 3:42.64 | 92215 | 108928
6 | 24:12.29 | 4:08.25 | 108929 | 127553
7 | 28:20.54 | 3:33.35 | 127554 | 143563
8 | 31:54.14 | 5:37.42 | 143564 | 168880
9 | 37:31.56 | 2:06.52 | 168881 | 178382
10 | 39:38.33 | 1:50.52 | 178383 | 186684
11 | 41:29.10 | 4:28.28 | 186685 | 206812
12 | 45:57.38 | 4:30.52 | 206813 | 227114
13 | 50:28.15 | 7:31.39 | 227115 | 260978
14 | 57:59.54 | 5:13.62 | 260979 | 284515
15 | 63:13.41 | 5:25.66 | 284516 | 308956
16 | 68:39.32 | 6:49.06 | 308957 | 339637
17 | 75:28.38 | 4:04.26 | 339638 | 357963


Range status and errors

Selected range

Filename C:\Users\Alex\Desktop\ALLexxess\PiL\2018 The Public Image Is Rotten (7-Disc Box Set Virgin Records)\CD2\PiL - B-Sides, Rarities & Radio Sessions.wav

Peak level 100.0 %
Extraction speed 8.7 X
Range quality 99.9 %
Test CRC 5BA9AE79
Copy CRC 5BA9AE79
Copy OK

No errors occurred


AccurateRip summary

Track 1 not present in database
Track 2 not present in database
Track 3 not present in database
Track 4 not present in database
Track 5 not present in database
Track 6 not present in database
Track 7 not present in database
Track 8 not present in database
Track 9 not present in database
Track 10 not present in database
Track 11 not present in database
Track 12 not present in database
Track 13 not present in database
Track 14 not present in database
Track 15 not present in database
Track 16 not present in database
Track 17 not present in database

None of the tracks are present in the AccurateRip database

End of status report

–– CUETools DB Plugin V2.1.6

[CTDB TOCID: pd1ZOFsCJbTICXUBqNRh1X9XSWw-] found
Submit result: pd1ZOFsCJbTICXUBqNRh1X9XSWw- has been confirmed
Track | CTDB Status
1 | (5/5) Accurately ripped
2 | (5/5) Accurately ripped
3 | (5/5) Accurately ripped
4 | (5/5) Accurately ripped
5 | (5/5) Accurately ripped
6 | (5/5) Accurately ripped
7 | (5/5) Accurately ripped
8 | (5/5) Accurately ripped
9 | (5/5) Accurately ripped
10 | (5/5) Accurately ripped
11 | (5/5) Accurately ripped
12 | (5/5) Accurately ripped
13 | (5/5) Accurately ripped
14 | (5/5) Accurately ripped
15 | (5/5) Accurately ripped
16 | (5/5) Accurately ripped
17 | (5/5) Accurately ripped


==== Log checksum 1D13D73338918B41C07CEB667C6E9AF61F1AFBDF5B53154438E209526387B579 ====


[CUETools log; Date: 04.08.2018 12:47:20; Version: 2.1.5]
[CTDB TOCID: pd1ZOFsCJbTICXUBqNRh1X9XSWw-] found.
Track | CTDB Status
1 | (8/8) Accurately ripped
2 | (8/8) Accurately ripped
3 | (8/8) Accurately ripped
4 | (8/8) Accurately ripped
5 | (8/8) Accurately ripped
6 | (8/8) Accurately ripped
7 | (8/8) Accurately ripped
8 | (8/8) Accurately ripped
9 | (8/8) Accurately ripped
10 | (8/8) Accurately ripped
11 | (8/8) Accurately ripped
12 | (8/8) Accurately ripped
13 | (8/8) Accurately ripped
14 | (8/8) Accurately ripped
15 | (8/8) Accurately ripped
16 | (8/8) Accurately ripped
17 | (8/8) Accurately ripped
[AccurateRip ID: 002f540d-025949d4-e812a411] disk not present in database.

Track Peak [ CRC32 ] [W/O NULL] [ LOG ]
– 100,0 [5BA9AE79] [26147304] CRC32
01 77,1 [8E9328EA] [5163FF19]
02 99,8 [7A416B68] [76B2119A]
03 97,1 [2436C678] [3F535DD5]
04 96,6 [AAABB6E9] [CB0DDE02]
05 98,8 [A8C7F704] [29CA281A]
06 98,8 [FD8DAB1E] [A40313D1]
07 98,2 [7167A7FE] [9867B72F]
08 99,8 [B46D79BD] [78594781]
09 95,7 [D5ECF5CD] [077F3F9E]
10 98,8 [20697FAC] [C3397C24]
11 99,9 [BF624928] [41E206C3]
12 100,0 [D42CF19D] [B7B9F708]
13 100,0 [5DC25352] [37A85420]
14 99,9 [B6375488] [FE31CEF9]
15 97,7 [527B0BBD] [1DF3FA2A]
16 98,8 [34E862DF] [1304D0A7]
17 97,7 [EC8543D7] [79F90B2E]


Public Image Limited - The Public Image Is Rotten (Songs From The Heart) (2018) [5CD + 2DVD Box Set]

Tracklist CD3 - Mixes & Dance Tracks:

01 Death Disco (12'')
02 This Is Not A Love Song (12'')
03 Flowers Of Romance (Instrumental)
04 Rise (Bob Clearmountain Mix)
05 Seattle (US Remix 12'')
06 The Body (US Remix Extended 12'')
07 Disappointed (12'')
08 Happy (US Remix 12'')
09 Warrior (Extended 12'' Mix)
10 Lollipop Opera (From This Is PiL)
11 Shoom (From What The World Needs Now…)
Bonus Tracks
12 Death Disco (Original Monitor Mix)
13 This Is Not A Love Song (12'' Remix)

Exact Audio Copy V1.3 from 2. September 2016

EAC extraction logfile from 30. July 2018, 19:37

PiL / 12'' Mixes & Dance Tracks

Used drive : PLEXTOR BD-R PX-B950SA Adapter: 1 ID: 1

Read mode : Secure
Utilize accurate stream : Yes
Defeat audio cache : Yes
Make use of C2 pointers : No

Read offset correction : 6
Overread into Lead-In and Lead-Out : No
Fill up missing offset samples with silence : Yes
Delete leading and trailing silent blocks : No
Null samples used in CRC calculations : Yes
Used interface : Native Win32 interface for Win NT & 2000

Used output format : Internal WAV Routines
Sample format : 44.100 Hz; 16 Bit; Stereo


TOC of the extracted CD

Track | Start | Length | Start sector | End sector
––––––––––––––––––––––––––––-
1 | 0:00.00 | 6:43.59 | 0 | 30283
2 | 6:43.59 | 2:51.15 | 30284 | 43123
3 | 9:34.74 | 4:26.57 | 43124 | 63130
4 | 14:01.56 | 6:18.47 | 63131 | 91527
5 | 20:20.28 | 4:39.43 | 91528 | 112495
6 | 24:59.71 | 5:16.15 | 112496 | 136210
7 | 30:16.11 | 6:45.44 | 136211 | 166629
8 | 37:01.55 | 7:08.62 | 166630 | 198791
9 | 44:10.42 | 6:46.36 | 198792 | 229277
10 | 50:57.03 | 6:54.54 | 229278 | 260381
11 | 57:51.57 | 6:31.31 | 260382 | 289737
12 | 64:23.13 | 9:24.09 | 289738 | 332046
13 | 73:47.22 | 4:30.20 | 332047 | 352316


Range status and errors

Selected range

Filename C:\Users\Alex\Desktop\ALLexxess\PiL\2018 The Public Image Is Rotten (7-Disc Box Set Virgin Records)\CD3\PiL - 12'' Mixes & Dance Tracks.wav

Peak level 100.0 %
Extraction speed 8.6 X
Range quality 100.0 %
Test CRC 62811201
Copy CRC 62811201
Copy OK

No errors occurred


AccurateRip summary

Track 1 not present in database
Track 2 not present in database
Track 3 not present in database
Track 4 not present in database
Track 5 not present in database
Track 6 not present in database
Track 7 not present in database
Track 8 not present in database
Track 9 not present in database
Track 10 not present in database
Track 11 not present in database
Track 12 not present in database
Track 13 not present in database

None of the tracks are present in the AccurateRip database

End of status report

–– CUETools DB Plugin V2.1.6

[CTDB TOCID: UoGGNoN9XOByuz4SCfeXmW5mUUI-] found
Submit result: UoGGNoN9XOByuz4SCfeXmW5mUUI- has been confirmed
Track | CTDB Status
1 | (4/4) Accurately ripped
2 | (4/4) Accurately ripped
3 | (4/4) Accurately ripped
4 | (4/4) Accurately ripped
5 | (4/4) Accurately ripped
6 | (4/4) Accurately ripped
7 | (4/4) Accurately ripped
8 | (4/4) Accurately ripped
9 | (4/4) Accurately ripped
10 | (4/4) Accurately ripped
11 | (4/4) Accurately ripped
12 | (4/4) Accurately ripped
13 | (4/4) Accurately ripped


==== Log checksum CB65B4B9DA8BFEB38A4FFFA3C7A4C266EB76B0DD84A3161B7119C7150DA699E1 ====


[CUETools log; Date: 04.08.2018 12:48:14; Version: 2.1.5]
[CTDB TOCID: UoGGNoN9XOByuz4SCfeXmW5mUUI-] found.
Track | CTDB Status
1 | (8/8) Accurately ripped
2 | (8/8) Accurately ripped
3 | (8/8) Accurately ripped
4 | (8/8) Accurately ripped
5 | (8/8) Accurately ripped
6 | (8/8) Accurately ripped
7 | (8/8) Accurately ripped
8 | (8/8) Accurately ripped
9 | (8/8) Accurately ripped
10 | (8/8) Accurately ripped
11 | (8/8) Accurately ripped
12 | (8/8) Accurately ripped
13 | (8/8) Accurately ripped
[AccurateRip ID: 00232fa6-0167182d-af12590d] disk not present in database.

Track Peak [ CRC32 ] [W/O NULL] [ LOG ]
– 100,0 [62811201] [4A8BD00B] CRC32
01 98,5 [300A580E] [6C655CB8]
02 98,0 [7E977542] [FB7685D4]
03 99,8 [E030E938] [39B1F839]
04 98,8 [0E232274] [D1325FF4]
05 97,9 [AF1717FA] [A342D1FB]
06 97,9 [5AFF8540] [2B964D69]
07 98,8 [99C05C0A] [623C0650]
08 97,9 [60C8180A] [680C9950]
09 98,9 [03D81009] [06FE321B]
10 94,8 [130F8191] [27DCB987]
11 100,0 [03FB1E29] [67AD4B25]
12 98,8 [C9C08FBC] [6CCA17C8]
13 99,8 [99DA1E05] [03FAB3E4]


Public Image Limited - The Public Image Is Rotten (Songs From The Heart) (2018) [5CD + 2DVD Box Set]

Tracklist CD4 - Unreleased Mixes & Tracks:

01 Annalisa ('New Mix' / Townhouse 1979)
02 Albatross ('Monitor Mix' 1979)
03 Careering (Live Paris 1980 / Previously Unreleased)
04 Banging The Door (Alternative Mix / Townhouse 1980) (aka The Door)
05 Vampire (Unreleased Track / Townhouse 1981)
06 Nineteen Eighty One (Original Version / Townhouse 1981)
07 Bad Night (Unreleased Track / Park South 1983)
08 Things In E (aka Ease) (Alternative Laswell Mix 1985)
09 Can You Feel The Fours (Unreleased Instrumental / Farmhouse 1987)
10 Spy Thriller Open And Revolving (Alternative Mix / Farmhouse 1987) (aka Spy Thriller)
11 Kashmir (Unreleased Renovations Mix 1987 / Instrumental)
12 Cajun (Unreleased Bill Laswell Instrumental 1988)
13 Worry ('Ruff Mix' / Advision 1988)
14 Think Tank ('Outtake' / Eldorado 1991)

Exact Audio Copy V1.3 from 2. September 2016

EAC extraction logfile from 29. July 2018, 15:24

PiL / Unreleased Mixes & Tracks

Used drive : PLEXTOR BD-R PX-B950SA Adapter: 1 ID: 1

Read mode : Secure
Utilize accurate stream : Yes
Defeat audio cache : Yes
Make use of C2 pointers : No

Read offset correction : 6
Overread into Lead-In and Lead-Out : No
Fill up missing offset samples with silence : Yes
Delete leading and trailing silent blocks : No
Null samples used in CRC calculations : Yes
Used interface : Native Win32 interface for Win NT & 2000

Used output format : Internal WAV Routines
Sample format : 44.100 Hz; 16 Bit; Stereo


TOC of the extracted CD

Track | Start | Length | Start sector | End sector
––––––––––––––––––––––––––––-
1 | 0:00.00 | 6:00.74 | 0 | 27073
2 | 6:00.74 | 10:18.29 | 27074 | 73452
3 | 16:19.28 | 6:59.43 | 73453 | 104920
4 | 23:18.71 | 5:21.26 | 104921 | 129021
5 | 28:40.22 | 3:42.47 | 129022 | 145718
6 | 32:22.69 | 3:22.26 | 145719 | 160894
7 | 35:45.20 | 3:59.69 | 160895 | 178888
8 | 39:45.14 | 13:58.03 | 178889 | 241741
9 | 53:43.17 | 5:07.59 | 241742 | 264825
10 | 58:51.01 | 4:09.00 | 264826 | 283500
11 | 63:00.01 | 4:10.39 | 283501 | 302289
12 | 67:10.40 | 3:36.02 | 302290 | 318491
13 | 70:46.42 | 3:49.67 | 318492 | 335733
14 | 74:36.34 | 4:53.45 | 335734 | 357753


Range status and errors

Selected range

Filename C:\Users\Alex\Desktop\ALLexxess\PiL\2018 The Public Image Is Rotten (7-Disc Box Set Virgin Records)\CD4\PiL - Unreleased Mixes & Tracks.wav

Peak level 98.0 %
Extraction speed 8.6 X
Range quality 100.0 %
Test CRC 7DC2CEB8
Copy CRC 7DC2CEB8
Copy OK

No errors occurred


AccurateRip summary

Track 1 not present in database
Track 2 not present in database
Track 3 not present in database
Track 4 not present in database
Track 5 not present in database
Track 6 not present in database
Track 7 not present in database
Track 8 not present in database
Track 9 not present in database
Track 10 not present in database
Track 11 not present in database
Track 12 not present in database
Track 13 not present in database
Track 14 not present in database

None of the tracks are present in the AccurateRip database

End of status report

–– CUETools DB Plugin V2.1.6

[CTDB TOCID: wcRQJumFvztLNNHpMzoXQcS8lXI-] found
Submit result: wcRQJumFvztLNNHpMzoXQcS8lXI- has been confirmed
Track | CTDB Status
1 | (4/4) Accurately ripped
2 | (4/4) Accurately ripped
3 | (4/4) Accurately ripped
4 | (4/4) Accurately ripped
5 | (4/4) Accurately ripped
6 | (4/4) Accurately ripped
7 | (4/4) Accurately ripped
8 | (4/4) Accurately ripped
9 | (4/4) Accurately ripped
10 | (4/4) Accurately ripped
11 | (4/4) Accurately ripped
12 | (4/4) Accurately ripped
13 | (4/4) Accurately ripped
14 | (4/4) Accurately ripped


==== Log checksum 1A6C6CAB5DF6C3DF1FD534A27AA8D3934ACDED195FA734D2BF3D75CE7CFE4B3C ====


[CUETools log; Date: 04.08.2018 12:48:41; Version: 2.1.5]
[CTDB TOCID: wcRQJumFvztLNNHpMzoXQcS8lXI-] found.
Track | CTDB Status
1 | (8/8) Accurately ripped
2 | (8/8) Accurately ripped
3 | (8/8) Accurately ripped
4 | (8/8) Accurately ripped
5 | (8/8) Accurately ripped
6 | (8/8) Accurately ripped
7 | (8/8) Accurately ripped
8 | (8/8) Accurately ripped
9 | (8/8) Accurately ripped
10 | (8/8) Accurately ripped
11 | (8/8) Accurately ripped
12 | (8/8) Accurately ripped
13 | (8/8) Accurately ripped
14 | (7/8) Accurately ripped
[AccurateRip ID: 002c9f18-01d21fc0-c412a20e] disk not present in database.

Track Peak [ CRC32 ] [W/O NULL] [ LOG ]
– 98,0 [7DC2CEB8] [31798E9C] CRC32
01 90,2 [4C564F32] [A364F5BE]
02 98,0 [321651B4] [CE2F5FE8]
03 98,0 [B8650D81] [AE029624]
04 98,0 [51EC4BA1] [67C42051]
05 98,0 [3DE8B929] [48D50319]
06 98,0 [96B8AF89] [BD0F3041]
07 98,0 [A82D47A6] [C6722794]
08 98,0 [BF3C56DE] [BEC2E9E7]
09 91,2 [1402728A] [1A76A100]
10 98,0 [7C0FB8F4] [D8766E57]
11 98,0 [3DB7C11B] [D8E2E044]
12 98,0 [6902367E] [AE47D821]
13 98,0 [BF08C81B] [35179EBB]
14 98,0 [AA8534B4] [B08FE409]


Public Image Limited - The Public Image Is Rotten (Songs From The Heart) (2018) [5CD + 2DVD Box Set]

Tracklist CD5 - Live Concert
Live At New York Ritz, July 16th 1989:


01 Warrior (With Intro)
02 Happy
03 This Is Not A Love Song
04 Home
05 Round
06 Brave New World
07 Same Old Story
08 The Body
09 Open & Revolving
10 Rise
11 Disappointed
12 Public Image
13 Seattle
14 World Destruction

Exact Audio Copy V1.3 from 2. September 2016

EAC extraction logfile from 29. July 2018, 14:44

PiL / Live Concert (New York Ritz 1989)

Used drive : PLEXTOR BD-R PX-B950SA Adapter: 1 ID: 1

Read mode : Secure
Utilize accurate stream : Yes
Defeat audio cache : Yes
Make use of C2 pointers : No

Read offset correction : 6
Overread into Lead-In and Lead-Out : No
Fill up missing offset samples with silence : Yes
Delete leading and trailing silent blocks : No
Null samples used in CRC calculations : Yes
Used interface : Native Win32 interface for Win NT & 2000

Used output format : Internal WAV Routines
Sample format : 44.100 Hz; 16 Bit; Stereo


TOC of the extracted CD

Track | Start | Length | Start sector | End sector
––––––––––––––––––––––––––––-
1 | 0:00.00 | 5:21.47 | 0 | 24121
2 | 5:21.47 | 4:01.10 | 24122 | 42206
3 | 9:22.57 | 5:20.30 | 42207 | 66236
4 | 14:43.12 | 5:34.08 | 66237 | 91294
5 | 20:17.20 | 5:01.00 | 91295 | 113869
6 | 25:18.20 | 4:34.26 | 113870 | 134445
7 | 29:52.46 | 5:05.18 | 134446 | 157338
8 | 34:57.64 | 6:58.66 | 157339 | 188754
9 | 41:56.55 | 4:25.12 | 188755 | 208641
10 | 46:21.67 | 8:10.63 | 208642 | 245454
11 | 54:32.55 | 5:56.33 | 245455 | 272187
12 | 60:29.13 | 3:18.23 | 272188 | 287060
13 | 63:47.36 | 5:13.03 | 287061 | 310538
14 | 69:00.39 | 5:15.24 | 310539 | 334187


Range status and errors

Selected range

Filename C:\Users\Alex\Desktop\ALLexxess\PiL\2018 The Public Image Is Rotten (7-Disc Box Set Virgin Records)\CD5\PiL - Live Concert (New York Ritz 1989).wav

Peak level 84.6 %
Extraction speed 8.1 X
Range quality 100.0 %
Test CRC 1555D627
Copy CRC 1555D627
Copy OK

No errors occurred


AccurateRip summary

Track 1 not present in database
Track 2 not present in database
Track 3 not present in database
Track 4 not present in database
Track 5 not present in database
Track 6 not present in database
Track 7 not present in database
Track 8 not present in database
Track 9 not present in database
Track 10 not present in database
Track 11 not present in database
Track 12 not present in database
Track 13 not present in database
Track 14 not present in database

None of the tracks are present in the AccurateRip database

End of status report

–– CUETools DB Plugin V2.1.6

[CTDB TOCID: S4aYcGxpZ_1M4SQIZRmh3l5l5Y4-] found
Submit result: S4aYcGxpZ_1M4SQIZRmh3l5l5Y4- has been confirmed
Track | CTDB Status
1 | (3/3) Accurately ripped
2 | (3/3) Accurately ripped
3 | (3/3) Accurately ripped
4 | (3/3) Accurately ripped
5 | (3/3) Accurately ripped
6 | (3/3) Accurately ripped
7 | (3/3) Accurately ripped
8 | (3/3) Accurately ripped
9 | (3/3) Accurately ripped
10 | (3/3) Accurately ripped
11 | (3/3) Accurately ripped
12 | (3/3) Accurately ripped
13 | (3/3) Accurately ripped
14 | (3/3) Accurately ripped


==== Log checksum 4DD490379845A6F1E1A1DF4C8BB5184D398922ACB0220F85F75BA63393AE43DB ====


[CUETools log; Date: 04.08.2018 12:49:10; Version: 2.1.5]
[CTDB TOCID: S4aYcGxpZ_1M4SQIZRmh3l5l5Y4-] found.
Track | CTDB Status
1 | (6/6) Accurately ripped
2 | (6/6) Accurately ripped
3 | (6/6) Accurately ripped
4 | (6/6) Accurately ripped
5 | (6/6) Accurately ripped
6 | (6/6) Accurately ripped
7 | (6/6) Accurately ripped
8 | (6/6) Accurately ripped
9 | (6/6) Accurately ripped
10 | (6/6) Accurately ripped
11 | (6/6) Accurately ripped
12 | (6/6) Accurately ripped
13 | (6/6) Accurately ripped
14 | (6/6) Accurately ripped
[AccurateRip ID: 0025c938-01963c02-ce11670e] disk not present in database.

Track Peak [ CRC32 ] [W/O NULL] [ LOG ]
– 84,6 [1555D627] [4F4C6150] CRC32
01 84,6 [3F7A7311] [821B57DD]
02 77,3 [2EBE8D75] [22D04134]
03 81,9 [91773D69] [7A5EC334]
04 77,0 [CCA3CCD1] [B8E34CC7]
05 77,4 [F743E252] [12E901D3]
06 74,0 [18228505] [89865449]
07 77,6 [A7159BF9] [BC16D1F3]
08 72,9 [CE1A26C6] [82F4DB66]
09 68,2 [481BDA84] [82B2B7E9]
10 78,0 [AED0036C] [64034CBF]
11 69,3 [4D5242CC] [F84024C9]
12 74,8 [96F2633F] [4B1FEF78]
13 74,8 [57AFFC1B] [80BDF904]
14 76,3 [ADE48BBE] [A8EA9FAA]


Public Image Limited - The Public Image Is Rotten (Songs From The Heart) (2018) [5CD + 2DVD Box Set]

Tracklist DVD1 - Promo Videos 1978-2015
Talin, Rock Summer Festival, Estonia, August 26th 1988:


Promo Videos
01 Public Image
02 Death Disco
03 This Is Not A Love Song
04 This Is Not A Love Song (Live In Tokyo)
05 Bad Life
06 Rise
07 Home
08 Seattle
09 The Body (Uncensored)
10 Disappointed
11 Warrior
12 Don’t Ask Me
13 Cruel
14 Covered
15 One Drop
16 Reggie Song
17 Out Of The Woods
18 Lollipop Opera (Unreleased)
19 Double Trouble
20 Bettie Page
21 The One
Talin, Rock Summer Festival,
Estonia, August 26th 1988
(Intro)
01 Public Image
02 FFF
03 Seattle
04 Home
05 Bags
06 Rise
07 Hard Times
08 Religion
09 Rules & Regulations
10 Angry
11 Open & Revolving
12 Holidays In The Sun
13 The Body
14 World Destruction

Title: DVD1
Size: 7.88 Gb ( 8 265 844,00 KBytes ) - DVD-9
Enabled regions: 1, 2, 3, 4, 5, 6, 7, 8

VTS_01 :
Play Length: 00:58:50+{00:03:06}+{00:04:15}+{00:04:27}+{00:04:38}+{00:04:38}+{00:04:28}+{00:04:32}+{00:03:18}+{00:03:13}+{00:04:08}+{00:04:07}+{00:04:32}+{00:05:17}+{00:04:12}+01:16:10
Video: NTSC 4:3 (720x480) VBR
Audio:
English (Dolby AC3, 2 ch)

VTS_02 :
Play Length: 00:35:58+{00:05:05}+{00:05:52}+{00:09:35}+{00:04:01}+{00:04:07}+{00:03:37}+{00:03:40}
Video: NTSC 16:9 (720x480) VBR, Auto Letterboxed
Audio:
English (Dolby AC3, 2 ch)


Public Image Limited - The Public Image Is Rotten (Songs From The Heart) (2018) [5CD + 2DVD Box Set]

Tracklist DVD2 - BBC TV Archive
Sydney, Enmore Theatre, Australia, April 10th 2013:


BBC Archive
01 Death Disco - BBC, Top Of The Pops 1979
02 Poptones & Careering - BBC, Old Grey Whistle Test 1980
03 Flowers of Romance - BBC, Top Of The Pops 1981
04 Rise - BBC, Top Of The Pops 1986
05 Home & Round - BBC, Old Grey Whistle Test 1986
06 Disappointed - The Late Show 1989
Sydney, Enmore Theatre,
Australia, April 10th 2013
01 Four Enclosed Walls
02 Albatross
03 Deeper Water
04 Memories
05 Reggie Song
06 Disappointed
07 Warrior
08 Flowers Uf Romance
09 One Drop
10 Death Disco
11 This Is Not A Love Song
12 Public Image
13 Out Of The Woods
14 Rise
15 Open Up

Title: DVD2
Size: 7.13 Gb ( 7 475 714,00 KBytes ) - DVD-9
Enabled regions: 1, 2, 3, 4, 5, 6, 7, 8

VTS_01 :
Play Length: 00:32:12+{00:02:29}+{00:03:44}+{00:05:04}+{00:02:10}+{00:04:02}+{00:05:23}+{00:03:46}+{00:05:34}
Video: NTSC 4:3 (720x480) VBR
Audio:
English (Dolby AC3, 2 ch)

VTS_02 :
Play Length: 02:01:43
Video: NTSC 16:9 (720x480) VBR, Auto Letterboxed
Audio:
English (Dolby AC3, 2 ch)


Public Image Limited - The Public Image Is Rotten (Songs From The Heart) (2018) [5CD + 2DVD Box Set]

Public Image Limited - The Public Image Is Rotten (Songs From The Heart) (2018) [5CD + 2DVD Box Set]

Public Image Limited - The Public Image Is Rotten (Songs From The Heart) (2018) [5CD + 2DVD Box Set]

Public Image Limited - The Public Image Is Rotten (Songs From The Heart) (2018) [5CD + 2DVD Box Set]

Public Image Limited - The Public Image Is Rotten (Songs From The Heart) (2018) [5CD + 2DVD Box Set]

Public Image Limited - The Public Image Is Rotten (Songs From The Heart) (2018) [5CD + 2DVD Box Set]

Public Image Limited - The Public Image Is Rotten (Songs From The Heart) (2018) [5CD + 2DVD Box Set]

Public Image Limited - The Public Image Is Rotten (Songs From The Heart) (2018) [5CD + 2DVD Box Set]

Public Image Limited - The Public Image Is Rotten (Songs From The Heart) (2018) [5CD + 2DVD Box Set]

All thanks go to ALLexxess

Public Image Limited or Public Image Limited in my Blog

Download Public Image Limited - The Public Image Is Rotten (Songs From The Heart) (2018: