Subcategories

The Rides - Pierced Arrow (2016)

Posted By: popsakov
The Rides - Pierced Arrow (2016)

The Rides - Pierced Arrow (2016)
EAC Rip | FLAC (Img) + Cue + Log ~ 330 Mb | MP3 CBR320 ~ 108 Mb
Full Scans ~ 112 Mb | 00:44:53 | RAR 5% Recovery
Blues, Blues Rock | 429 Records #FTN16054 | US

Breaking more fresh new blues-rock ground than ever on their raucous and soulful new album Pierced Arrow, The Rides are letting their growing legion of fans know they’re in this for the long haul. Their ongoing freewheeling journey is all there in the name. When they came up with that clever moniker for what Stephen Stills calls “the blues band of my dreams,” the two-time Rock and Roll Hall of Famer, five time Grammy nominated guitar great Kenny Wayne Shepherd and Chicago rock/blues keyboardist Barry Goldberg knew it was more than just a one time, multi-generational fusion of legendary musical souls. They envisioned – and have since set out upon – a dynamic, wide open road ahead.

Stephen Stills, Kenny Wayne Shepherd, and Barry Goldberg had enough fun with Can't Get Enough, their first album as the Rides, that they decided to knock out another one three years later. Called Pierced Arrow, the album is pretty similar to the 2013 debut. The two singer/guitarists duel with their six strings and trade off songs, allowing covers like Willie Dixon's classic "My Babe" into the mix. Stills still favors elastic structures graced by folky harmonies, a technique that doesn't feel strictly blues, but provides a nice counterpart to the straight-ahead Shepherd, who continues to favor 12-bar blues. This split echoes in the leads the two trade off: Stills winds his way around the fretboard while Shepherd spits out leads. Ultimately, it's this guitar interplay that's the attribute of Pierced Arrow. Some of the songs stick out – particularly, Stills' two attempts at social commentary, "Virtual World" and "Mr. Policeman," both of which would've fit on a CSN LP – but this is a record about instrumental interplay, not about songs.

~ Stephen Thomas Erlewine, All Music
The Rides - Pierced Arrow (2016)


***************

The Rides - Pierced Arrow (2016)

Track List:

01. Kick Out Of It [04:07]
02. Riva Diva [03:22]
03. Virtual World [04:05]
04. By My Side [05:15]
05. Mr. Policeman [04:05]
06. I've Got To Use My Imagination [06:16]
07. Game On [04:05]
08. I Need Your Lovin' [04:57]
09. There Was A Place [04:41]
10. My Babe [04:03]

Exact Audio Copy V1.0 beta 3 from 29. August 2011

Отчёт EAC об извлечении, выполненном 6. мая 2016, 18:49

The Rides / Pierced Arrow

Дисковод: PLEXTOR DVDR PX-880SA Adapter: 1 ID: 0

Режим чтения : Достоверность
Использование точного потока : Да
Отключение кэша аудио : Да
Использование указателей C2 : Нет

Коррекция смещения при чтении : 6
Способность читать области Lead-in и Lead-out : Нет
Заполнение пропущенных сэмплов тишиной : Да
Удаление блоков с тишиной в начале и конце : Нет
При вычислениях CRC использовались нулевые сэмплы : Да
Интерфейс : Установленный внешний ASPI-интерфейс

Выходной формат : Пользовательский кодировщик
Выбранный битрейт : 1024 kBit/s
Качество : Высокий
Добавление ID3-тега : Нет
Утилита сжатия : C:\Program Files\Exact Audio Copy\FLAC\FLAC.EXE
Дополнительные параметры : -8 -V -T "ARTIST=%artist%" -T "ALBUM=%albumtitle%" -T "DATE=%year%" -T "GENRE=%genre%" -T "COMMENT=ripped by izia1956" %source%


TOC извлечённого CD

Трек | Старт | Длительность | Начальный сектор | Конечный сектор
––––––––––––––––––––––––––––––––––-
1 | 0:00.00 | 4:06.31 | 0 | 18480
2 | 4:06.31 | 3:21.54 | 18481 | 33609
3 | 7:28.10 | 4:04.11 | 33610 | 51920
4 | 11:32.21 | 5:14.65 | 51921 | 75535
5 | 16:47.11 | 4:04.67 | 75536 | 93902
6 | 20:52.03 | 6:15.41 | 93903 | 122068
7 | 27:07.44 | 4:04.65 | 122069 | 140433
8 | 31:12.34 | 4:56.59 | 140434 | 162692
9 | 36:09.18 | 4:40.47 | 162693 | 183739
10 | 40:49.65 | 4:02.61 | 183740 | 201950


Характеристики диапазона извлечения и сообщения об ошибках

Выбранный диапазон

Имя файла D:\BitComet\The Rides\2016 - Pirced Arrow\The Rides - Pierced Arrow.wav

Пиковый уровень 98.8 %
Скорость извлечения 2.8 X
Качество диапазона 100.0 %
CRC теста B27AFBFD
CRC копии B27AFBFD
Копирование… OK

Ошибок не произошло


AccurateRip: сводка

Трек 1 отсутствует в базе данных
Трек 2 отсутствует в базе данных
Трек 3 отсутствует в базе данных
Трек 4 отсутствует в базе данных
Трек 5 отсутствует в базе данных
Трек 6 отсутствует в базе данных
Трек 7 отсутствует в базе данных
Трек 8 отсутствует в базе данных
Трек 9 отсутствует в базе данных
Трек 10 отсутствует в базе данных

Ни одного трека нет в базе AccurateRip

Конец отчёта

==== Контрольная сумма отчёта E700C098C665276D01635F0483D55D1C411CA4670CFA3CFA298664FD0B0793AB ====

[CUETools log; Date: 19.11.2019 21:55:45; Version: 2.1.6]
[CTDB TOCID: gJ.sndFO3O3sMpnJzcHhalpvoLY-] found.
Track | CTDB Status
1 | (69/70) Accurately ripped
2 | (69/70) Accurately ripped
3 | (69/70) Accurately ripped
4 | (69/70) Accurately ripped
5 | (69/70) Accurately ripped
6 | (69/70) Accurately ripped
7 | (69/70) Accurately ripped
8 | (69/70) Accurately ripped
9 | (69/70) Accurately ripped
10 | (69/70) Accurately ripped
[AccurateRip ID: 00108bb2-008616ac-7f0a840a] found.
Track [ CRC | V2 ] Status
01 [44f8739f|9508fc74] (00+33/33) Accurately ripped
02 [ee629c37|eb3fe7e0] (00+33/33) Accurately ripped
03 [c5277de4|66765dfd] (00+33/33) Accurately ripped
04 [25d94036|7a418266] (00+33/33) Accurately ripped
05 [bf82bf8b|e6efba4b] (00+33/33) Accurately ripped
06 [62ef827b|f35ff352] (00+33/33) Accurately ripped
07 [38601f89|f8cc80b6] (00+33/33) Accurately ripped
08 [d13e0b27|0ac54984] (00+33/33) Accurately ripped
09 [3c5e861a|26be6c1e] (00+33/33) Accurately ripped
10 [eabfe233|d7b063fe] (00+33/33) Accurately ripped

Track Peak [ CRC32 ] [W/O NULL] [ LOG ]
– 98,8 [B27AFBFD] [E7E59437] CRC32
01 98,8 [8B562B66] [8FCA02DA]
02 98,8 [B4939AD6] [8990509A]
03 98,8 [DC742A59] [F7CA5376]
04 98,8 [CEA4263C] [A4B88CEC]
05 98,8 [E4CF49A3] [55B54903]
06 98,8 [C9B495E2] [652A588B]
07 98,8 [E41C49E9] [EB69ACBD]
08 98,8 [7ED385E1] [373B14E7]
09 98,8 [2E4A595C] [778A46EA]
10 98,8 [51AC4B5C] [CC462A31]

The Rides - Pierced Arrow (2016)


See also:

The Rides - Can't Get Enough (2013)

All thanks go to izia1956

>>> My Blog <<<

DOWNLOAD: