Subcategories

The Rolling Stones: Collection (1964-1994) [Vinyl Rip 16/44 & mp3-320]

Posted By: v3122
The Rolling Stones: Collection (1964-1994) [Vinyl Rip 16/44 & mp3-320]

The Rolling Stones: Collection (1964-1994)
Vinyl Rip 16/44 | Flac(Image + Cue) > 9238 Mb | MP3 CBR 320Kbps > 4016 Mb
31LP | Label: Various | Blues Rock, Classic Rock, Rock & Roll

The Rolling Stones are an English rock band formed in London, England, in 1962. The first stable line-up consisted of Brian Jones (guitar, harmonica), Mick Jagger (lead vocals), Keith Richards (guitar, backing vocals), Bill Wyman (bass), Charlie Watts (drums), and Ian Stewart (piano). Stewart was removed from the official line-up in 1963 but continued as a touring member until his death in 1985. Brian Jones was the original leader of the group. The band's primary songwriters, Jagger and Richards, assumed leadership after Andrew Loog Oldham became the group's manager. Their musical focus shifted from covering blues songs to writing original material, a decision with which Jones did not agree. Jones left the band less than a month before his death in 1969, having already been replaced by Mick Taylor, who remained until 1974. After Taylor left the band, Ronnie Wood took his place in 1975 and continues on guitar in tandem with Richards. Following Wyman's departure in 1993, Darryl Jones joined as their touring bassist. The Stones' touring keyboardists have included Nicky Hopkins (1967–1982), Ian McLagan (1978–1981), Billy Preston (through the mid-1970s) and Chuck Leavell (1982–present).

The Rolling Stones were at the forefront of the British Invasion of bands that became popular in the United States in 1964 and were identified with the youthful and rebellious counterculture of the 1960s. Rooted in blues and early rock and roll, the group began a short period of musical experimentation in the mid-1960s that peaked with the psychedelic album Their Satanic Majesties Request (1967). Subsequently, the group returned to its "bluesy" roots with Beggars Banquet (1968) which along with its follow-ups Let It Bleed (1969), Sticky Fingers (1971) and Exile on Main St. (1972) is generally considered the band's best work and is seen as their "Golden Age". During this period, they were first introduced on stage as "The Greatest Rock and Roll Band in the World".[1][2] Musicologist Robert Palmer attributed the endurance of the Rolling Stones to their being "rooted in traditional verities, in rhythm-and-blues and soul music", while "more ephemeral pop fashions have come and gone".

The band continued releasing commercially successful albums, including Some Girls (1978) and Tattoo You (1981), which were their most popular albums worldwide. From 1983 to 1987 tensions between Jagger and Richards almost caused the band to split; however, they overcame their differences and rekindled their friendship after a temporary separation to work on solo projects. The Stones experienced a comeback with Steel Wheels (1989), promoted by a large stadium and arena tour. Since the 1990s, new recorded material from the group has been less frequent and less well-received. Despite this, the Rolling Stones continued to be a huge attraction on the live circuit, with stadium tours in the 1990s and 2000s. By 2007, the band had four of the top five highest-grossing concert tours of all time: Voodoo Lounge Tour (1994–1995), Bridges to Babylon Tour (1997–1998), Licks Tour (2002–2003) and A Bigger Bang Tour (2005–2007).

The Rolling Stones were inducted into the Rock and Roll Hall of Fame in 1989 and the UK Music Hall of Fame in 2004. Rolling Stone magazine ranked them fourth on the "100 Greatest Artists of All Time" list and their estimated record sales are above 250 million. They have released 30 studio albums, 23 live albums and numerous compilations. Let It Bleed (1969) marked the first of five consecutive No. 1 studio and live albums in the UK. Sticky Fingers (1971) was the first of eight consecutive No. 1 studio albums in the US. In 2008, the band ranked 10th on the Billboard Hot 100 All-Time Top Artists chart. In 2012, the band celebrated its 50th anniversary…

~ wiki
The Rolling Stones: Collection (1964-1994):

The Rolling Stones: Collection (1964-1994) [Vinyl Rip 16/44 & mp3-320]

Tracklist LP01 - 1964 - The Rolling Stones:
Rip by Anonimous

01. Route 66
02. I Just Want To Make Love To You
03. Honest I Do
04. Mona (I Need You Baby)
05. Now I've Got A Witness
06. Little By Little
07. I'm King Bee
08. Carol
09. Tell Me
10. Can I Get A Witness
11. You Can Make It If You Try
12. Walking The Dog

foobar2000 1.4 / Dynamic Range Meter 1.1.1
log date: 2018-09-25 05:41:09

––––––––––––––––––––––––––––––––––––––––
Analyzed: The Rolling Stones / The Rolling Stones (Aus Mono)
––––––––––––––––––––––––––––––––––––––––

DR Peak RMS Duration Track
––––––––––––––––––––––––––––––––––––––––
DR11 -1.60 dB -14.63 dB 2:22 01-Route 66
DR10 -0.95 dB -13.50 dB 2:19 02-I Just Want To Make Love To You
DR11 -1.79 dB -15.22 dB 2:11 03-Honest I Do
DR12 -1.58 dB -14.84 dB 3:36 04-Mona (I Need You Baby)
DR11 -1.27 dB -14.41 dB 2:31 05-Now I've Got A Witness
DR12 -0.80 dB -14.54 dB 2:40 06-Little By Little
DR14 -1.28 dB -16.82 dB 2:38 07-I'm King Bee
DR12 -1.61 dB -14.88 dB 2:36 08-Carol
DR13 -2.31 dB -17.40 dB 4:08 09-Tell Me
DR13 -2.01 dB -16.17 dB 2:58 10-Can I Get A Witness
DR12 -2.26 dB -17.51 dB 2:03 11-You Can Make It If You Try
DR13 -2.13 dB -16.57 dB 3:11 12-Walking The Dog
––––––––––––––––––––––––––––––––––––––––

Number of tracks: 12
Official DR value: DR12

Samplerate: 44100 Hz
Channels: 2
Bits per sample: 16
Bitrate: 512 kbps
Codec: FLAC
================================================================================



The Rolling Stones: Collection (1964-1994) [Vinyl Rip 16/44 & mp3-320]

Tracklist LP02 - 1964 - 12 X 5:
Rip by jstger6969

A1 Around And Around
A2 Confessin' The Blues
A3 Empty Heart
A4 Time Is On My Side
A5 Good Times, Bad Times
A6 It's All Over Now
B1 2010 South Michigan Avenue
B2 Under The Boardwalk
B3 Congratulations
B4 Grown Up Wrong
B5 If You Need Me
B6 Susie Q

foobar2000 1.4 / Dynamic Range Meter 1.1.1
log date: 2018-09-25 05:41:23

––––––––––––––––––––––––––––––––––––––––
Analyzed: The Rolling Stones / 12 × 5
––––––––––––––––––––––––––––––––––––––––

DR Peak RMS Duration Track
––––––––––––––––––––––––––––––––––––––––
DR11 -1.46 dB -14.36 dB 3:08 01-Around and Around
DR11 -0.46 dB -14.67 dB 2:51 02-Confessin' the Blues
DR10 -1.92 dB -14.16 dB 2:40 03-Empty Heart
DR12 -2.08 dB -16.11 dB 2:55 04-Time Is on My Side
DR12 -1.60 dB -17.75 dB 2:35 05-Good Times, Bad Times
DR11 -1.28 dB -14.87 dB 3:31 06-It's All Over Now
DR11 -1.05 dB -14.76 dB 2:13 07-2120 South Michigan Avenue
DR12 -1.27 dB -16.87 dB 2:51 08-Under the Boardwalk
DR10 -3.33 dB -16.60 dB 2:33 09-Congratulations
DR11 -2.48 dB -16.10 dB 2:10 10-Grown Up Wrong
DR10 -3.93 dB -15.18 dB 2:08 11-If You Need Me
DR12 0.00 dB -15.12 dB 1:53 12-Susie Q
––––––––––––––––––––––––––––––––––––––––

Number of tracks: 12
Official DR value: DR11

Samplerate: 44100 Hz
Channels: 2
Bits per sample: 16
Bitrate: 759 kbps
Codec: FLAC
================================================================================



The Rolling Stones: Collection (1964-1994) [Vinyl Rip 16/44 & mp3-320]

Tracklist LP03 - 1965 - Now!:
Rip by jstger6969

A1 Everybody Needs Somebody To Love
A2 Down Home Girl
A3 You Can't Catch Me
A4 Heart Of Stone
A5 What A Shame
A6 Mona (I Need You Baby)
B1 Down The Road Apiece
B2 Off The Hook
B3 Pain In My Heart
B4 Oh Baby (We Got a Good Thing Goin')
B5 Little Red Rooster
B6 Surprise, Surprise

foobar2000 1.4 / Dynamic Range Meter 1.1.1
log date: 2018-09-25 05:41:35

––––––––––––––––––––––––––––––––––––––––
Analyzed: The Rolling Stones / Now!
––––––––––––––––––––––––––––––––––––––––

DR Peak RMS Duration Track
––––––––––––––––––––––––––––––––––––––––
DR15 0.00 dB -17.42 dB 3:03 01-A1 Everybody Needs Somebody To Love
DR13 -2.08 dB -17.20 dB 4:17 02-A2 Down Home Girl
DR12 -3.56 dB -16.83 dB 3:43 03-A3 You Can't Catch Me
DR14 -1.92 dB -18.14 dB 2:51 04-A4 Heart Of Stone
DR11 -3.81 dB -17.97 dB 3:09 05-A5 What A Shame
DR11 -4.50 dB -17.95 dB 3:40 06-A6 Mona (I Need You Baby)
DR11 -0.96 dB -13.72 dB 2:59 07-B1 Down The Road Apiece
DR13 0.00 dB -15.37 dB 2:39 08-B2 Off The Hook
DR13 -0.40 dB -16.19 dB 2:15 09-B3 Pain In My Heart
DR12 0.00 dB -15.16 dB 2:13 10-B4 Oh Baby (We Got a Good Thing Goin')
DR13 -0.89 dB -16.54 dB 3:11 11-B5 Little Red Rooster
DR13 -0.10 dB -16.03 dB 2:35 12-B6 Surprise, Surprise
––––––––––––––––––––––––––––––––––––––––

Number of tracks: 12
Official DR value: DR13

Samplerate: 44100 Hz
Channels: 2
Bits per sample: 16
Bitrate: 686 kbps
Codec: FLAC
================================================================================



The Rolling Stones: Collection (1964-1994) [Vinyl Rip 16/44 & mp3-320]

Tracklist LP04 - 1966 - Aftermath:
Rip by Anonimous

01. Mother's Little Helper
02. Stupid Girl
03. Lady Jane
04. Under My Thumb
05. Doncha Bother Me
06. Going Home
07. Flight 505
08. High And Dry
09. Out Of Time
10. It's Not Easy
11. I Am Waiting
12. Take It Or Leave It
13. Think
14. What To Do

foobar2000 1.4 / Dynamic Range Meter 1.1.1
log date: 2018-09-25 05:41:52

––––––––––––––––––––––––––––––––––––––––
Analyzed: The Rolling Stones / Aftermath (UK Stereo)
––––––––––––––––––––––––––––––––––––––––

DR Peak RMS Duration Track
––––––––––––––––––––––––––––––––––––––––
DR13 -2.00 dB -17.63 dB 2:46 01-Mother's Little Helper
DR14 -2.69 dB -18.83 dB 2:56 02-Stupid Girl
DR13 -8.77 dB -26.15 dB 3:09 03-Lady Jane
DR15 -3.53 dB -21.17 dB 3:42 04-Under My Thumb
DR12 -4.33 dB -20.69 dB 2:42 05-Doncha Bother Me
DR13 -2.46 dB -20.38 dB 11:13 06-Going Home
DR14 -0.70 dB -17.71 dB 3:28 07-Flight 505
DR13 -7.34 dB -22.63 dB 3:09 08-High And Dry
DR13 -2.30 dB -19.37 dB 5:38 09-Out Of Time
DR14 -1.12 dB -17.60 dB 2:56 10-It's Not Easy
DR14 -1.56 dB -23.13 dB 3:12 11-I Am Waiting
DR14 -5.31 dB -23.75 dB 2:48 12-Take It Or Leave It
DR13 -5.47 dB -22.30 dB 3:10 13-Think
DR14 -2.68 dB -18.80 dB 2:34 14-What To Do
––––––––––––––––––––––––––––––––––––––––

Number of tracks: 14
Official DR value: DR13

Samplerate: 44100 Hz
Channels: 2
Bits per sample: 16
Bitrate: 763 kbps
Codec: FLAC
================================================================================



The Rolling Stones: Collection (1964-1994) [Vinyl Rip 16/44 & mp3-320]

Tracklist LP05 - 1967 - Between The Buttons:
Rip by jstger6969

1. "Let's Spend the Night Together" – 3:38
2. "Yesterday's Papers" – 2:01
3. "Ruby Tuesday" – 3:16
4. "Connection" – 2:08
5. "She Smiled Sweetly" – 2:45
6. "Cool, Calm & Collected" – 4:18

1. "All Sold Out" – 2:18
2. "My Obsession" – 3:20
3. "Who's Been Sleeping Here?" – 3:57
4. "Complicated" – 3:18
5. "Miss Amanda Jones" – 2:47
6. "Something Happened to Me Yesterday" – 4:56

foobar2000 1.4 / Dynamic Range Meter 1.1.1
log date: 2018-09-25 05:42:15

––––––––––––––––––––––––––––––––––––––––
Analyzed: The Rolling Stones , / Between The Buttons
––––––––––––––––––––––––––––––––––––––––

DR Peak RMS Duration Track
––––––––––––––––––––––––––––––––––––––––
DR11 0.00 dB -12.46 dB 3:38 01-Let's Spend The Night Together
DR12 0.00 dB -13.41 dB 2:07 02-Yesterday's Papers
DR11 -0.05 dB -13.53 dB 3:17 03-Ruby Tuesday
DR15 0.00 dB -16.71 dB 2:10 04-Connection
DR12 0.00 dB -13.87 dB 2:46 05-She Smiled Sweetly
DR11 0.00 dB -12.59 dB 4:15 06-Cool, Calm & Collected
DR12 0.00 dB -14.34 dB 2:18 07-All Sold Out
DR11 0.00 dB -13.31 dB 3:22 08-My Obsession
DR12 0.00 dB -13.58 dB 3:57 09-Who's Been Sleeping Here?
DR12 0.00 dB -14.28 dB 3:18 10-Complicated
DR9 0.00 dB -10.95 dB 2:50 11-Miss Amanda Jones
DR11 0.00 dB -13.04 dB 4:57 12-Something Happened To Me Yesterday
––––––––––––––––––––––––––––––––––––––––

Number of tracks: 12
Official DR value: DR12

Samplerate: 44100 Hz
Channels: 2
Bits per sample: 16
Bitrate: 786 kbps
Codec: FLAC
================================================================================



The Rolling Stones: Collection (1964-1994) [Vinyl Rip 16/44 & mp3-320]

Tracklist LP06 - 1967 - Flowers (German):
Rip by Anonimous

01. Ruby Tuesday
02. Have You Seen Your Mother, Baby, Standing In The Shadow
03. Let's Spend The Night Together
04. Lady Jane
05. Out Of Time
06. My Girl
07. Backstreet Girl
08. Please Go Home
09. Mother's Little Helper
10. Take It Or Leave It
11. Ride On, Baby
12. Sittin' On A Fence

foobar2000 1.4 / Dynamic Range Meter 1.1.1
log date: 2018-09-25 05:42:27

––––––––––––––––––––––––––––––––––––––––
Analyzed: The Rolling Stones / Flowers (German)
––––––––––––––––––––––––––––––––––––––––

DR Peak RMS Duration Track
––––––––––––––––––––––––––––––––––––––––
DR11 -1.59 dB -15.26 dB 3:19 01-Ruby Tuesday
DR10 -1.03 dB -13.39 dB 2:35 02-Have You Seen Your Mother, Baby, Standing In The Shadow
DR11 -1.43 dB -14.99 dB 3:40 03-Let's Spend The Night Together
DR13 -3.67 dB -20.58 dB 3:13 04-Lady Jane
DR13 -1.19 dB -17.71 dB 3:46 05-Out Of Time
DR11 -1.25 dB -15.30 dB 2:41 06-My Girl
DR12 -0.70 dB -15.48 dB 3:29 07-Backstreet Girl
DR11 -0.69 dB -13.14 dB 3:21 08-Please Go Home
DR11 -1.41 dB -14.28 dB 2:48 09-Mother's Little Helper
DR13 -2.55 dB -18.30 dB 2:50 10-Take It Or Leave It
DR12 -1.22 dB -15.92 dB 2:56 11-Ride On, Baby
DR12 -2.71 dB -18.89 dB 3:04 12-Sittin' On A Fence
––––––––––––––––––––––––––––––––––––––––

Number of tracks: 12
Official DR value: DR12

Samplerate: 44100 Hz
Channels: 2
Bits per sample: 16
Bitrate: 819 kbps
Codec: FLAC
================================================================================



The Rolling Stones: Collection (1964-1994) [Vinyl Rip 16/44 & mp3-320]

Tracklist LP07 - 1967 - Flowers (US):
Rip by jstger6969

Side one

"Ruby Tuesday" – 3:17
A January 1967 single release also featured on the American edition of Between the Buttons
"Have You Seen Your Mother, Baby, Standing in the Shadow?" – 2:34
A September 1966 single release
"Let's Spend the Night Together" – 3:36
A January 1967 single release also featured on the American edition of Between the Buttons
"Lady Jane" – 3:08
Also featured on Aftermath in 1966, as well as the b-side of the U.S.-only "Mother's Little Helper" single in July 1966
"Out of Time" – 3:41
An abridged alternate mix of the version originally released on the British edition of Aftermath in 1966
"My Girl" (Smokey Robinson/Ronald White) – 2:38
Previously unreleased; recorded in December 1965 for "Aftermath"

Side two

"Back Street Girl" – 3:26
Originally released on the British edition of Between the Buttons
"Please Go Home" – 3:17
Originally released on the British edition of Between the Buttons
"Mother's Little Helper" – 2:46
Originally released on the British edition of Aftermath; first released in the U.S. as a single in July 1966
"Take It or Leave It" – 2:46
Originally released on the British edition of Aftermath
"Ride On, Baby" – 2:52
Previously unreleased; recorded during the 1965 sessions for Aftermath
"Sittin' on a Fence" – 3:03
Previously unreleased; recorded during the 1965 sessions for Aftermath

foobar2000 1.4 / Dynamic Range Meter 1.1.1
log date: 2018-09-25 05:42:44

––––––––––––––––––––––––––––––––––––––––
Analyzed: The Rolling Stones / Flowers
––––––––––––––––––––––––––––––––––––––––

DR Peak RMS Duration Track
––––––––––––––––––––––––––––––––––––––––
DR11 0.00 dB -13.93 dB 3:22 01-Ruby Tuesday
DR10 -1.80 dB -14.49 dB 2:39 02-Have You Seen Your Mother Baby, Standing In The Shadow
DR11 0.00 dB -12.69 dB 3:43 03-Let's Spend The Night Together
DR12 -2.55 dB -17.44 dB 3:15 04-Lady Jane
DR13 -0.95 dB -16.12 dB 3:49 05-Out Of Time
DR11 -0.44 dB -13.52 dB 2:41 06-My Girl
DR11 0.00 dB -14.60 dB 3:31 07-Back Street Girl
DR11 0.00 dB -12.86 dB 3:22 08-Please Go Home
DR11 -1.50 dB -14.52 dB 2:51 09-Mother's Little Helper
DR13 0.00 dB -15.53 dB 2:52 10-Take It Or Leave It
DR12 -0.40 dB -15.13 dB 3:00 11-Ride On Baby
DR12 -0.11 dB -15.45 dB 3:07 12-Sittin' On A Fence
––––––––––––––––––––––––––––––––––––––––

Number of tracks: 12
Official DR value: DR12

Samplerate: 44100 Hz
Channels: 2
Bits per sample: 16
Bitrate: 746 kbps
Codec: FLAC
================================================================================



The Rolling Stones: Collection (1964-1994) [Vinyl Rip 16/44 & mp3-320]

Tracklist LP08 - 1967 - Their Satanic Majesties Request:
Rip by jstger6969

A1 Sing This All Together
A2 Citadel
A3 In Another Land (Bill Wyman)
A4 2000 Man
A5 Sing This All Together (See What Happens)
B1 She's a Rainbow
B2 The Lantern
B3 Gomper
B4 2000 Light Years from Home
B5 On with the Show
C1 We Love You (Stereo)
C2 Dandelion (Stereo)

foobar2000 1.4 / Dynamic Range Meter 1.1.1
log date: 2018-09-25 05:42:58

––––––––––––––––––––––––––––––––––––––––
Analyzed: The Rolling Stones / Their Satanic Majesties Request
––––––––––––––––––––––––––––––––––––––––

DR Peak RMS Duration Track
––––––––––––––––––––––––––––––––––––––––
DR12 -2.37 dB -17.01 dB 3:46 01-A1 Sing This All Together
DR12 0.00 dB -14.37 dB 2:53 02-A2 Citadel
DR13 -0.44 dB -16.93 dB 2:54 03-A3 In Another Land (Bill Wyman)
DR11 0.00 dB -12.81 dB 3:29 04-A4 2000 Man
DR13 -0.79 dB -17.36 dB 8:40 05-A5 Sing This All Together (See What Happens)
DR11 0.00 dB -13.92 dB 4:35 06-B1 She's a Rainbow
DR12 0.00 dB -16.11 dB 4:25 07-B2 The Lantern
DR11 0.00 dB -13.55 dB 5:09 08-B3 Gomper
DR14 0.00 dB -18.06 dB 4:48 09-B4 2000 Light Years from Home
DR11 0.00 dB -13.96 dB 3:42 10-B5 On with the Show
DR10 0.00 dB -11.54 dB 4:21 11-C1 We Love You
DR11 0.00 dB -12.90 dB 3:49 12-C2 Dandelion
––––––––––––––––––––––––––––––––––––––––

Number of tracks: 12
Official DR value: DR12

Samplerate: 44100 Hz
Channels: 2
Bits per sample: 16
Bitrate: 727 kbps
Codec: FLAC
================================================================================



The Rolling Stones: Collection (1964-1994) [Vinyl Rip 16/44 & mp3-320]

Tracklist LP09 - 1968 - Beggars Banquet:
Rip by Anonimous

01. Sympathy For The Devil
02. No Expectations
03. Dear Doctor
04. Parachute Woman
05. Jig-Saw Puzzle
06. Street Fighting Man
07. Prodigal Son
08. Stray Cat Blues
09. Factory Girl
10. Salt Of The Earth

foobar2000 1.4 / Dynamic Range Meter 1.1.1
log date: 2018-09-25 05:43:13

––––––––––––––––––––––––––––––––––––––––
Analyzed: The Rolling Stones / Beggars Banquet (UK)
––––––––––––––––––––––––––––––––––––––––

DR Peak RMS Duration Track
––––––––––––––––––––––––––––––––––––––––
DR10 -2.63 dB -15.12 dB 6:25 01-Sympathy For The Devil
DR11 -3.90 dB -17.33 dB 4:02 02-No Expectations
DR11 -0.69 dB -15.20 dB 3:28 03-Dear Doctor
DR10 -2.53 dB -14.82 dB 2:24 04-Parachute Woman
DR10 -2.66 dB -15.26 dB 6:18 05-Jig-Saw Puzzle
DR10 -1.17 dB -14.61 dB 3:19 06-Street Fighting Man
DR11 -1.92 dB -15.40 dB 2:56 07-Prodigal Son
DR9 -2.22 dB -14.60 dB 4:40 08-Stray Cat Blues
DR12 -1.50 dB -16.31 dB 2:11 09-Factory Girl
DR10 -1.36 dB -14.73 dB 4:54 10-Salt Of The Earth
––––––––––––––––––––––––––––––––––––––––

Number of tracks: 10
Official DR value: DR11

Samplerate: 44100 Hz
Channels: 2
Bits per sample: 16
Bitrate: 850 kbps
Codec: FLAC
================================================================================



The Rolling Stones: Collection (1964-1994) [Vinyl Rip 16/44 & mp3-320]

Tracklist LP10 - 1969 - Let It Bleed:
Rip by Anonimous

01. Gimme Shelter
02. Love in Vain
03. Country Honk
04. Live With Me
05. Let It Bleed
06. Midnight Rambler
07. You Got the Silver
08. Monkey Man
09. You Can't Always Get What You Want

foobar2000 1.4 / Dynamic Range Meter 1.1.1
log date: 2018-09-25 05:43:26

––––––––––––––––––––––––––––––––––––––––
Analyzed: The Rolling Stones / Let It Bleed (UK Decca)
––––––––––––––––––––––––––––––––––––––––

DR Peak RMS Duration Track
––––––––––––––––––––––––––––––––––––––––
DR11 -1.66 dB -14.01 dB 4:32 01-Gimme Shelter
DR12 -3.49 dB -17.77 dB 4:21 02-Love in Vain
DR12 -0.88 dB -15.46 dB 3:07 03-Country Honk
DR12 -0.68 dB -13.87 dB 3:34 04-Live With Me
DR11 -0.70 dB -13.70 dB 5:28 05-Let It Bleed
DR11 -2.53 dB -16.04 dB 6:54 06-Midnight Rambler
DR12 -2.03 dB -18.74 dB 2:52 07-You Got the Silver
DR11 -1.13 dB -14.89 dB 4:13 08-Monkey Man
DR11 -1.18 dB -15.77 dB 7:30 09-You Can't Always Get What You Want
––––––––––––––––––––––––––––––––––––––––

Number of tracks: 9
Official DR value: DR11

Samplerate: 44100 Hz
Channels: 2
Bits per sample: 16
Bitrate: 830 kbps
Codec: FLAC
================================================================================



The Rolling Stones: Collection (1964-1994) [Vinyl Rip 16/44 & mp3-320]

Tracklist LP11 - 1970 - Get Yer Ya-Yas Out!:
Rip by jstger6969

A1 Jumpin' Jack Flash
A2 Carol
A3 Stray Cat Blues
A4 Love In Vain
A5 Midnight Rambler
B1 Sympathy For The Devil
B2 Live With Me
B3 Little Queenie
B4 Honky Tonk Woman
B5 Street Fighting Man
C1 Sympathy For The Devil (Full Live Version)

foobar2000 1.4 / Dynamic Range Meter 1.1.1
log date: 2018-09-25 05:43:43

––––––––––––––––––––––––––––––––––––––––
Analyzed: The Rolling Stones / Get Yer Ya-Yas Out!
––––––––––––––––––––––––––––––––––––––––

DR Peak RMS Duration Track
––––––––––––––––––––––––––––––––––––––––
DR12 0.00 dB -14.95 dB 4:03 01-A1 Jumpin' Jack Flash
DR12 0.00 dB -13.85 dB 3:48 02-A2 Carol
DR12 0.00 dB -14.93 dB 3:47 03-A3 Stray Cat Blues
DR12 -0.71 dB -17.24 dB 4:59 04-A4 Love In Vain
DR13 0.00 dB -15.36 dB 9:10 05-A5 Midnight Rambler
DR12 0.00 dB -14.32 dB 7:03 06-B1 Sympathy For The Devil
DR11 0.00 dB -13.39 dB 3:07 07-B2 Live With Me
DR12 0.00 dB -13.40 dB 4:33 08-B3 Little Queenie
DR11 0.00 dB -14.37 dB 3:33 09-B4 Honky Tonk Woman
DR10 0.00 dB -12.34 dB 4:07 10-B5 Street Fighting Man
DR10 -0.01 dB -12.66 dB 7:56 11-C1 Sympathy For The Devil (Full Live Version)
––––––––––––––––––––––––––––––––––––––––

Number of tracks: 11
Official DR value: DR12

Samplerate: 44100 Hz
Channels: 2
Bits per sample: 16
Bitrate: 797 kbps
Codec: FLAC
================================================================================



The Rolling Stones: Collection (1964-1994) [Vinyl Rip 16/44 & mp3-320]

Tracklist LP12 - 1971 - Hot Rocks 1964–1971:
Rip by jstger6969

Side one
1. "Time Is on My Side" (Norman Meade) – 2:59
2. "Heart of Stone" – 2:49
3. "Play With Fire" (Nanker Phelge) – 2:13
4. "(I Can't Get No) Satisfaction" – 3:43
5. "As Tears Go By" (Mick Jagger/Keith Richards/Andrew Loog Oldham) – 2:44
6. "Get off of My Cloud" – 2:55
Side two
1. "Mother's Little Helper" – 2:44
2. "19th Nervous Breakdown" – 3:56
3. "Paint It, Black" – 3:23
4. "Under My Thumb" – 3:42
5. "Ruby Tuesday" – 3:16
6. "Let's Spend the Night Together" – 3:37
Side three
1. "Jumpin' Jack Flash" – 3:41
2. "Street Fighting Man" – 3:14
3. "Sympathy for the Devil" – 6:18
4. "Honky Tonk Women" – 3:00
5. "Gimme Shelter" – 4:31
Side four
1. "Midnight Rambler" (Live) – 9:14
2. "You Can't Always Get What You Want" – 7:28
3. "Brown Sugar" – 3:49
4. "Wild Horses" – 5:44

foobar2000 1.4 / Dynamic Range Meter 1.1.1
log date: 2018-09-25 05:44:01

––––––––––––––––––––––––––––––––––––––––
Analyzed: The Rolling Stones / Hot Rocks 1964–1971
––––––––––––––––––––––––––––––––––––––––

DR Peak RMS Duration Track
––––––––––––––––––––––––––––––––––––––––
DR12 -0.29 dB -15.00 dB 3:03 01-A1 Time Is on My Side (Norman Meade
DR13 0.00 dB -14.65 dB 2:46 02-A2 Heart of Stone
DR11 -2.59 dB -16.74 dB 2:19 03-A3 Play With Fire (Nanker Phelge)
DR12 -0.61 dB -14.36 dB 3:48 04-A4 (I Can't Get No) Satisfaction
DR9 -2.88 dB -15.09 dB 2:46 05-A5 As Tears Go By (Mick JaggerKeith RichardsAndrew Loog Oldham)
DR11 -0.43 dB -13.04 dB 2:57 06-A6 Get off of My Cloud
DR11 -3.29 dB -16.86 dB 2:50 07-B1 Mother's Little Helper
DR12 -0.11 dB -14.96 dB 4:01 08-B2 19th Nervous Breakdown
DR11 -1.84 dB -17.46 dB 3:25 09-B3 Paint It, Black
DR13 -0.27 dB -15.70 dB 3:44 10-B4 Under My Thumb
DR11 -3.94 dB -18.26 dB 3:18 11-B5 Ruby Tuesday
DR12 -1.65 dB -15.59 dB 3:37 12-B6 Let's Spend the Night Together
DR11 -0.98 dB -13.53 dB 3:42 13-C1 Jumpin' Jack Flash
DR11 -3.19 dB -15.78 dB 3:21 14-C2 Street Fighting Man
DR10 -2.22 dB -14.78 dB 6:27 15-C3 Sympathy for the Devil
DR11 -0.57 dB -15.26 dB 3:03 16-C4 Honky Tonk Women
DR11 -1.73 dB -14.78 dB 4:32 17-C5 Gimme Shelter
DR14 -0.71 dB -18.35 dB 9:11 18-D1 Midnight Rambler
DR12 -1.29 dB -18.13 dB 7:34 19-D2 You Can't Always Get What You Want
DR12 -1.18 dB -16.51 dB 3:53 20-D3 Brown Sugar
DR12 -3.39 dB -18.72 dB 5:43 21-D4 Wild Horses
––––––––––––––––––––––––––––––––––––––––

Number of tracks: 21
Official DR value: DR12

Samplerate: 44100 Hz
Channels: 2
Bits per sample: 16
Bitrate: 696 kbps
Codec: FLAC
================================================================================



The Rolling Stones: Collection (1964-1994) [Vinyl Rip 16/44 & mp3-320]

Tracklist LP13 - 1971 - Sticky Fingers:
Rip by Anonimous

01. Brown Sugar
02. Sway
03. Wild Horses
04. Can't You Hear Me Knocking
05. You Gotta Move
06. Bitch
07. I Got The Blues
08. Sister Morphine
09. Dead Flowers
10. Moonlight Mile

foobar2000 1.4 / Dynamic Range Meter 1.1.1
log date: 2018-09-25 05:44:15

––––––––––––––––––––––––––––––––––––––––
Analyzed: The Rolling Stones / Sticky Fingers
––––––––––––––––––––––––––––––––––––––––

DR Peak RMS Duration Track
––––––––––––––––––––––––––––––––––––––––
DR12 -0.94 dB -15.18 dB 3:50 01-Brown Sugar
DR11 -1.18 dB -13.65 dB 3:53 02-Sway
DR12 -0.69 dB -17.08 dB 5:46 03-Wild Horses
DR11 -1.36 dB -14.24 dB 7:17 04-Can't You Hear Me Knocking
DR14 -1.58 dB -19.86 dB 2:35 05-You Gotta Move
DR13 -0.68 dB -14.97 dB 3:38 06-Bitch
DR13 -0.70 dB -17.09 dB 3:54 07-I Got The Blues
DR12 -2.22 dB -18.05 dB 5:32 08-Sister Morphine
DR12 -0.69 dB -14.72 dB 4:05 09-Dead Flowers
DR12 -1.06 dB -16.66 dB 5:58 10-Moonlight Mile
––––––––––––––––––––––––––––––––––––––––

Number of tracks: 10
Official DR value: DR12

Samplerate: 44100 Hz
Channels: 2
Bits per sample: 16
Bitrate: 797 kbps
Codec: FLAC
================================================================================



The Rolling Stones: Collection (1964-1994) [Vinyl Rip 16/44 & mp3-320]

Tracklist LP14 - 1972 - Exile On Main Street:
Rip by Anonimous

01. Rocks Off
02. Rip This Joint
03. Hip Shake
04. Casino Boogie
05. Tumbling Dice
06. Sweet Virginia
07. Torn & Frayed
08. Black Angel
09. Loving Cup
10. Happy
11. Turd On The Run
12. Ventilator Blues
13. Just Wanna See His Face
14. Let It Loose
15. All Down The Line
16. Stop Breaking Down
17. Shine A Light
18. Soul Survivor

foobar2000 1.4 / Dynamic Range Meter 1.1.1
log date: 2018-09-25 05:44:32

––––––––––––––––––––––––––––––––––––––––
Analyzed: The Rolling Stones / Exile On Main Street (Canada)
––––––––––––––––––––––––––––––––––––––––

DR Peak RMS Duration Track
––––––––––––––––––––––––––––––––––––––––
DR12 -0.71 dB -15.16 dB 4:33 01-Rocks Off
DR12 -0.88 dB -15.01 dB 2:24 02-Rip This Joint
DR12 -2.85 dB -17.64 dB 2:59 03-Hip Shake
DR14 -0.87 dB -16.94 dB 3:34 04-Casino Boogie
DR13 -0.88 dB -15.80 dB 3:44 05-Tumbling Dice
DR13 -1.03 dB -18.62 dB 4:27 06-Sweet Virginia
DR13 -0.83 dB -15.44 dB 4:18 07-Torn & Frayed
DR13 -0.93 dB -16.87 dB 2:56 08-Black Angel
DR13 -0.80 dB -16.42 dB 4:26 09-Loving Cup
DR13 -0.76 dB -15.68 dB 3:05 10-Happy
DR10 -2.42 dB -14.46 dB 2:37 11-Turd On The Run
DR12 -2.17 dB -16.57 dB 3:25 12-Ventilator Blues
DR13 -5.11 dB -20.37 dB 2:53 13-Just Wanna See His Face
DR13 -0.86 dB -18.29 dB 5:19 14-Let It Loose
DR13 -0.97 dB -16.76 dB 3:50 15-All Down The Line
DR12 -0.89 dB -15.23 dB 4:35 16-Stop Breaking Down
DR14 -0.86 dB -19.20 dB 4:16 17-Shine A Light
DR12 -0.69 dB -14.68 dB 3:50 18-Soul Survivor
––––––––––––––––––––––––––––––––––––––––

Number of tracks: 18
Official DR value: DR13

Samplerate: 44100 Hz
Channels: 2
Bits per sample: 16
Bitrate: 836 kbps
Codec: FLAC
================================================================================



The Rolling Stones: Collection (1964-1994) [Vinyl Rip 16/44 & mp3-320]

Tracklist LP15 - 1968 - Bedspring Symphony:
Rip by jstger6969

01. Gimme Shelter
02. Tumbling Dice
03. Brown Sugar
04. Doo Doo Doo Doo Doo (Heartbreaker)
05. Angie
06. Honky Tonk Woman
07. Midnight Rambler
08. All Down The Line
09. Street Fighting Man

foobar2000 1.4 / Dynamic Range Meter 1.1.1
log date: 2018-09-25 05:44:46

––––––––––––––––––––––––––––––––––––––––
Analyzed: The Rolling Stones / Bedspring Symphony
––––––––––––––––––––––––––––––––––––––––

DR Peak RMS Duration Track
––––––––––––––––––––––––––––––––––––––––
DR10 0.00 dB -12.16 dB 7:02 01-Gimme Shelter
DR10 0.00 dB -11.28 dB 4:55 02- Tumbling Dice
DR10 -0.15 dB -12.76 dB 3:20 03-Brown Sugar
DR9 0.00 dB -11.67 dB 5:10 04- Doo Doo Doo Doo Doo (Heartbreaker)
DR12 -0.30 dB -15.06 dB 4:33 05-Angie
DR10 0.00 dB -11.80 dB 3:07 06-Honky Tonk Woman
DR9 0.00 dB -11.54 dB 12:54 07-Midnight Rambler
DR9 0.00 dB -10.18 dB 3:36 08-All Down The Line
DR9 0.00 dB -10.39 dB 5:14 09- Street Fighting Man
––––––––––––––––––––––––––––––––––––––––

Number of tracks: 9
Official DR value: DR10

Samplerate: 44100 Hz
Channels: 2
Bits per sample: 16
Bitrate: 871 kbps
Codec: FLAC
================================================================================



The Rolling Stones: Collection (1964-1994) [Vinyl Rip 16/44 & mp3-320]

Tracklist LP16 - 1973 - Goat's Head Soup:
Rip by Anonimous

01. Dancing With Mr. D.
02. 100 Years Ago
03. Coming Down Again
04. Doo Doo Doo Doo Doo (Heartbreaker)
05. Angie
06. Silver Train
07. Hide Your Love
08. Winter
09. Can You Hear The Music
10. Star Star

foobar2000 1.4 / Dynamic Range Meter 1.1.1
log date: 2018-09-25 05:44:58

––––––––––––––––––––––––––––––––––––––––
Analyzed: The Rolling Stones / Goat's Head Soup (German)
––––––––––––––––––––––––––––––––––––––––

DR Peak RMS Duration Track
––––––––––––––––––––––––––––––––––––––––
DR10 -0.69 dB -11.79 dB 4:51 01-Dancing With Mr. D.
DR11 -0.69 dB -13.90 dB 3:57 02-100 Years Ago
DR11 -0.69 dB -13.77 dB 5:53 03-Coming Down Again
DR11 -0.68 dB -13.27 dB 3:25 04-Doo Doo Doo Doo Doo (Heartbreaker)
DR12 -0.96 dB -15.72 dB 4:30 05-Angie
DR11 -0.71 dB -12.89 dB 4:25 06-Silver Train
DR12 -1.30 dB -14.15 dB 4:10 07-Hide Your Love
DR11 -2.43 dB -15.93 dB 5:26 08-Winter
DR11 -2.11 dB -15.10 dB 5:30 09-Can You Hear The Music
DR11 -1.69 dB -14.67 dB 4:23 10-Star Star
––––––––––––––––––––––––––––––––––––––––

Number of tracks: 10
Official DR value: DR11

Samplerate: 44100 Hz
Channels: 2
Bits per sample: 16
Bitrate: 880 kbps
Codec: FLAC
================================================================================



The Rolling Stones: Collection (1964-1994) [Vinyl Rip 16/44 & mp3-320]

Tracklist LP17 - 1974 - It's Only Rock 'n' Roll:
Rip by jstger6969

A1 If You Can't Rock Me
A2 Ain't Too Proud To Beg
A3 It's Only Rock N Roll
A4 Till The Next Goodbye
A5 Time Waits For No One
B1 Luxury
B2 Dance Little Sister
B3 If You Really Want To Be My Friend
B4 Short And Curlies
B5 Fingerprint File
C1 Through The Lonely Nights

foobar2000 1.4 / Dynamic Range Meter 1.1.1
log date: 2018-09-25 05:45:12

––––––––––––––––––––––––––––––––––––––––
Analyzed: The Rolling Stones / It's Only Rock 'n' Roll
––––––––––––––––––––––––––––––––––––––––

DR Peak RMS Duration Track
––––––––––––––––––––––––––––––––––––––––
DR13 -0.03 dB -15.11 dB 3:48 01-A1 If You Can't Rock Me
DR12 -0.84 dB -14.31 dB 3:32 02-A2 Ain't Too Proud To Beg
DR12 0.00 dB -13.99 dB 5:10 03-A3 It's Only Rock N Roll
DR11 -0.81 dB -14.59 dB 4:38 04-A4 Till The Next Goodbye
DR11 -0.62 dB -13.69 dB 6:42 05-A5 Time Waits For No One
DR13 -1.42 dB -16.55 dB 5:03 06-B1 Luxury
DR13 -1.83 dB -16.80 dB 4:12 07-B2 Dance Little Sister
DR12 -2.44 dB -17.36 dB 6:19 08-B3 If You Really Want To Be My Friend
DR12 -3.89 dB -17.97 dB 2:44 09-B4 Short And Curlies
DR12 -4.56 dB -18.85 dB 6:38 10-B5 Fingerprint File
DR12 -1.86 dB -16.29 dB 4:15 11-C1Through The Lonely Nights
––––––––––––––––––––––––––––––––––––––––

Number of tracks: 11
Official DR value: DR12

Samplerate: 44100 Hz
Channels: 2
Bits per sample: 16
Bitrate: 759 kbps
Codec: FLAC
================================================================================



The Rolling Stones: Collection (1964-1994) [Vinyl Rip 16/44 & mp3-320]

Tracklist LP18 - 1975 - Made in the Shade:
Rip by jstger6969

A1 Brown Sugar
A2 Tumbling Dice
A3 Happy
A4 Dance Little Sister
A5 Wild Horses
B1 Angie
B2 Bitch
B3 It's Only Rock N Roll
B4 Doo Doo Doo Doo Doo (Heartbreaker)
B5 Rip This Joint

foobar2000 1.4 / Dynamic Range Meter 1.1.1
log date: 2018-09-25 05:45:26

––––––––––––––––––––––––––––––––––––––––
Analyzed: The Rolling Stones / Made in the Shade
––––––––––––––––––––––––––––––––––––––––

DR Peak RMS Duration Track
––––––––––––––––––––––––––––––––––––––––
DR12 0.00 dB -13.24 dB 3:53 01-A1 Brown Sugar
DR11 0.00 dB -12.97 dB 3:49 02-A2 Tumbling Dice
DR11 0.00 dB -12.34 dB 3:08 03-A3 Happy
DR12 0.00 dB -13.71 dB 4:16 04-A4 Dance Little Sister
DR13 -0.32 dB -17.00 dB 5:46 05-A5 Wild Horses
DR12 -0.89 dB -16.14 dB 4:35 06-B1 Angie
DR12 0.00 dB -12.83 dB 3:41 07-B2 Bitch
DR12 0.00 dB -13.91 dB 5:13 08-B3 It's Only Rock N Roll
DR12 -0.58 dB -16.03 dB 3:30 09-B4 Doo Doo Doo Doo Doo (Heartbreaker)
DR11 -0.66 dB -13.72 dB 2:27 10-B5 Rip This Joint
––––––––––––––––––––––––––––––––––––––––

Number of tracks: 10
Official DR value: DR12

Samplerate: 44100 Hz
Channels: 2
Bits per sample: 16
Bitrate: 739 kbps
Codec: FLAC
================================================================================



The Rolling Stones: Collection (1964-1994) [Vinyl Rip 16/44 & mp3-320]

Tracklist LP19 - 1975 - Metamorphosis:
Rip by jstger6969

A1 Out Of Time
A2 Don't Lie To Me
A3 Each And Everyday Of The Year
A4 Heart Of Stone
A5 I'd Much Rather Be With the Boys
A6 (Walkin' Thru The) Sleepy City
A7 Try a Little Harder
B1 I Don't Know Why
B2 If You Let Me
B3 Jiving Sister Fanny
B4 Downtown Suzie
B5 Family
B6 Memo From Turner
B7 I'm Going Down

foobar2000 1.4 / Dynamic Range Meter 1.1.1
log date: 2018-09-25 05:45:39

––––––––––––––––––––––––––––––––––––––––
Analyzed: The Rolling Stones / Metamorphosis
––––––––––––––––––––––––––––––––––––––––

DR Peak RMS Duration Track
––––––––––––––––––––––––––––––––––––––––
DR11 -0.81 dB -14.98 dB 3:22 01-Out of Time
DR11 -0.56 dB -14.02 dB 2:01 02-Don’t Lie to Me
DR11 -2.23 dB -17.06 dB 2:49 03-Each and Every Day of the Year
DR11 -1.75 dB -15.19 dB 3:47 04-Heart of Stone
DR11 -1.81 dB -15.15 dB 2:13 05-I’d Much Rather Be With the Boys
DR10 -3.13 dB -14.83 dB 2:52 06-(Walkin’ Thru the) Sleepy City
DR11 -2.19 dB -15.32 dB 2:19 07-Try a Little Harder
DR12 -0.80 dB -17.20 dB 3:03 08-I Don’t Know Why
DR11 -0.46 dB -16.80 dB 3:18 09-If You Let Me
DR13 -0.04 dB -15.55 dB 3:26 10-Jiving Sister Fanny
DR13 -2.57 dB -20.09 dB 3:53 11-Downtown Suzie
DR12 -2.41 dB -17.58 dB 4:06 12-Family
DR12 -1.96 dB -16.66 dB 2:47 13-Memo From Turner
DR12 -2.26 dB -16.40 dB 2:52 14-I’m Going Down
––––––––––––––––––––––––––––––––––––––––

Number of tracks: 14
Official DR value: DR12

Samplerate: 44100 Hz
Channels: 2
Bits per sample: 16
Bitrate: 739 kbps
Codec: FLAC
================================================================================



The Rolling Stones: Collection (1964-1994) [Vinyl Rip 16/44 & mp3-320]

Tracklist LP20 - 1976 - Black and Blue:
Rip by jstger6969

A1 Hot Stuff
A2 Hand Of Fate
A3 Cherry Oh Baby
A4 Memory Motel
B1 Hey Negrita
B2 Melody
B3 Fool To Cry
B4 Crazy Mama
C1 Hot Stuff (U.S Single Edit)
C2 Fool To Cry (U.S Single Edit)

foobar2000 1.4 / Dynamic Range Meter 1.1.1
log date: 2018-09-25 05:45:52

––––––––––––––––––––––––––––––––––––––––
Analyzed: The Rolling Stones / Black and Blue
––––––––––––––––––––––––––––––––––––––––

DR Peak RMS Duration Track
––––––––––––––––––––––––––––––––––––––––
DR13 0.00 dB -14.60 dB 5:24 01-A1 Hot Stuff
DR12 0.00 dB -12.85 dB 4:30 02-A2 Hand Of Fate
DR14 0.00 dB -15.81 dB 3:57 03-A3 Cherry Oh Baby
DR12 0.00 dB -13.86 dB 7:12 04-A4 Memory Motel
DR11 0.00 dB -12.60 dB 5:01 05-B1 Hey Negrita
DR12 0.00 dB -14.78 dB 5:50 06-B2 Melody
DR12 0.00 dB -15.83 dB 5:06 07-B3 Fool To Cry
DR11 0.00 dB -12.19 dB 4:35 08-B4 Crazy Mama
DR12 0.00 dB -13.77 dB 3:35 09-C1 Hot Stuff (U.S Single Edit)
DR10 -1.06 dB -14.08 dB 4:07 10-C2 Fool To Cry (U.S Single Edit)
––––––––––––––––––––––––––––––––––––––––

Number of tracks: 10
Official DR value: DR12

Samplerate: 44100 Hz
Channels: 2
Bits per sample: 16
Bitrate: 792 kbps
Codec: FLAC
================================================================================



The Rolling Stones: Collection (1964-1994) [Vinyl Rip 16/44 & mp3-320]

Tracklist LP21 - 1977 - Love You Live:
Rip by jstger6969

A1 Intro Excerpt from Fanfare for the Common Man
A2 Honky Tonk Woman
A3 If You Can't Rock Me - Get off of My Cloud
A4 Happy
A5 Hot Stuff
A6 Star Star
B1 Tumbling Dice
B2 Fingerprint FIle
B3 You Gotta Move
B4 You Can't Always Get What You Want
C1 Mannish Boy
C2 Crackin' Up
C3 Little Red Rooster
C4 Around And Around
D1 It's Only Rock N Roll
D2 Brown Sugar
D3 Jumping Jack Flash
D4 Sympathy For The Devil

foobar2000 1.4 / Dynamic Range Meter 1.1.1
log date: 2018-09-25 05:46:10

––––––––––––––––––––––––––––––––––––––––
Analyzed: The Rolling Stones / Love You Live
––––––––––––––––––––––––––––––––––––––––

DR Peak RMS Duration Track
––––––––––––––––––––––––––––––––––––––––
DR10 -1.05 dB -17.05 dB 1:24 01-A1 Intro Excerpt from Fanfare for the Common Man
DR12 0.00 dB -13.51 dB 3:20 02-A2 Honky Tonk Woman
DR11 0.00 dB -12.86 dB 4:59 03-A3 If You Can't Rock Me - Get off of My Cloud
DR11 0.00 dB -12.29 dB 2:58 04-A4 Happy
DR13 0.00 dB -14.16 dB 4:37 05-A5 Hot Stuff
DR11 0.00 dB -12.59 dB 4:11 06-A6 Star Star
DR12 0.00 dB -12.86 dB 4:00 07-B1 Tumbling Dice
DR12 0.00 dB -14.52 dB 5:15 08-B2 Fingerprint FIle
DR13 0.00 dB -15.28 dB 4:22 09-B3 You Gotta Move
DR12 0.00 dB -14.07 dB 7:42 10-B4 You Can't Always Get What You Want
DR12 0.00 dB -13.20 dB 5:58 11-C1 Mannish Boy
DR13 0.00 dB -15.05 dB 4:46 12-C2 Crackin' Up
DR14 0.00 dB -17.49 dB 5:45 13-C3 Little Red Rooster
DR12 0.00 dB -13.63 dB 4:21 14-C4 Around And Around
DR11 0.00 dB -12.74 dB 4:32 15-D1 It's Only Rock N Roll
DR11 0.00 dB -12.75 dB 3:12 16-D2 Brown Sugar
DR11 0.00 dB -12.60 dB 3:41 17-D3 Jumping Jack Flash
DR11 0.00 dB -12.59 dB 8:19 18-D4 Sympathy For The Devil
––––––––––––––––––––––––––––––––––––––––

Number of tracks: 18
Official DR value: DR12

Samplerate: 44100 Hz
Channels: 2
Bits per sample: 16
Bitrate: 853 kbps
Codec: FLAC
================================================================================



The Rolling Stones: Collection (1964-1994) [Vinyl Rip 16/44 & mp3-320]

Tracklist LP22 - 1978 - Some Girls:
Rip by Anonimous

01. Miss You
02. When The Whip Comes Down
03. Imagination
04. Some Girls
05. Lies
06. Far Away Eyes
07. Respectable
08. Before They Make Me Run
09. Beast Of Burden
10. Shattered

foobar2000 1.4 / Dynamic Range Meter 1.1.1
log date: 2018-09-25 05:46:24

––––––––––––––––––––––––––––––––––––––––
Analyzed: The Rolling Stones / Some Girls
––––––––––––––––––––––––––––––––––––––––

DR Peak RMS Duration Track
––––––––––––––––––––––––––––––––––––––––
DR15 -0.69 dB -18.18 dB 4:48 01-Miss You
DR13 -0.99 dB -16.09 dB 4:20 02-When The Whip Comes Down
DR13 -1.48 dB -16.44 dB 4:38 03-Imagination
DR13 -1.12 dB -17.17 dB 4:37 04-Some Girls
DR12 -1.68 dB -15.43 dB 3:12 05-Lies
DR14 -0.70 dB -18.19 dB 4:24 06-Far Away Eyes
DR13 -0.69 dB -14.90 dB 3:06 07-Respectable
DR13 -0.87 dB -15.52 dB 3:23 08-Before They Make Me Run
DR14 -0.77 dB -16.55 dB 4:24 09-Beast Of Burden
DR13 -0.69 dB -14.71 dB 3:45 10-Shattered
––––––––––––––––––––––––––––––––––––––––

Number of tracks: 10
Official DR value: DR13

Samplerate: 44100 Hz
Channels: 2
Bits per sample: 16
Bitrate: 883 kbps
Codec: FLAC
================================================================================



The Rolling Stones: Collection (1964-1994) [Vinyl Rip 16/44 & mp3-320]

Tracklist LP23 - 1980 - Emotional Rescue:
Rip by jstger6969

Side one

1. "Dance (Pt. 1)" (Mick Jagger/Keith Richards/Ronnie Wood) – 4:23
2. "Summer Romance" – 3:16
3. "Send It to Me" – 3:43
4. "Let Me Go" – 3:50
5. "Indian Girl" – 4:23

Side two

1. "Where the Boys Go" – 3:29
2. "Down in the Hole" – 3:57
3. "Emotional Rescue" – 5:39
4. "She's So Cold" – 4:12
5. "All About You" – 4:18

foobar2000 1.4 / Dynamic Range Meter 1.1.1
log date: 2018-09-25 05:46:39

––––––––––––––––––––––––––––––––––––––––
Analyzed: The Rolling Stones / Emotional Rescue
––––––––––––––––––––––––––––––––––––––––

DR Peak RMS Duration Track
––––––––––––––––––––––––––––––––––––––––
DR13 0.00 dB -14.52 dB 4:23 01-A1 Dance Pt. 1
DR10 0.00 dB -12.22 dB 3:15 02-A2 Summer Romance
DR14 0.00 dB -15.55 dB 3:43 03-A3 Send It To Me
DR12 0.00 dB -12.98 dB 3:52 04-A4 Let Me Go
DR14 0.00 dB -15.41 dB 4:23 05-A5 Indian Girl
DR13 0.00 dB -14.42 dB 3:29 06-B1 Where The Boys Go
DR14 0.00 dB -16.32 dB 3:58 07-B2 Down In The Hole
DR14 0.00 dB -14.95 dB 5:39 08-B3 Emotional Rescue
DR13 0.00 dB -14.41 dB 4:13 09-B4 She's So Cold
DR13 -0.74 dB -16.88 dB 4:18 10-B5 All About You
DR14 0.00 dB -15.47 dB 5:55 11-C1 If I Was a Dancer (Dance Pt. 2)
––––––––––––––––––––––––––––––––––––––––

Number of tracks: 11
Official DR value: DR13

Samplerate: 44100 Hz
Channels: 2
Bits per sample: 16
Bitrate: 822 kbps
Codec: FLAC
================================================================================



The Rolling Stones: Collection (1964-1994) [Vinyl Rip 16/44 & mp3-320]

Tracklist LP24 - 1981 - Sucking in the Seventies:
Rip by jstger6969

A1 Dance Pt. 1
A2 Summer Romance
A3 Send It To Me
A4 Let Me Go
A5 Indian Girl
B1 Where The Boys Go
B2 Down In The Hole
B3 Emotional Rescue
B4 She's So Cold
B5 All About You
C1 If I Was a Dancer (Dance Pt. 2)

foobar2000 1.4 / Dynamic Range Meter 1.1.1
log date: 2018-09-25 05:46:53

––––––––––––––––––––––––––––––––––––––––
Analyzed: The Rolling Stones / Sucking in the Seventies
––––––––––––––––––––––––––––––––––––––––

DR Peak RMS Duration Track
––––––––––––––––––––––––––––––––––––––––
DR10 0.00 dB -11.81 dB 3:50 01-Shattered
DR11 0.00 dB -12.85 dB 4:10 02-Everything Is Turning to Gold
DR12 0.00 dB -13.77 dB 3:35 03-Hot Stuff
DR11 0.00 dB -13.36 dB 4:28 04-Time Waits for No One
DR10 -1.06 dB -14.08 dB 4:07 05-Fool to Cry
DR13 0.00 dB -14.36 dB 4:39 06-Mannish Boy
DR11 0.00 dB -12.42 dB 4:29 07-When the Whip Comes Down (live)
DR14 0.00 dB -15.47 dB 5:55 08-If I Was a Dancer (Dance, Part 2)
DR12 -0.48 dB -14.76 dB 4:11 09-Crazy Mama
DR13 -0.85 dB -15.34 dB 3:27 10-Beast of Burden
––––––––––––––––––––––––––––––––––––––––

Number of tracks: 10
Official DR value: DR12

Samplerate: 44100 Hz
Channels: 2
Bits per sample: 16
Bitrate: 810 kbps
Codec: FLAC
================================================================================



The Rolling Stones: Collection (1964-1994) [Vinyl Rip 16/44 & mp3-320]

Tracklist LP25 - 1981 - Tattoo You:
Rip by Anonimous

01. Start Me Up
02. hang Fire
03. Slave
04. Little T & A
05. Black Limousine
06. Neighbors
07. Worried About You
08. Tops
09. Heaven
10. No Use in Crying
11. Waiting on a Friend

foobar2000 1.4 / Dynamic Range Meter 1.1.1
log date: 2018-09-25 05:47:06

––––––––––––––––––––––––––––––––––––––––
Analyzed: The Rolling Stones / Tattoo You (RL)
––––––––––––––––––––––––––––––––––––––––

DR Peak RMS Duration Track
––––––––––––––––––––––––––––––––––––––––
DR13 -0.68 dB -14.88 dB 3:34 01-Start Me Up
DR13 -0.68 dB -15.33 dB 2:22 02-hang Fire
DR14 -1.70 dB -17.97 dB 4:56 03-Slave
DR12 -1.98 dB -15.84 dB 3:24 04-Little T & A
DR12 -2.43 dB -15.87 dB 3:35 05-Black Limousine
DR13 -0.96 dB -15.56 dB 3:34 06-Neighbors
DR15 -1.40 dB -19.26 dB 5:19 07-Worried About You
DR14 -1.55 dB -17.82 dB 3:48 08-Tops
DR14 -1.96 dB -18.53 dB 4:23 09-Heaven
DR15 -0.70 dB -18.24 dB 3:27 10-No Use in Crying
DR13 -2.04 dB -17.18 dB 4:37 11-Waiting on a Friend
––––––––––––––––––––––––––––––––––––––––

Number of tracks: 11
Official DR value: DR13

Samplerate: 44100 Hz
Channels: 2
Bits per sample: 16
Bitrate: 849 kbps
Codec: FLAC
================================================================================



The Rolling Stones: Collection (1964-1994) [Vinyl Rip 16/44 & mp3-320]

Tracklist LP26 - 1982 - Still Life (American Concert):
Rip by jstger6969

A1 Intro - Under My Thumb
A2 Let's Spend The Night Together
A3 Shattered
A4 Twenty Flight Rock
A5 Going To A Go-Go
B1 Let Me Go
B2 Time Is On My Side
B3 Just My Imagination (Running Away with Me)
B4 Start Me Up
B5 (I Can't Get No) Satisfaction
B6 Star Spangled Banner
C1 Going To A Go-Go (U.S Single)
C2 Beast Of Burden (U.S Single)

foobar2000 1.4 / Dynamic Range Meter 1.1.1
log date: 2018-09-25 05:47:20

––––––––––––––––––––––––––––––––––––––––
Analyzed: The Rolling Stones / Still Life (American Concert)
––––––––––––––––––––––––––––––––––––––––

DR Peak RMS Duration Track
––––––––––––––––––––––––––––––––––––––––
DR11 0.00 dB -11.71 dB 4:38 01-A1 Intro - Under My Thumb
DR11 0.00 dB -11.98 dB 3:57 02-A2 Let's Spend The Night Together
DR11 0.00 dB -11.94 dB 4:12 03-A3 Shattered
DR11 0.00 dB -12.05 dB 1:48 04-A4 Twenty Flight Rock
DR11 0.00 dB -11.84 dB 3:23 05-A5 Going To A Go-Go
DR12 0.00 dB -13.68 dB 3:36 06-B1 Let Me Go
DR12 -0.59 dB -13.82 dB 3:39 07-B2 Time Is On My Side
DR13 0.00 dB -13.89 dB 5:15 08-B3 Just My Imagination (Running Away with Me)
DR12 -0.39 dB -14.17 dB 4:21 09-B4 Start Me Up
DR13 -0.88 dB -14.78 dB 4:33 10-B5 (I Can't Get No) Satisfaction
DR10 -4.73 dB -18.45 dB 0:49 11-B6 Star Spangled Banner
DR11 0.00 dB -11.60 dB 3:23 12-C1 Going To A Go-Go (U.S Single)
DR10 0.00 dB -11.23 dB 5:11 13-C2 Beast Of Burden (U.S Single)
––––––––––––––––––––––––––––––––––––––––

Number of tracks: 13
Official DR value: DR11

Samplerate: 44100 Hz
Channels: 2
Bits per sample: 16
Bitrate: 854 kbps
Codec: FLAC
================================================================================



The Rolling Stones: Collection (1964-1994) [Vinyl Rip 16/44 & mp3-320]

Tracklist LP27 - 1983 - Undercover:
Rip by jstger6969

A1 Undercover Of The Night
A2 She Was Hot
A3 Tie You Up (The Pain of Love)
A4 Wanna Hold You
A5 Feel On Baby
B1 Too Much Blood
B2 Pretty Beat Up
B3 Too Tough
B4 All The Way Down
B5 It Must Be Hell
C1 I Think I'm Going Mad
C2 Undercover Of The Night (12' Mix)
C3 Too Much Blood (12' MIx)
C4 She Was Hot (Video Mix)

foobar2000 1.4 / Dynamic Range Meter 1.1.1
log date: 2018-09-25 05:47:36

––––––––––––––––––––––––––––––––––––––––
Analyzed: The Rolling Stones / Undercover
––––––––––––––––––––––––––––––––––––––––

DR Peak RMS Duration Track
––––––––––––––––––––––––––––––––––––––––
DR10 0.00 dB -11.55 dB 4:34 01-A1 Undercover Of The Night
DR9 0.00 dB -10.92 dB 4:42 02-A2 She Was Hot
DR10 0.00 dB -11.63 dB 4:16 03-A3 Tie You Up (The Pain of Love)
DR10 0.00 dB -11.76 dB 3:16 04-A4 Wanna Hold You
DR14 0.00 dB -15.64 dB 5:06 05-A5 Feel On Baby
DR11 0.00 dB -12.93 dB 6:15 06-B1 Too Much Blood
DR12 0.00 dB -13.34 dB 4:06 07-B2 Pretty Beat Up
DR11 0.00 dB -12.70 dB 3:53 08-B3 Too Tough
DR11 0.00 dB -12.67 dB 3:13 09-B4 All The Way Down
DR11 0.00 dB -13.17 dB 5:04 10-B5 It Must Be Hell
DR11 0.00 dB -12.80 dB 4:17 11-C1 I Think I'm Going Mad
DR13 0.00 dB -14.26 dB 6:22 12-C2 Undercover Of The Night (12' Mix)
DR14 0.00 dB -15.54 dB 8:49 13-C3 Too Much Blood (12' MIx)
DR12 -1.85 dB -15.34 dB 5:10 14-C4 She Was Hot (Video Mix)
––––––––––––––––––––––––––––––––––––––––

Number of tracks: 14
Official DR value: DR11

Samplerate: 44100 Hz
Channels: 2
Bits per sample: 16
Bitrate: 903 kbps
Codec: FLAC
================================================================================



The Rolling Stones: Collection (1964-1994) [Vinyl Rip 16/44 & mp3-320]

Tracklist LP28 - 1986 - Dirty Work:
Rip by jstger6969

A1 One Hit (To The Body)
A2 Fight
A3 Harlem Shuffle
A4 Hold Back
A5 Too Rude
B1 Winning Ugly
B2 Back To Zero
B3 Dirty Work
B4 Had It With You
B5 Sleep Tonight
C1 One Hit (To The Body) (U.S Single Edit)
C2 Harlem Shuffle (U.S 12' Single Mix)
C3 One Hit (To The Body) (U.S 12'Single Mix)

foobar2000 1.4 / Dynamic Range Meter 1.1.1
log date: 2018-09-25 05:47:51

––––––––––––––––––––––––––––––––––––––––
Analyzed: The Rolling Stones / Dirty Work
––––––––––––––––––––––––––––––––––––––––

DR Peak RMS Duration Track
––––––––––––––––––––––––––––––––––––––––
DR11 0.00 dB -12.47 dB 4:45 01-One Hit (To The Body)
DR11 0.00 dB -11.93 dB 3:11 02-Fight
DR12 0.00 dB -13.01 dB 3:26 03-Harlem Shuffle
DR12 0.00 dB -12.55 dB 3:54 04-Hold Back
DR12 0.00 dB -13.18 dB 3:12 05-Too Rude
DR11 0.00 dB -12.79 dB 4:33 06-Winning Ugly
DR15 0.00 dB -16.45 dB 4:01 07-Back To Zero
DR12 0.00 dB -13.08 dB 3:54 08-Dirty Work
DR12 0.00 dB -12.55 dB 3:20 09-Had It With You
DR13 0.00 dB -15.74 dB 5:48 10-Sleep Tonight
DR8 0.00 dB -9.45 dB 4:10 11-One Hit (To The Body) (U.S Single Edit)
DR13 -0.01 dB -14.99 dB 6:22 12-Harlem Shuffle (U.S 12' Single Mix)
DR7 0.00 dB -8.46 dB 7:06 13-One Hit (To The Body) (U.S 12'Single Mix)
––––––––––––––––––––––––––––––––––––––––

Number of tracks: 13
Official DR value: DR11

Samplerate: 44100 Hz
Channels: 2
Bits per sample: 16
Bitrate: 891 kbps
Codec: FLAC
================================================================================



The Rolling Stones: Collection (1964-1994) [Vinyl Rip 16/44 & mp3-320]

Tracklist LP29 - 1989 - Steel Wheels:
Rip by jstger6969

A1 Sad Sad Sad
A2 Mixed Emotions
A3 Terrifying
A4 Hold On To Your Hat
A5 Hearts For Sale
A6 Blinded By Love
B1 Rock And A Hard Place
B2 Can't Be Seen
B3 Almost Hear You Sigh
B4 Continental Drift
B5 Break The Spell
B6 Slipping Away
C1 Mixed Emotions (7' Single Mix)
C2 Fancy Man Blues
C3 Rock And A Hard Place (7' Single Mix)
C4 Cook Cook Blues
C5 Almost Hear You Sigh (Remix)
C6 Wish I'd Never Met You

foobar2000 1.4 / Dynamic Range Meter 1.1.1
log date: 2018-09-25 05:48:08

––––––––––––––––––––––––––––––––––––––––
Analyzed: The Rolling Stones / Steel Wheels
––––––––––––––––––––––––––––––––––––––––

DR Peak RMS Duration Track
––––––––––––––––––––––––––––––––––––––––
DR12 -0.66 dB -14.09 dB 3:37 01-Sad Sad Sad
DR12 -0.67 dB -14.34 dB 4:41 02-Mixed Emotions
DR12 -1.31 dB -15.28 dB 4:56 03-Terrifying
DR12 -2.65 dB -15.18 dB 3:34 04-Hold On To Your Hat
DR13 -1.49 dB -16.50 dB 4:44 05-Hearts For Sale
DR14 -2.65 dB -19.60 dB 4:39 06-Blinded By Love
DR13 -1.54 dB -16.17 dB 5:28 07-Rock And A Hard Place
DR12 -1.81 dB -16.10 dB 4:13 08-Can't Be Seen
DR12 -1.80 dB -15.83 dB 4:39 09-Almost Hear You Sigh
DR12 -2.30 dB -17.77 dB 5:18 10-Continental Drift
DR13 0.00 dB -16.87 dB 3:09 11-Break The Spell
DR12 -1.95 dB -17.41 dB 4:33 12-Slipping Away
DR10 0.00 dB -11.53 dB 4:02 13-Mixed Emotions (7' Single Mix)
DR13 -0.04 dB -16.47 dB 4:57 14-Fancy Man Blues
DR10 0.00 dB -11.89 dB 4:12 15-Rock And A Hard Place (7' Single Mix)
DR12 0.00 dB -13.25 dB 4:14 16-Cook Cook Blues
DR12 0.00 dB -14.26 dB 4:06 17-Almost Hear You Sigh (Remix)
DR15 -0.20 dB -17.05 dB 4:44 18-Wish I'd Never Met You
––––––––––––––––––––––––––––––––––––––––

Number of tracks: 18
Official DR value: DR12

Samplerate: 44100 Hz
Channels: 2
Bits per sample: 16
Bitrate: 807 kbps
Codec: FLAC
================================================================================



The Rolling Stones: Collection (1964-1994) [Vinyl Rip 16/44 & mp3-320]

Tracklist LP30 - 1991 - Flashpoint:
Rip by jstger6969

A1 Intro (Continental Drift)
A2 Start Me Up
A3 Sad Sad Sad
A4 Miss You
A5 Ruby Tuesday
A6 You Can't Always Get What You Want
A7 Factory Girl
A8 Little Red Rooster
B1 Paint It Black
B2 Sympathy For The Devil
B3 Brown Sugar
B4 Jumpin' Jack Flash
B5 (I Can't Get No) Satisfaction
B6 Highwire
B7 Sexdrive
C1 (2000 Lightyears From Home (U.S B-Side)
C2 Undercover Of The Night (U.S B-Side)
C3 Highwire (U.S Single Edit)

foobar2000 1.4 / Dynamic Range Meter 1.1.1
log date: 2018-09-25 05:48:27

––––––––––––––––––––––––––––––––––––––––
Analyzed: The Rolling Stones / Flashpoint
––––––––––––––––––––––––––––––––––––––––

DR Peak RMS Duration Track
––––––––––––––––––––––––––––––––––––––––
DR9 -14.46 dB -27.58 dB 0:24 01-Intro (Continental Drift)
DR13 -5.23 dB -19.24 dB 3:48 02-Start Me Up
DR13 -5.99 dB -20.37 dB 3:41 03-Sad Sad Sad
DR14 -5.11 dB -21.30 dB 5:49 04-Miss You
DR13 -5.55 dB -21.70 dB 3:40 05-Ruby Tuesday
DR13 -5.63 dB -21.63 dB 7:10 06-You Can't Always Get What You Want
DR13 -5.77 dB -20.54 dB 2:48 07-Factory Girl
DR12 -4.34 dB -19.09 dB 5:14 08-Little Red Rooster
DR13 -6.08 dB -20.89 dB 4:15 09-Paint It Black
DR13 -6.11 dB -21.64 dB 5:23 10-Sympathy For The Devil
DR12 -6.22 dB -20.13 dB 4:24 11-B3 Brown Sugar
DR12 -7.02 dB -20.81 dB 4:58 12-B4 Jumpin' Jack Flash
DR14 -5.55 dB -21.20 dB 6:12 13-B5 (I Can't Get No) Satisfaction
DR13 -5.64 dB -20.59 dB 4:46 14-B6 Highwire
DR12 -4.59 dB -18.14 dB 4:27 15-B7 Sexdrive
DR12 0.00 dB -14.83 dB 3:23 16-C1 (2000 Lightyears From Home (U.S B-Side)
DR9 0.00 dB -10.94 dB 4:11 17-C2 Undercover Of The Night (U.S B-Side)
DR13 0.00 dB -14.65 dB 3:42 18-C3 Highwire (U.S Single Edit)
––––––––––––––––––––––––––––––––––––––––

Number of tracks: 18
Official DR value: DR12

Samplerate: 44100 Hz
Channels: 2
Bits per sample: 16
Bitrate: 768 kbps
Codec: FLAC
================================================================================



The Rolling Stones: Collection (1964-1994) [Vinyl Rip 16/44 & mp3-320]

Tracklist LP31 - 1994 - Voodoo Lounge:
Rip by jstger6969

A1 Love Is Strong
A2 You Got Me Rocking
A3 Sparks Will Fly
B1 The Worst
B2 New Faces
B3 Moon Is Up
B4 Out Of Tears
C1 I Go Wild
C2 Brand New Car
C3 Sweethearts Together
C4 Suck On The Jugular
D1 Blinded By Rainbows
D2 Baby Break It Down
D3 Thru And Thru
E1 Out Of Tears (Don Was Edit)
E2 The Storm
E3 I'm Gonna Drive
E4 Jump On Top Of Me
E5 Love Is Strong Remix
E6 Out Of Tears (Bob Clearmoutain Edit)
E7 So Young

foobar2000 1.4 / Dynamic Range Meter 1.1.1
log date: 2018-09-25 05:48:48

––––––––––––––––––––––––––––––––––––––––
Analyzed: The Rolling Stone / Voodoo Lounge
––––––––––––––––––––––––––––––––––––––––

DR Peak RMS Duration Track
––––––––––––––––––––––––––––––––––––––––
DR8 0.00 dB -9.86 dB 3:53 01-TrackA1 Love Is Strong
DR7 0.00 dB -7.91 dB 3:38 02-TrackA2 You Got Me Rocking
DR8 0.00 dB -9.58 dB 3:18 03-TrackA3 Sparks Will Fly
DR11 -1.99 dB -15.34 dB 2:26 04-TrackB1 The Worst
DR11 -2.79 dB -15.74 dB 2:54 05-TrackB2 New Faces
DR10 -0.40 dB -11.94 dB 3:44 06-TrackB3 Moon Is Up
DR9 0.00 dB -11.93 dB 5:32 07-TrackB4 Out Of Tears
DR8 0.00 dB -9.76 dB 4:27 08-TrackC1 I Go Wild
DR11 0.00 dB -11.99 dB 4:19 09-TrackC2 Brand New Car
DR11 0.00 dB -12.44 dB 4:48 10-TrackC3 Sweethearts Together
DR12 0.00 dB -13.06 dB 4:28 11-TrackC4 Suck On The Jugular
DR9 0.00 dB -12.20 dB 4:36 12-TrackD1 Blinded By Rainbows
DR10 0.00 dB -11.22 dB 4:12 13-TrackD2 Baby Break It Down
DR9 0.00 dB -13.91 dB 6:05 14-TrackD3 Thru And Thru
DR9 0.00 dB -12.07 dB 4:25 15-TrackE1 Out Of Tears (Don Was Edit)
DR12 -1.43 dB -15.58 dB 2:51 16-TrackE2 The Storm
DR13 -2.20 dB -16.12 dB 3:47 17-TrackE3 I'm Gonna Drive
DR10 0.00 dB -10.80 dB 4:29 18-TrackE4Jump On Top Of Me
DR12 -1.26 dB -14.95 dB 5:10 19-TrackE5 Love Is Strong Remix
DR11 -1.78 dB -16.59 dB 4:28 20-TrackE6 Out Of Tears (Bob Clearmoutain Edit)
DR8 -0.57 dB -10.36 dB 3:25 21-TrackE7 So Young
––––––––––––––––––––––––––––––––––––––––

Number of tracks: 21
Official DR value: DR10

Samplerate: 44100 Hz
Channels: 2
Bits per sample: 16
Bitrate: 781 kbps
Codec: FLAC
================================================================================



Anonimous:
VPI Scoutmaster turntable with Trans-Fi Terminator Air Bearing Linear Tracing Tonearm
Audio-Technica AT33PTG Moving Coil Cartridge
Pro-Ject TubeBox phono preamp
E-MU 1212 soundcard

Thought I would add my bit to the Anonimous collection on here

jstger6969:
I ripped myself using a technics direct drive SL-3200 in to a pioneer sx 2300 into a
sony stand alone cd recorder rcd-w500c Ripped to Flac 8 using EAC. unless otherwise noted on the actual post itself.

If you listen very carefully you'll hear snap crackle and pops. I don't use a professional rig,
I have the same set up as I used for the past 25 years.
I rip into a stand alone cd recorder then I upload onto my computer using EAC, then I do any click repair as needed and track separation]

The Rolling Stones or The Rolling Stones in my Blog

Download The Rolling Stones: Collection (1964-1994):