Subcategories
Tags
Language
Tags

The Rolling Stones - Emotional Rescue (1980) [4 Releases]

Posted By: v3122
The Rolling Stones - Emotional Rescue (1980) [4 Releases]

The Rolling Stones - Emotional Rescue (1980)
EAC | Flac(Image) + Cue + Log & MP3 CBR 320Kbps
4CD | Label: Various | ~ 1100 or 478 Mb | Artwork(jpg) -> 124 Mb
Blues Rock, Classic Rock, Rock & Roll

~ 1986 Japan For Europa Original, CBS CDCBS 450206 2 + 1994 Holland Remaster, Virgin CDV2737 + 2009 EU Remaster, Polydor 0602527015651 + 2014 Japan Remaster, Promotone UICY-40062 ~

Coasting on the success of Some Girls, the Stones offered more of the same on Emotional Rescue. Comprised of leftovers from the previous album's sessions and hastily written new numbers, Emotional Rescue may consist mainly of filler, but it's expertly written and performed filler. The Stones toss off throwaways like the reggae-fueled, mail-order bride anthem "Send It to Me" or rockers like "Summer Romance" and "Where the Boys Go" with an authority that makes the record a guilty pleasure, even if it's clear that only two songs – the icy but sexy disco-rock of "Emotional Rescue" and the revamped Chuck Berry rocker "She's So Cold" – come close to being classic Stones.

by Stephen Thomas Erlewine, allmusic
The Rolling Stones - Emotional Rescue (1980):

The Rolling Stones - Emotional Rescue (1980) [4 Releases]

Tracklist CD1 - Emotional Rescue (1986 Japan For Europa Original, CBS CDCBS 450206 2):

1. Dance (Pt. 1) (4:23)
2. Summer Romance (3:16)
3. Send It To Me (3:43)
4. Let Me Go (3:52)
5. Indian Girl (4:23)
6. Where The Boys Go (3:28)
7. Down In The Hole (3:58)
8. Emotional Rescue (5:39)
9. She's So Cold (4:13)
10. All About You (4:19)

Exact Audio Copy V1.0 beta 4 from 7. December 2014

EAC extraction logfile from 11. January 2015, 20:30

The Rolling Stones / Emotional Rescue

Used drive : Optiarc DVD RW AD-7203A Adapter: 1 ID: 0

Read mode : Secure
Utilize accurate stream : Yes
Defeat audio cache : Yes
Make use of C2 pointers : No

Read offset correction : 48
Overread into Lead-In and Lead-Out : No
Fill up missing offset samples with silence : Yes
Delete leading and trailing silent blocks : No
Null samples used in CRC calculations : Yes
Used interface : Native Win32 interface for Win NT & 2000

Used output format : User Defined Encoder
Selected bitrate : 128 kBit/s
Quality : High
Add ID3 tag : No
Command line compressor : C:\Program Files\Exact Audio Copy\Flac\flac.exe
Additional command line options : -V -8 -T "Date=%year%" -T "Genre=%genre%" %source%


TOC of the extracted CD

Track | Start | Length | Start sector | End sector
––––––––––––––––––––––––––––-
1 | 0:00.00 | 4:23.37 | 0 | 19761
2 | 4:23.37 | 3:16.00 | 19762 | 34461
3 | 7:39.37 | 3:43.00 | 34462 | 51186
4 | 11:22.37 | 3:52.00 | 51187 | 68586
5 | 15:14.37 | 4:23.38 | 68587 | 88349
6 | 19:38.00 | 3:28.55 | 88350 | 104004
7 | 23:06.55 | 3:58.32 | 104005 | 121886
8 | 27:05.12 | 5:39.25 | 121887 | 147336
9 | 32:44.37 | 4:13.50 | 147337 | 166361
10 | 36:58.12 | 4:19.63 | 166362 | 185849


Range status and errors

Selected range

Filename G:\Music\My Rips\s296\The Rolling Stones - 1980 - Emotional Rescue (1986, CDCBS 450206 2, matrix DIDP 10588 31 +++++) - by s296\The Rolling Stones - Emotional Rescue (1986,CDCBS 450206 2, DIDP 10588 31).wav

Peak level 100.0 %
Extraction speed 2.2 X
Range quality 99.9 %
Test CRC 21F7BBF4
Copy CRC 21F7BBF4
Copy OK

No errors occurred


AccurateRip summary

Track 1 accurately ripped (confidence 22) [FD9A6715] (AR v2)
Track 2 accurately ripped (confidence 22) [1FC1F209] (AR v2)
Track 3 accurately ripped (confidence 22) [5ED87A7F] (AR v2)
Track 4 accurately ripped (confidence 22) [48F66D03] (AR v2)
Track 5 accurately ripped (confidence 22) [4DFFB71D] (AR v2)
Track 6 accurately ripped (confidence 22) [9D8B790D] (AR v2)
Track 7 accurately ripped (confidence 22) [94CDD11D] (AR v2)
Track 8 accurately ripped (confidence 22) [62016481] (AR v2)
Track 9 accurately ripped (confidence 22) [13447D4C] (AR v2)
Track 10 accurately ripped (confidence 22) [8A8F0CAF] (AR v2)

All tracks accurately ripped

End of status report

–– CUETools DB Plugin V2.1.4

[CTDB TOCID: hXZRQUnZGML8mP.MJmnYQ95naEc-] found
Submit result: hXZRQUnZGML8mP.MJmnYQ95naEc- has been confirmed
Track | CTDB Status
1 | (17/17) Accurately ripped
2 | (17/17) Accurately ripped
3 | (17/17) Accurately ripped
4 | (17/17) Accurately ripped
5 | (17/17) Accurately ripped
6 | (16/17) Accurately ripped
7 | (17/17) Accurately ripped
8 | (17/17) Accurately ripped
9 | (16/17) Accurately ripped
10 | (17/17) Accurately ripped


==== Log checksum 353D9E2A0F80D854B881204F5B952CB1E22C46B61B15B88C6723C90867335F44 ====


[CUETools log; Date: 09.06.2017 23:36:42; Version: 2.1.5]
[CTDB TOCID: hXZRQUnZGML8mP.MJmnYQ95naEc-] found.
Track | CTDB Status
1 | (50/50) Accurately ripped
2 | (50/50) Accurately ripped
3 | (50/50) Accurately ripped
4 | (50/50) Accurately ripped
5 | (50/50) Accurately ripped
6 | (49/50) Accurately ripped
7 | (50/50) Accurately ripped
8 | (50/50) Accurately ripped
9 | (49/50) Accurately ripped
10 | (50/50) Accurately ripped
[AccurateRip ID: 000f128d-00796d44-8609ae0a] found.
Track [ CRC | V2 ] Status
01 [835f26d5|fd9a6715] (17+30/49) Accurately ripped
02 [d989b602|1fc1f209] (17+31/50) Accurately ripped
03 [ce5722c3|5ed87a7f] (18+31/51) Accurately ripped
04 [4ffca401|48f66d03] (17+31/50) Accurately ripped
05 [f3064d7c|4dffb71d] (17+31/50) Accurately ripped
06 [9ae446cc|9d8b790d] (17+31/50) Accurately ripped
07 [61f28135|94cdd11d] (18+31/51) Accurately ripped
08 [499d1011|62016481] (19+30/51) Accurately ripped
09 [e30bddb4|13447d4c] (18+31/51) Accurately ripped
10 [4d054934|8a8f0caf] (17+31/50) Accurately ripped
Offsetted by -27:
01 [66625ab5] (00/49) No match (V2 was not tested)
02 [abf3391c] (00/50) No match (V2 was not tested)
03 [0e33209d] (00/51) No match (V2 was not tested)
04 [e6e8d104] (00/50) No match (V2 was not tested)
05 [a41dc454] (00/50) No match (V2 was not tested)
06 [855a86ab] (00/50) No match (V2 was not tested)
07 [642de4f2] (00/51) No match (V2 was not tested)
08 [86bbbde1] (00/51) No match (V2 was not tested)
09 [ff6dec5e] (00/51) No match (V2 was not tested)
10 [d98254ba] (00/50) No match (V2 was not tested)

Track Peak [ CRC32 ] [W/O NULL] [ LOG ]
– 100,0 [21F7BBF4] [EEF196FF] CRC32
01 100,0 [5954599D] [5CFA9E95]
02 100,0 [E37738C3] [83EF76FA]
03 100,0 [7FC3C010] [FA32647C]
04 99,8 [BB7DCA92] [759EE6A1]
05 98,1 [D4461D66] [BBF10BE7]
06 88,9 [0D403717] [40999CC0]
07 87,5 [2685B646] [B2A6697E]
08 100,0 [F6364806] [CBDCB689]
09 96,9 [8FE16D06] [015E790D]
10 78,5 [48172067] [117D2DB9]


The Rolling Stones - Emotional Rescue (1980) [4 Releases]

Tracklist CD2 - Emotional Rescue (1994 Holland Remaster, Virgin CDV2737):

1. Dance (Pt. 1) (4:23)
2. Summer Romance (3:16)
3. Send It To Me (3:43)
4. Let Me Go (3:50)
5. Indian Girl (4:23)
6. Where The Boys Go (3:29)
7. Down In The Hole (3:57)
8. Emotional Rescue (5:40)
9. She's So Cold (4:12)
10. All About You (4:19)

Exact Audio Copy V1.0 beta 3 from 29. August 2011

EAC extraction logfile from 11. March 2013, 14:25

The Rolling Stones / Emotional Rescue [CDV2737]

Used drive : HL-DT-STDVD+-RW GH50N Adapter: 0 ID: 1

Read mode : Secure
Utilize accurate stream : Yes
Defeat audio cache : Yes
Make use of C2 pointers : No

Read offset correction : 667
Overread into Lead-In and Lead-Out : No
Fill up missing offset samples with silence : Yes
Delete leading and trailing silent blocks : No
Null samples used in CRC calculations : Yes
Used interface : Native Win32 interface for Win NT & 2000

Used output format : User Defined Encoder
Selected bitrate : 768 kBit/s
Quality : High
Add ID3 tag : No
Command line compressor : C:\Program Files (x86)\Exact Audio Copy\FLAC\FLAC.EXE
Additional command line options : -V -8 -T "Date=%year%" -T "Genre=%genre%" %source%


TOC of the extracted CD

Track | Start | Length | Start sector | End sector
––––––––––––––––––––––––––––-
1 | 0:00.00 | 4:23.17 | 0 | 19741
2 | 4:23.17 | 3:16.00 | 19742 | 34441
3 | 7:39.17 | 3:43.00 | 34442 | 51166
4 | 11:22.17 | 3:51.58 | 51167 | 68549
5 | 15:14.00 | 4:23.37 | 68550 | 88311
6 | 19:37.37 | 3:29.13 | 88312 | 103999
7 | 23:06.50 | 3:58.00 | 104000 | 121849
8 | 27:04.50 | 5:39.35 | 121850 | 147309
9 | 32:44.10 | 4:13.45 | 147310 | 166329
10 | 36:57.55 | 4:18.20 | 166330 | 185699


Range status and errors

Selected range

Filename C:\222\Virgin\1980 - Emotional Resque [CDV2737]\The Rolling Stones - Emotional Rescue [CDV2737].wav

Peak level 99.4 %
Extraction speed 3.0 X
Range quality 100.0 %
Test CRC F09EFFE0
Copy CRC F09EFFE0
Copy OK

No errors occurred


AccurateRip summary

Track 1 accurately ripped (confidence 5) [99F72583] (AR v2)
Track 2 accurately ripped (confidence 5) [397F359F] (AR v2)
Track 3 accurately ripped (confidence 5) [169E37D2] (AR v2)
Track 4 accurately ripped (confidence 5) [C9B3C0F3] (AR v2)
Track 5 accurately ripped (confidence 5) [2ACDCA8C] (AR v2)
Track 6 accurately ripped (confidence 5) [99E889D4] (AR v2)
Track 7 accurately ripped (confidence 5) [272D042B] (AR v2)
Track 8 accurately ripped (confidence 4) [4A61DAC4] (AR v2)
Track 9 accurately ripped (confidence 6) [1720D551] (AR v2)
Track 10 accurately ripped (confidence 6) [AD022F59] (AR v2)

All tracks accurately ripped

End of status report

==== Log checksum E7E5ED4E3CD5E2430F2288F867834B89CD60540BC65D7BEF720892D206B14E10 ====


[CUETools log; Date: 09.06.2017 23:37:22; Version: 2.1.5]
[CTDB TOCID: 455Og6mrVUY.MnNPzyilMpWIW4w-] found.
Track | CTDB Status
1 | (119/119) Accurately ripped
2 | (119/119) Accurately ripped
3 | (119/119) Accurately ripped
4 | (118/119) Accurately ripped
5 | (118/119) Accurately ripped
6 | (119/119) Accurately ripped
7 | (119/119) Accurately ripped
8 | (119/119) Accurately ripped
9 | (119/119) Accurately ripped
10 | (119/119) Accurately ripped
[AccurateRip ID: 000f110b-00796103-9509ac0a] found.
Track [ CRC | V2 ] Status
01 [bd54194c|99f72583] (059+058/117) Accurately ripped
02 [e9de1059|397f359f] (057+060/117) Accurately ripped
03 [5089ed26|169e37d2] (058+059/117) Accurately ripped
04 [3cec4c87|c9b3c0f3] (059+059/118) Accurately ripped
05 [078c36e2|2acdca8c] (060+059/119) Accurately ripped
06 [52f8cc6b|99e889d4] (058+061/119) Accurately ripped
07 [9e8373b0|272d042b] (058+061/119) Accurately ripped
08 [54e2e590|4a61dac4] (060+058/118) Accurately ripped
09 [b8286b96|1720d551] (062+062/124) Accurately ripped
10 [67750fcd|ad022f59] (059+062/121) Accurately ripped
Offsetted by -659:
01 [ca8f6f44] (000/117) No match (V2 was not tested)
02 [8b6c7c26] (000/117) No match (V2 was not tested)
03 [bd45a0fc] (000/117) No match (V2 was not tested)
04 [26ca0912] (000/118) No match (V2 was not tested)
05 [d1f95d6a] (000/119) No match (V2 was not tested)
06 [aec336e6] (000/119) No match (V2 was not tested)
07 [b95bee85] (000/119) No match (V2 was not tested)
08 [9018c3cf] (000/118) No match (V2 was not tested)
09 [ee837f16] (000/124) No match (V2 was not tested)
10 [95208713] (000/121) No match (V2 was not tested)

Track Peak [ CRC32 ] [W/O NULL] [ LOG ]
– 99,4 [F09EFFE0] [3AF57E41] CRC32
01 99,4 [CB65BF6C] [69B02A98]
02 99,4 [F08ACEA5] [7AC65F82]
03 99,4 [08C9994F] [F32E639A]
04 99,4 [58097A7C] [7274AD46]
05 99,4 [B5CDAA5E] [BDF69941]
06 99,4 [E55E8232] [8048D9B8]
07 99,4 [3130CF0B] [BBE5D9B2]
08 99,4 [095A1B8D] [1A56ED24]
09 99,4 [6EC6A72B] [9863FDD7]
10 99,4 [058DAE00] [213ECCBF]


The Rolling Stones - Emotional Rescue (1980) [4 Releases]

Tracklist CD3 - Emotional Rescue (2009 EU Remaster, Polydor 0602527015651):

1. Dance (Pt. 1) (4:23)
2. Summer Romance (3:16)
3. Send It To Me (3:43)
4. Let Me Go (3:52)
5. Indian Girl (4:23)
6. Where The Boys Go (3:29)
7. Down In The Hole (3:59)
8. Emotional Rescue (5:39)
9. She's So Cold (4:13)
10. All About You (4:18)

Exact Audio Copy V1.0 beta 3 from 29. August 2011

Отчёт EAC об извлечении, выполненном 11. мая 2015, 13:00

The Rolling Stones / Emotional Rescue [RM 2009]

Дисковод: ATAPI iHES108 2 Adapter: 3 ID: 1

Режим чтения : Достоверность
Использование точного потока : Да
Отключение кэша аудио : Да
Использование указателей C2 : Нет

Коррекция смещения при чтении : 6
Способность читать области Lead-in и Lead-out : Нет
Заполнение пропущенных сэмплов тишиной : Да
Удаление блоков с тишиной в начале и конце : Нет
При вычислениях CRC использовались нулевые сэмплы : Да
Интерфейс : Встроенный Win32-интерфейс для Win NT/2000

Выходной формат : Пользовательский кодировщик
Выбранный битрейт : 1024 kBit/s
Качество : Высокий
Добавление ID3-тега : Нет
Утилита сжатия : C:\Program Files\Exact Audio Copy\Flac\flac.exe
Дополнительные параметры : -V -8 -T "Date=%year%" -T "Genre=%genre%" %source%


TOC извлечённого CD

Трек | Старт | Длительность | Начальный сектор | Конечный сектор
––––––––––––––––––––––––––––––––––-
1 | 0:00.00 | 4:23.17 | 0 | 19741
2 | 4:23.17 | 3:16.13 | 19742 | 34454
3 | 7:39.30 | 3:42.72 | 34455 | 51176
4 | 11:22.27 | 3:51.50 | 51177 | 68551
5 | 15:14.02 | 4:23.40 | 68552 | 88316
6 | 19:37.42 | 3:29.28 | 88317 | 104019
7 | 23:06.70 | 3:58.07 | 104020 | 121876
8 | 27:05.02 | 5:39.30 | 121877 | 147331
9 | 32:44.32 | 4:13.38 | 147332 | 166344
10 | 36:57.70 | 4:17.70 | 166345 | 185689


Характеристики диапазона извлечения и сообщения об ошибках

Выбранный диапазон

Имя файла D:\EAC-FOLDER\!!!RS_2009\Rolling Stones - Emotional Rescue\The Rolling Stones - Emotional Rescue_2009\The Rolling Stones - Emotional Rescue [RM 2009].wav

Пиковый уровень 98.8 %
Скорость извлечения 4.2 X
Качество диапазона 100.0 %
CRC теста 261052EC
CRC копии 261052EC
Копирование… OK

Ошибок не произошло


AccurateRip: сводка

Трек 1 : извлечено точно (доверие 104) [40C11E96] (AR v2)
Трек 2 : извлечено точно (доверие 105) [6E949C45] (AR v2)
Трек 3 : извлечено точно (доверие 104) [FAB5649C] (AR v2)
Трек 4 : извлечено точно (доверие 105) [44518650] (AR v2)
Трек 5 : извлечено точно (доверие 105) [C7A39888] (AR v2)
Трек 6 : извлечено точно (доверие 105) [6BA2FBF2] (AR v2)
Трек 7 : извлечено точно (доверие 105) [9C6190DF] (AR v2)
Трек 8 : извлечено точно (доверие 104) [D869384D] (AR v2)
Трек 9 : извлечено точно (доверие 106) [E8BF9DE8] (AR v2)
Трек 10 : извлечено точно (доверие 103) [241E7ABE] (AR v2)

Все треки извлечены точно

Конец отчёта

==== Контрольная сумма отчёта 0494DDB005893B8B104BE3AAAC1C902305E87816369EE63A060E5E1FD0EE9A1E ====


[CUETools log; Date: 09.06.2017 23:36:55; Version: 2.1.5]
[CTDB TOCID: 9cGOeI7I6n39iqNGE_Huq9u3lwE-] found.
Track | CTDB Status
1 | (190/190) Accurately ripped
2 | (190/190) Accurately ripped
3 | (189/190) Accurately ripped
4 | (190/190) Accurately ripped
5 | (188/190) Accurately ripped
6 | (190/190) Accurately ripped
7 | (190/190) Accurately ripped
8 | (187/190) Accurately ripped
9 | (186/190) Accurately ripped
10 | (183/190) Accurately ripped
[AccurateRip ID: 000f1173-007963cc-9609ab0a] found.
Track [ CRC | V2 ] Status
01 [b7b1b9ff|40c11e96] (073+139/231) Accurately ripped
02 [1112209b|6e949c45] (072+140/229) Accurately ripped
03 [7cc72580|fab5649c] (072+139/229) Accurately ripped
04 [8da6a11a|44518650] (071+140/229) Accurately ripped
05 [5483d7e7|c7a39888] (072+139/227) Accurately ripped
06 [01cc8cdb|6ba2fbf2] (072+140/229) Accurately ripped
07 [27188207|9c6190df] (071+138/227) Accurately ripped
08 [cc061181|d869384d] (070+138/225) Accurately ripped
09 [52c63ea8|e8bf9de8] (073+138/229) Accurately ripped
10 [67536814|241e7abe] (071+136/222) Accurately ripped
Offsetted by -676:
01 [2705f1ad] (005/231) Accurately ripped
02 [2f7421f7] (003/229) Accurately ripped
03 [477ca25a] (004/229) Accurately ripped
04 [416bf582] (004/229) Accurately ripped
05 [636e8bc2] (004/227) Accurately ripped
06 [29108470] (004/229) Accurately ripped
07 [7e29f0da] (004/227) Accurately ripped
08 [d7cf35b2] (004/225) Accurately ripped
09 [022de14a] (004/229) Accurately ripped
10 [e96ba2ad] (004/222) Accurately ripped
Offsetted by -664:
01 [d8605548] (000/231) No match (V2 was not tested)
02 [213ce9e4] (000/229) No match (V2 was not tested)
03 [4c9f4337] (000/229) No match (V2 was not tested)
04 [f2424e47] (000/229) No match (V2 was not tested)
05 [aa49dc0a] (000/227) No match
06 [21348bd2] (000/229) No match (V2 was not tested)
07 [62712967] (000/227) No match (V2 was not tested)
08 [b6538740] (000/225) No match (V2 was not tested)
09 [2f0897e1] (000/229) No match (V2 was not tested)
10 [c666871e] (000/222) No match
Offsetted by -18:
01 [bd1b88f6] (000/231) No match (V2 was not tested)
02 [d0ce5c8d] (000/229) No match (V2 was not tested)
03 [b859e015] (000/229) No match (V2 was not tested)
04 [45766c0b] (000/229) No match (V2 was not tested)
05 [e8d834f7] (000/227) No match (V2 was not tested)
06 [0407c96c] (000/229) No match (V2 was not tested)
07 [8b31da1d] (000/227) No match (V2 was not tested)
08 [e9a4a0f0] (000/225) No match (V2 was not tested)
09 [11142df4] (000/229) No match (V2 was not tested)
10 [991636fc] (000/222) No match (V2 was not tested)
Offsetted by -12:
01 [e6837863] (000/231) No match (V2 was not tested)
02 [e4a453f0] (000/229) No match (V2 was not tested)
03 [dd213513] (000/229) No match (V2 was not tested)
04 [0a56cb38] (000/229) No match (V2 was not tested)
05 [0cf7328b] (000/227) No match (V2 was not tested)
06 [09361d96] (000/229) No match (V2 was not tested)
07 [86e8d76f] (000/227) No match (V2 was not tested)
08 [22a0d416] (000/225) No match (V2 was not tested)
09 [270088d8] (000/229) No match (V2 was not tested)
10 [887ff204] (000/222) No match (V2 was not tested)
Offsetted by 6:
01 [7e56b4eb] (000/231) No match (V2 was not tested)
02 [c5d542e6] (000/229) No match (V2 was not tested)
03 [d692cb98] (000/229) No match (V2 was not tested)
04 [4d08fc3b] (000/229) No match (V2 was not tested)
05 [77f17fac] (000/227) No match (V2 was not tested)
06 [847f2293] (000/229) No match (V2 was not tested)
07 [57eb3ebd] (000/227) No match (V2 was not tested)
08 [a128e1b6] (000/225) No match (V2 was not tested)
09 [694e3013] (000/229) No match (V2 was not tested)
10 [556217f4] (000/222) No match (V2 was not tested)

Track Peak [ CRC32 ] [W/O NULL] [ LOG ]
– 98,8 [261052EC] [E97CAD22] CRC32
01 98,8 [E2EC87DD] [00739D2A]
02 98,8 [4C4D2C04] [2D1490DA]
03 98,7 [8D6D297E] [DF35D7E2]
04 98,7 [DD842CEE] [95EC65EB]
05 98,8 [114328EC] [93477C11]
06 98,7 [97BEF043] [28B012CA]
07 98,8 [A446B611] [0AA589D6]
08 98,8 [C1879C71] [30B3D74B]
09 98,8 [0DC2EBBB] [594EDB08]
10 98,7 [40D3D694] [62DD7424]


The Rolling Stones - Emotional Rescue (1980) [4 Releases]

Tracklist CD4 - Emotional Rescue (2014 Japan Remaster, Promotone UICY-40062):

1. Dance (Pt.1) (4:23)
2. Summer Romance (3:26)
3. Send It To Me (3:43)
4. Let Me Go (3:52)
5. Indian Girl (4:23)
6. Where The Boys Go (3:28)
7. Down In The Hole (3:58)
8. Emotional Rescue (5:39)
9. She's So Cold (4:13)
10. All About You (4:18)

Exact Audio Copy V1.0 beta 3 from 29. August 2011

EAC extraction logfile from 1. May 2014, 9:20

The Rolling Stones / Emotional Rescue PT-SHM

Used drive : PLEXTOR BD-R PX-B950SA Adapter: 6 ID: 0

Read mode : Secure
Utilize accurate stream : Yes
Defeat audio cache : Yes
Make use of C2 pointers : No

Read offset correction : 6
Overread into Lead-In and Lead-Out : No
Fill up missing offset samples with silence : Yes
Delete leading and trailing silent blocks : No
Null samples used in CRC calculations : Yes
Used interface : Native Win32 interface for Win NT & 2000

Used output format : Internal WAV Routines
Sample format : 44.100 Hz; 16 Bit; Stereo


TOC of the extracted CD

Track | Start | Length | Start sector | End sector
––––––––––––––––––––––––––––-
1 | 0:00.00 | 4:23.43 | 0 | 19767
2 | 4:23.43 | 3:16.00 | 19768 | 34467
3 | 7:39.43 | 3:43.52 | 34468 | 51244
4 | 11:23.20 | 3:52.60 | 51245 | 68704
5 | 15:16.05 | 4:23.30 | 68705 | 88459
6 | 19:39.35 | 3:28.43 | 88460 | 104102
7 | 23:08.03 | 3:58.25 | 104103 | 121977
8 | 27:06.28 | 5:39.65 | 121978 | 147467
9 | 32:46.18 | 4:13.40 | 147468 | 166482
10 | 36:59.58 | 4:18.12 | 166483 | 185844


Range status and errors

Selected range

Filename C:\Users\Meijin\Desktop\ALLexxess\The Rolling Stones\1980 Emotional Rescue (Mini LP PT-SHM Universal Japan 2014)\The Rolling Stones - Emotional Rescue PT-SHM.wav

Peak level 96.6 %
Extraction speed 6.7 X
Range quality 100.0 %
Test CRC D42B2C7D
Copy CRC D42B2C7D
Copy OK

No errors occurred


AccurateRip summary

Track 1 not present in database
Track 2 not present in database
Track 3 not present in database
Track 4 not present in database
Track 5 not present in database
Track 6 not present in database
Track 7 not present in database
Track 8 not present in database
Track 9 not present in database
Track 10 not present in database

None of the tracks are present in the AccurateRip database

End of status report

==== Log checksum 07C3CA1BBDAD71BFE45E37ADAB4B284ADF58C4447DB4316887EDFEAE44F89888 ====


[CUETools log; Date: 09.06.2017 23:37:10; Version: 2.1.5]
[CTDB TOCID: a4FFCM4M7iAqh1WD1czPcqaYNyU-] found.
Track | CTDB Status
1 | (10/10) Accurately ripped
2 | (10/10) Accurately ripped
3 | (10/10) Accurately ripped
4 | (10/10) Accurately ripped
5 | (10/10) Accurately ripped
6 | (10/10) Accurately ripped
7 | (10/10) Accurately ripped
8 | (10/10) Accurately ripped
9 | (10/10) Accurately ripped
10 | ( 9/10) Accurately ripped
[AccurateRip ID: 000f156b-007981d0-8709ad0a] found.
Track [ CRC | V2 ] Status
01 [9fb21a92|27ecdc8c] (0+8/8) Accurately ripped
02 [efa022cc|792cfcc9] (0+8/8) Accurately ripped
03 [8d2f8341|810522e9] (0+8/8) Accurately ripped
04 [c55df349|a3963569] (0+8/8) Accurately ripped
05 [85d88f80|5e93ab64] (0+8/8) Accurately ripped
06 [7e0afa47|50cd2640] (0+8/8) Accurately ripped
07 [03039734|9d354530] (0+8/8) Accurately ripped
08 [3aa91c11|be756b15] (0+8/8) Accurately ripped
09 [36483868|178a9ef9] (0+8/8) Accurately ripped
10 [009fc834|394e352d] (0+8/8) Accurately ripped

Track Peak [ CRC32 ] [W/O NULL] [ LOG ]
– 96,6 [D42B2C7D] [6D73559A] CRC32
01 91,4 [F1707447] [CB7037EE]
02 94,2 [DF095919] [CB97B463]
03 92,8 [889A82E0] [D23DFCAD]
04 94,4 [0E50764D] [4E47C978]
05 86,6 [F62EFD29] [DE912BD0]
06 90,7 [8DAD679D] [7E2DC05B]
07 86,2 [CFC7DA4E] [EA38F375]
08 96,6 [474078B2] [8065AEC8]
09 91,3 [96A7A48F] [77C2E1CE]
10 77,4 [D0011164] [77076ADB]


All thanks go to s296, Ironbelly, ALLexxess

The Rolling Stones in my Blog

Download The Rolling Stones - Emotional Rescue (1980):