Tags
Language
Tags

The Rolling Stones - 'Exile On Main St' Chronology - The History of Recording Sessions 1969-1972 (2011)

Posted By: Rtax
The Rolling Stones - 'Exile On Main St' Chronology - The History of Recording Sessions 1969-1972 (2011)

The Rolling Stones - 'Exile On Main St' Chronology - The History of Recording Sessions 1969-1972 (2011)
XLD Rip | FLAC (tracks, cue, log, scans) - 921 MB | MP3 CBR 320 kbps - 384 MB
2:36:32 | Rock, Blues Rock | Label: Goldplate

Exile on Main St. is the 10th British and 12th American studio album by the English rock band the Rolling Stones, released on 12 May 1972 by Rolling Stones Records. Recording began in 1969 in England during sessions for Sticky Fingers and continued in mid-1971 at a rented villa in the South of France named Nellcôte while the band lived abroad as tax exiles. A collage of various images, the album's artwork, according to frontman Mick Jagger, reflects the Rolling Stones as "runaway outlaws using the blues as its weapon against the world", showcasing "feeling of joyful isolation, grinning in the face of a scary and unknown future".

Tracklist
Disc 1
01 Introduction - Exile On Main St. Blues [Studio Sessions]
02 Loving Cup [Studio Sessions]
03 Jiving Sister Fanny [Studio Sessions]
04 Get A Line On You (Shine A Light) [Studio Sessions]
05 All Down The Line [Acoustic Demo] [Studio Sessions]
06 I Don't Know The Reason Why (Hillside Blues) [Studio Sessions]
07 Dancing In The Light [Studio Sessions]
08 Who Am I [Studio Sessions]
09 I'm Going Down [Studio Sessions]
10 Leather Jacket [Studio Sessions]
11 All Down The Line [Electric Demo] [Studio Sessions]
12 Shine A Light [Studio Sessions]
13 Travelling Man [Studio Sessions]
14 Aladdin Story [So Divine] [Studio Sessions]
15 Potted Shrimps [Studio Sessions]
16 Bent Green Needles (Sweet Black Angel) [Studio Sessions]
17 Sweet Virginia [Studio Sessions]
18 Good Time Woman (Tumbling Dice) [Studio Sessions]

Disc 2
01 Stop Breaking Down [Studio Sessions]
02 Shake Your Hips [Studio Sessions]
03 Ain't Gonna Lie (I'm Not Signifying) [Studio Sessions]
04 Rocks Off [Studio Sessions]
05 All Down The Line [Studio Sessions]
06 Nellcote Instrumental [Studio Sessions]
07 Ventilator Blues [Studio Sessions]
08 Rip This Joint [Studio Sessions]
09 Ain't Gonna Lie (I'm Not Signifying) [Studio Sessions]
10 Soul Survivor [Studio Sessions]
11 Let It Loose [Studio Sessions]
12 All Down The Line [Stereo Remix] [Studio Sessions]
13 Exile On Main St. Blues [Full Length Version] [Studio Sessions]
14 I Don't Care [Studio Sessions]
15 Tumbling Dice [Single Mono Mix]
16 All Down The Line [Single Mono Mix]
17 Plundered My Soul [Radio Mix]
18 Exile On Main St. Blues [Radio Promo]
X Lossless Decoder version 20191004 (152.0)

XLD extraction logfile from 2020-07-16 12:43:22 -0500

The Rolling Stones / Exile On Main St. Chronology

Used drive : Apple SuperDrive (revision 2.00)
Media type : Pressed CD

Ripper mode : XLD Secure Ripper
Disable audio cache : OK for the drive with a cache less than 1375KiB
Make use of C2 pointers : NO
Read offset correction : 6
Max retry count : 20
Gap status : Analyzed, Appended (except HTOA)

TOC of the extracted CD
Track | Start | Length | Start sector | End sector
––––––––––––––––––––––––––––-
1 | 00:00:00 | 01:24:35 | 0 | 6334
2 | 01:24:35 | 06:38:62 | 6335 | 36246
3 | 08:03:22 | 03:25:38 | 36247 | 51659
4 | 11:28:60 | 04:24:63 | 51660 | 71522
5 | 15:53:48 | 04:29:59 | 71523 | 91756
6 | 20:23:32 | 10:55:53 | 91757 | 140934
7 | 31:19:10 | 02:51:07 | 140935 | 153766
8 | 34:10:17 | 03:53:59 | 153767 | 171300
9 | 38:04:01 | 03:02:26 | 171301 | 184976
10 | 41:06:27 | 03:30:28 | 184977 | 200754
11 | 44:36:55 | 04:09:45 | 200755 | 219474
12 | 48:46:25 | 04:06:37 | 219475 | 237961
13 | 52:52:62 | 06:01:33 | 237962 | 265069
14 | 58:54:20 | 05:29:25 | 265070 | 289769
15 | 64:23:45 | 04:11:35 | 289770 | 308629
16 | 68:35:05 | 03:07:39 | 308630 | 322693
17 | 71:42:44 | 04:20:32 | 322694 | 342225
18 | 76:03:01 | 03:34:40 | 342226 | 358315

AccurateRip Summary (DiscID: 0034b1d8-02c16770-1d12a912)
Track 01 : OK (v1, confidence 1/1)
Track 02 : OK (v1, confidence 1/1)
Track 03 : OK (v1, confidence 1/1)
Track 04 : OK (v1, confidence 1/1)
Track 05 : OK (v1, confidence 1/1)
Track 06 : OK (v1, confidence 1/1)
Track 07 : OK (v1, confidence 1/1)
Track 08 : OK (v1, confidence 1/1)
Track 09 : OK (v1, confidence 1/1)
Track 10 : OK (v1, confidence 1/1)
Track 11 : OK (v1, confidence 1/1)
Track 12 : OK (v1, confidence 1/1)
Track 13 : OK (v1, confidence 1/1)
Track 14 : OK (v1, confidence 1/1)
Track 15 : OK (v1, confidence 1/1)
Track 16 : OK (v1, confidence 1/1)
Track 17 : OK (v1, confidence 1/1)
Track 18 : OK (v1, confidence 1/1)
->All tracks accurately ripped.

All Tracks
Album gain : -9.49 dB
Peak : 0.999969
Statistics
Read error : 0
Jitter error (maybe fixed) : 0
Retry sector count : 0
Damaged sector count : 0

Track 01
Filename : /Users/ballpark/Documents/0-CD Rip/The Rolling Stones - Exile On Main St Chronology (Goldplate GP-1103CD1-2 FLAC)/Disc 1/01 Introduction : Exile On Main St. Blues [Studio Sessions][1969.4.17/7.02].flac
Pre-gap length : 00:02:00

Track gain : -2.92 dB
Peak : 0.766876
CRC32 hash (test run) : 5EB101F3
CRC32 hash : 5EB101F3
CRC32 hash (skip zero) : 70BF0B16
AccurateRip v1 signature : F6CDE76F
AccurateRip v2 signature : EDD4CD50
->Accurately ripped (v1, confidence 1/1)
Statistics
Read error : 0
Jitter error (maybe fixed) : 0
Retry sector count : 0
Damaged sector count : 0

Track 02
Filename : /Users/ballpark/Documents/0-CD Rip/The Rolling Stones - Exile On Main St Chronology (Goldplate GP-1103CD1-2 FLAC)/Disc 1/02 Loving Cup [Studio Sessions][1969.4.17/7.02].flac

Track gain : -8.93 dB
Peak : 0.954529
CRC32 hash (test run) : C4AA6A7A
CRC32 hash : C4AA6A7A
CRC32 hash (skip zero) : 2B1A43F2
AccurateRip v1 signature : 151D56FA
AccurateRip v2 signature : 42FFB2FE
->Accurately ripped (v1, confidence 1/1)
Statistics
Read error : 0
Jitter error (maybe fixed) : 0
Retry sector count : 0
Damaged sector count : 0

Track 03
Filename : /Users/ballpark/Documents/0-CD Rip/The Rolling Stones - Exile On Main St Chronology (Goldplate GP-1103CD1-2 FLAC)/Disc 1/03 Jiving Sister Fanny [Studio Sessions][1969.4.17/7.02].flac

Track gain : -10.81 dB
Peak : 0.947357
CRC32 hash (test run) : 0E1430E3
CRC32 hash : 0E1430E3
CRC32 hash (skip zero) : BA32B691
AccurateRip v1 signature : CE6F29E7
AccurateRip v2 signature : 56636FD4
->Accurately ripped (v1, confidence 1/1)
Statistics
Read error : 0
Jitter error (maybe fixed) : 0
Retry sector count : 0
Damaged sector count : 0

Track 04
Filename : /Users/ballpark/Documents/0-CD Rip/The Rolling Stones - Exile On Main St Chronology (Goldplate GP-1103CD1-2 FLAC)/Disc 1/04 Get A Line On You (Shine A Light) [Studio Sessions][1969.10].flac

Track gain : -7.07 dB
Peak : 0.965485
CRC32 hash (test run) : C493FC3C
CRC32 hash : C493FC3C
CRC32 hash (skip zero) : 9E0D5AEB
AccurateRip v1 signature : DDF14417
AccurateRip v2 signature : 08884CF1
->Accurately ripped (v1, confidence 1/1)
Statistics
Read error : 0
Jitter error (maybe fixed) : 0
Retry sector count : 0
Damaged sector count : 0

Track 05
Filename : /Users/ballpark/Documents/0-CD Rip/The Rolling Stones - Exile On Main St Chronology (Goldplate GP-1103CD1-2 FLAC)/Disc 1/05 All Down The Line [Acoustic Demo] [Studio Sessions][1969.10.17/26/10.28/12.02].flac

Track gain : -9.70 dB
Peak : 0.999969
CRC32 hash (test run) : 14ED53CD
CRC32 hash : 14ED53CD
CRC32 hash (skip zero) : 858C3E91
AccurateRip v1 signature : 18A7722C
AccurateRip v2 signature : 73B5474A
->Accurately ripped (v1, confidence 1/1)
Statistics
Read error : 0
Jitter error (maybe fixed) : 0
Retry sector count : 0
Damaged sector count : 0

Track 06
Filename : /Users/ballpark/Documents/0-CD Rip/The Rolling Stones - Exile On Main St Chronology (Goldplate GP-1103CD1-2 FLAC)/Disc 1/06 I Don't Know The Reason Why (Hillside Blues) [Studio Sessions][1969.10.17/26/10.28/12.02].flac

Track gain : -10.12 dB
Peak : 0.954529
CRC32 hash (test run) : 80854F9C
CRC32 hash : 80854F9C
CRC32 hash (skip zero) : 357D3C38
AccurateRip v1 signature : D9FA1343
AccurateRip v2 signature : B03B5374
->Accurately ripped (v1, confidence 1/1)
Statistics
Read error : 0
Jitter error (maybe fixed) : 0
Retry sector count : 0
Damaged sector count : 0

Track 07
Filename : /Users/ballpark/Documents/0-CD Rip/The Rolling Stones - Exile On Main St Chronology (Goldplate GP-1103CD1-2 FLAC)/Disc 1/07 Dancing In The Light [Studio Sessions][1970.3.14/May].flac

Track gain : -9.40 dB
Peak : 0.999969
CRC32 hash (test run) : DE6BCE79
CRC32 hash : DE6BCE79
CRC32 hash (skip zero) : 6EBCCA0F
AccurateRip v1 signature : 75ED12E7
AccurateRip v2 signature : F9D8CB44
->Accurately ripped (v1, confidence 1/1)
Statistics
Read error : 0
Jitter error (maybe fixed) : 0
Retry sector count : 0
Damaged sector count : 0

Track 08
Filename : /Users/ballpark/Documents/0-CD Rip/The Rolling Stones - Exile On Main St Chronology (Goldplate GP-1103CD1-2 FLAC)/Disc 1/08 Who Am I? [Studio Sessions][1970.3.14/May].flac

Track gain : -5.42 dB
Peak : 0.999969
CRC32 hash (test run) : EE57A497
CRC32 hash : EE57A497
CRC32 hash (skip zero) : 534E26E6
AccurateRip v1 signature : F03953AC
AccurateRip v2 signature : CDAC5D9E
->Accurately ripped (v1, confidence 1/1)
Statistics
Read error : 0
Jitter error (maybe fixed) : 0
Retry sector count : 0
Damaged sector count : 0

Track 09
Filename : /Users/ballpark/Documents/0-CD Rip/The Rolling Stones - Exile On Main St Chronology (Goldplate GP-1103CD1-2 FLAC)/Disc 1/09 I'm Going Down [Studio Sessions][1970.6.16/6.27].flac

Track gain : -8.90 dB
Peak : 0.938080
CRC32 hash (test run) : 0E48D384
CRC32 hash : 0E48D384
CRC32 hash (skip zero) : 8B95FE11
AccurateRip v1 signature : D89A95AB
AccurateRip v2 signature : 315B4612
->Accurately ripped (v1, confidence 1/1)
Statistics
Read error : 0
Jitter error (maybe fixed) : 0
Retry sector count : 0
Damaged sector count : 0

Track 10
Filename : /Users/ballpark/Documents/0-CD Rip/The Rolling Stones - Exile On Main St Chronology (Goldplate GP-1103CD1-2 FLAC)/Disc 1/10 Leather Jacket [Studio Sessions][1970.6.16/6.27].flac

Track gain : -9.60 dB
Peak : 0.966278
CRC32 hash (test run) : 88646D66
CRC32 hash : 88646D66
CRC32 hash (skip zero) : 4BC484BB
AccurateRip v1 signature : D2FA0D46
AccurateRip v2 signature : B9D94C98
->Accurately ripped (v1, confidence 1/1)
Statistics
Read error : 0
Jitter error (maybe fixed) : 0
Retry sector count : 0
Damaged sector count : 0

Track 11
Filename : /Users/ballpark/Documents/0-CD Rip/The Rolling Stones - Exile On Main St Chronology (Goldplate GP-1103CD1-2 FLAC)/Disc 1/11 All Down The Line [Electric Demo] [Studio Sessions][1970.6.16/6.27].flac

Track gain : -9.47 dB
Peak : 0.889221
CRC32 hash (test run) : 56FD68F3
CRC32 hash : 56FD68F3
CRC32 hash (skip zero) : E7BDE458
AccurateRip v1 signature : 8D15739B
AccurateRip v2 signature : 2E607F9B
->Accurately ripped (v1, confidence 1/1)
Statistics
Read error : 0
Jitter error (maybe fixed) : 0
Retry sector count : 0
Damaged sector count : 0

Track 12
Filename : /Users/ballpark/Documents/0-CD Rip/The Rolling Stones - Exile On Main St Chronology (Goldplate GP-1103CD1-2 FLAC)/Disc 1/12 Shine A Light [Studio Sessions][1970.6.16/6.27].flac

Track gain : -10.46 dB
Peak : 0.943817
CRC32 hash (test run) : 57E1F0C6
CRC32 hash : 57E1F0C6
CRC32 hash (skip zero) : B5E6D754
AccurateRip v1 signature : C7E1CB2D
AccurateRip v2 signature : 599FB408
->Accurately ripped (v1, confidence 1/1)
Statistics
Read error : 0
Jitter error (maybe fixed) : 0
Retry sector count : 0
Damaged sector count : 0

Track 13
Filename : /Users/ballpark/Documents/0-CD Rip/The Rolling Stones - Exile On Main St Chronology (Goldplate GP-1103CD1-2 FLAC)/Disc 1/13 Travelling Man [Studio Sessions][1970.10.17/10.31].flac

Track gain : -9.90 dB
Peak : 0.999969
CRC32 hash (test run) : FF0EBAC0
CRC32 hash : FF0EBAC0
CRC32 hash (skip zero) : B7C8042F
AccurateRip v1 signature : 69AF93C0
AccurateRip v2 signature : 47F32340
->Accurately ripped (v1, confidence 1/1)
Statistics
Read error : 0
Jitter error (maybe fixed) : 0
Retry sector count : 0
Damaged sector count : 0

Track 14
Filename : /Users/ballpark/Documents/0-CD Rip/The Rolling Stones - Exile On Main St Chronology (Goldplate GP-1103CD1-2 FLAC)/Disc 1/14 Aladdin Story [So Divine] [Studio Sessions][1970.10.17/10.31].flac

Track gain : -8.79 dB
Peak : 0.999969
CRC32 hash (test run) : B5F440B7
CRC32 hash : B5F440B7
CRC32 hash (skip zero) : B40D65B6
AccurateRip v1 signature : 7BFA20AE
AccurateRip v2 signature : 38D5140A
->Accurately ripped (v1, confidence 1/1)
Statistics
Read error : 0
Jitter error (maybe fixed) : 0
Retry sector count : 0
Damaged sector count : 0

Track 15
Filename : /Users/ballpark/Documents/0-CD Rip/The Rolling Stones - Exile On Main St Chronology (Goldplate GP-1103CD1-2 FLAC)/Disc 1/15 Potted Shrimps [Studio Sessions][1970.10.17/10.31].flac

Track gain : -9.43 dB
Peak : 0.955536
CRC32 hash (test run) : AD56A64B
CRC32 hash : AD56A64B
CRC32 hash (skip zero) : 98E85928
AccurateRip v1 signature : 9128B473
AccurateRip v2 signature : 6B024484
->Accurately ripped (v1, confidence 1/1)
Statistics
Read error : 0
Jitter error (maybe fixed) : 0
Retry sector count : 0
Damaged sector count : 0

Track 16
Filename : /Users/ballpark/Documents/0-CD Rip/The Rolling Stones - Exile On Main St Chronology (Goldplate GP-1103CD1-2 FLAC)/Disc 1/16 Bent Green Needles (Sweet Black Angel) [Studio Sessions][1970.10.17/10.31].flac

Track gain : -7.91 dB
Peak : 0.999969
CRC32 hash (test run) : FBC24858
CRC32 hash : FBC24858
CRC32 hash (skip zero) : 349FA294
AccurateRip v1 signature : BDE85C99
AccurateRip v2 signature : D62A0947
->Accurately ripped (v1, confidence 1/1)
Statistics
Read error : 0
Jitter error (maybe fixed) : 0
Retry sector count : 0
Damaged sector count : 0

Track 17
Filename : /Users/ballpark/Documents/0-CD Rip/The Rolling Stones - Exile On Main St Chronology (Goldplate GP-1103CD1-2 FLAC)/Disc 1/17 Sweet Virginia [Studio Sessions][1970.10.17/10.31].flac

Track gain : -9.72 dB
Peak : 0.999969
CRC32 hash (test run) : 1ABB0131
CRC32 hash : 1ABB0131
CRC32 hash (skip zero) : F67A1320
AccurateRip v1 signature : 0377735B
AccurateRip v2 signature : CAC59488
->Accurately ripped (v1, confidence 1/1)
Statistics
Read error : 0
Jitter error (maybe fixed) : 0
Retry sector count : 0
Damaged sector count : 0

Track 18
Filename : /Users/ballpark/Documents/0-CD Rip/The Rolling Stones - Exile On Main St Chronology (Goldplate GP-1103CD1-2 FLAC)/Disc 1/18 Good Time Woman (Tumbling Dice) [Studio Sessions][1970.10.17/10.31].flac

Track gain : -12.04 dB
Peak : 0.999969
CRC32 hash (test run) : 4B5DBFC1
CRC32 hash : 4B5DBFC1
CRC32 hash (skip zero) : EA8B2396
AccurateRip v1 signature : 3C6B3D87
AccurateRip v2 signature : 6F38FC16
->Accurately ripped (v1, confidence 1/1)
Statistics
Read error : 0
Jitter error (maybe fixed) : 0
Retry sector count : 0
Damaged sector count : 0

No errors occurred

End of status report

––-BEGIN XLD SIGNATURE––-
Md6BHUikA8KoHTtWRrRl510c_2RLsGjthXv6hKU30w53Myp1H2k_U7BJB3ZyEzZPNpf8gTqxhD_JvwJ2dw5jpyxFRSElWM4gZvWHIUW
––-END XLD SIGNATURE––-