Subcategories

The Rolling Stones - Flip The Switch (1997)

Posted By: v3122
The Rolling Stones - Flip The Switch (1997)

The Rolling Stones - Flip The Switch (1997)
EAC | Flac(Image) + Cue + Log & MP3 CBR 320Kbps
Virgin DPRO-12784 | USA | ~ 59 or 18 Mb | Scans(jpg) -> 1.79 Mb
Classic Rock / Blues Rock

~ 4 Tracks CD, Single, Promo, Stereo ~

The Rolling Stones - Flip The Switch (1997)


The Rolling Stones - Flip The Switch (1997):

The Rolling Stones - Flip The Switch (1997)

Tracklist:

1. Flip The Switch (Album Version) (3:28)
2. Flip The Switch (Clean Version) (3:28)
3. Flip The Switch (Call Out Hook #1) (0:14)
4. Flip The Switch (Call Out Hook #2) (0:14)

Exact Audio Copy V1.0 beta 3 from 29. August 2011

Отчёт EAC об извлечении, выполненном 19. июня 2017, 22:10

The Rolling Stones / Flip The Switch (Promo)

Дисковод: ATAPI iHES108 2 Adapter: 3 ID: 1

Режим чтения : Достоверность
Использование точного потока : Да
Отключение кэша аудио : Да
Использование указателей C2 : Нет

Коррекция смещения при чтении : 6
Способность читать области Lead-in и Lead-out : Нет
Заполнение пропущенных сэмплов тишиной : Да
Удаление блоков с тишиной в начале и конце : Нет
При вычислениях CRC использовались нулевые сэмплы : Да
Интерфейс : Встроенный Win32-интерфейс для Win NT/2000

Выходной формат : Пользовательский кодировщик
Выбранный битрейт : 1024 kBit/s
Качество : Высокий
Добавление ID3-тега : Нет
Утилита сжатия : C:\Program Files\Exact Audio Copy\Flac\flac.exe
Дополнительные параметры : -V -8 -T "Date=%year%" -T "Genre=%genre%" %source%


TOC извлечённого CD

Трек | Старт | Длительность | Начальный сектор | Конечный сектор
––––––––––––––––––––––––––––––––––-
1 | 0:00.00 | 3:28.22 | 0 | 15621
2 | 3:28.22 | 3:28.38 | 15622 | 31259
3 | 6:56.60 | 0:14.02 | 31260 | 32311
4 | 7:10.62 | 0:13.73 | 32312 | 33359


Характеристики диапазона извлечения и сообщения об ошибках

Выбранный диапазон

Имя файла D:\EAC-FOLDER\The Rolling Stones - Flip The Switch (Promo)\The Rolling Stones - Flip The Switch (Promo)\The Rolling Stones - Flip The Switch (Promo).wav

Пиковый уровень 98.8 %
Скорость извлечения 4.4 X
Качество диапазона 100.0 %
CRC теста 8F987032
CRC копии 8F987032
Копирование… OK

Ошибок не произошло


AccurateRip: сводка

Трек 1 : извлечено точно (доверие 1) [7263CE66] (AR v2)
Трек 2 : извлечено точно (доверие 1) [84446797] (AR v2)
Трек 3 : извлечено точно (доверие 1) [E596A29A] (AR v2)
Трек 4 : извлечено точно (доверие 1) [D5C3A1FA] (AR v2)

Все треки извлечены точно

Конец отчёта

==== Контрольная сумма отчёта 39E1B3C429859FD9047B81FF0A9C3FB8725581D6DF69DFAC60B2FFB59825EA12 ====


The Rolling Stones - Flip The Switch (1997)

All thanks go to jlhjlh

The Rolling Stones or The Rolling Stones in my Blog

Download The Rolling Stones - Flip The Switch (1997):