The Rolling Stones - Les Années Stones (1990)

Posted By: v3122
The Rolling Stones - Les Années Stones (1990)

The Rolling Stones - Les Années Stones (1990)
EAC | Flac(Image) + Cue + Log & MP3 CBR 320Kbps
London, 7051 | ~ 185 or 73 Mb | Scans(jpg) -> 6.66 Mb
Classic Rock / Blues Rock

~ French only promo in card sleeve ~

The Rolling Stones - Les Années Stones (1990)


The Rolling Stones - Les Années Stones (1990):

The Rolling Stones - Les Années Stones (1990)

Tracklist:

1. (I Can't Get No) Satisfaction (3:43)
2. As Tears Go By (2:43)
3. Paint It Black (3:19)
4. Let's Spend The Night Together (3:37)
5. Jumpin' Jack Flash (3:40)
6. Sympathy For The Devil (6:25)
7. Honky Tonk Women (3:03)
8. Brown Sugar (3:49)

Exact Audio Copy V1.3 from 2. September 2016

EAC extraction logfile from 16. June 2017, 13:13

The Rolling Stones / Les Annees Stones

Used drive : HL-DT-STDVD+-RW GH50N Adapter: 1 ID: 0

Read mode : Secure
Utilize accurate stream : Yes
Defeat audio cache : Yes
Make use of C2 pointers : No

Read offset correction : 667
Overread into Lead-In and Lead-Out : No
Fill up missing offset samples with silence : Yes
Delete leading and trailing silent blocks : No
Null samples used in CRC calculations : Yes
Used interface : Native Win32 interface for Win NT & 2000

Used output format : User Defined Encoder
Selected bitrate : 768 kBit/s
Quality : High
Add ID3 tag : No
Command line compressor : C:\Program Files (x86)\Exact Audio Copy\FLAC\FLAC.EXE
Additional command line options : -V -8 -T "Date=%year%" -T "Genre=%genre%" %source%


TOC of the extracted CD

Track | Start | Length | Start sector | End sector
––––––––––––––––––––––––––––-
1 | 0:00.33 | 3:44.32 | 33 | 16864
2 | 3:44.65 | 2:44.43 | 16865 | 29207
3 | 6:29.33 | 3:21.07 | 29208 | 44289
4 | 9:50.40 | 3:38.60 | 44290 | 60699
5 | 13:29.25 | 3:42.03 | 60700 | 77352
6 | 17:11.28 | 6:26.45 | 77353 | 106347
7 | 23:37.73 | 3:04.02 | 106348 | 120149
8 | 26:42.00 | 3:49.18 | 120150 | 137342


Range status and errors

Selected range

Filename C:\222\London\1990 - Les Annees Stones (Promo)\The Rolling Stones - Les Annees Stones.wav

Peak level 100.0 %
Extraction speed 2.7 X
Range quality 100.0 %
Test CRC 9E459D91
Copy CRC 9E459D91
Copy OK

No errors occurred


AccurateRip summary

Track 1 accurately ripped (confidence 1) [5CCB0568] (AR v2)
Track 2 accurately ripped (confidence 1) [1AFD5273] (AR v2)
Track 3 accurately ripped (confidence 1) [D32BF5D7] (AR v2)
Track 4 accurately ripped (confidence 1) [CE7DB3CD] (AR v2)
Track 5 accurately ripped (confidence 1) [F3F7E696] (AR v2)
Track 6 accurately ripped (confidence 1) [D70639CC] (AR v2)
Track 7 accurately ripped (confidence 1) [4FF4687B] (AR v2)
Track 8 accurately ripped (confidence 1) [A4B545FD] (AR v2)

All tracks accurately ripped

End of status report

–– CUETools DB Plugin V2.1.6

[CTDB TOCID: 5Xafw8G_yP4xV7sk0c_fQrXW0r8-] disk not present in database
Submit result: The request was aborted: The request was canceled.


==== Log checksum 729A692F0775B6D8F752E2568EA2BFCD67F93BACB482B0446B6510EFCB6BC899 ====


[CUETools log; Date: 01.10.2017 22:50:04; Version: 2.1.5]
Pregap length 00:00:33.
[CTDB TOCID: 5Xafw8G_yP4xV7sk0c_fQrXW0r8-] disk not present in database.
[AccurateRip ID: 000909a2-003d27d0-54072708] found.
Track [ CRC | V2 ] Status
01 [dd4befbb|5ccb0568] (0+1/1) Accurately ripped
02 [5b84335e|1afd5273] (0+1/1) Accurately ripped
03 [31ac6774|d32bf5d7] (0+1/1) Accurately ripped
04 [0472acb0|ce7db3cd] (0+1/1) Accurately ripped
05 [e968de15|f3f7e696] (0+1/1) Accurately ripped
06 [4484f947|d70639cc] (0+1/1) Accurately ripped
07 [7872a21a|4ff4687b] (0+1/1) Accurately ripped
08 [e59241b6|a4b545fd] (0+1/1) Accurately ripped

Track Peak [ CRC32 ] [W/O NULL] [ LOG ]
– 100,0 [9E459D91] [BA828B6B] CRC32
01 100,0 [510975E9] [E1B8EA39]
02 63,7 [D2DB3BDD] [3E07AA9F]
03 99,2 [5AC27464] [630C137F]
04 100,0 [069551BA] [965B1839]
05 92,4 [92FA050F] [85A37989]
06 65,6 [1A80F9C6] [5D3ACEB2]
07 73,3 [73C95E82] [E2EA323B]
08 76,4 [AF033227] [474B8DBD]


The Rolling Stones - Les Années Stones (1990)

All thanks go to Ironbelly

The Rolling Stones or The Rolling Stones in my Blog

Download The Rolling Stones - Les Années Stones (1990):