Subcategories

The Rolling Stones - Like A Rolling Stone (1995)

Posted By: v3122
The Rolling Stones - Like A Rolling Stone (1995)

The Rolling Stones - Like A Rolling Stone (1995)
EAC | Flac(Image) + Cue + Log & MP3 CBR 320Kbps
Virgin VSCDT 1562 | Holland | ~ 133 or 43 Mb | Scans(jpg) -> 8.28 Mb
Classic Rock / Blues Rock | Single, Promo

The Rolling Stones - Like A Rolling Stone (1995)


The Rolling Stones - Like A Rolling Stone (1995):

The Rolling Stones - Like A Rolling Stone (1995)

Tracklist:

1. Like A Rolling Stone (Album Version) (5:37)
2. Black Limousine (3:30)
3. All Down The Line (4:23)
4. Like A Rolling Stone (Edit) (4:20)

Exact Audio Copy V1.0 beta 3 from 29. August 2011

EAC extraction logfile from 29. April 2013, 12:52

The Rolling Stones / Like A Rolling Stone [VSCDT 1562]

Used drive : HL-DT-STDVD+-RW GH50N Adapter: 0 ID: 1

Read mode : Secure
Utilize accurate stream : Yes
Defeat audio cache : Yes
Make use of C2 pointers : No

Read offset correction : 667
Overread into Lead-In and Lead-Out : No
Fill up missing offset samples with silence : Yes
Delete leading and trailing silent blocks : No
Null samples used in CRC calculations : Yes
Used interface : Native Win32 interface for Win NT & 2000

Used output format : User Defined Encoder
Selected bitrate : 768 kBit/s
Quality : High
Add ID3 tag : No
Command line compressor : C:\Program Files (x86)\Exact Audio Copy\FLAC\FLAC.EXE
Additional command line options : -V -8 -T "Date=%year%" -T "Genre=%genre%" %source%


TOC of the extracted CD

Track | Start | Length | Start sector | End sector
––––––––––––––––––––––––––––-
1 | 0:00.00 | 5:37.05 | 0 | 25279
2 | 5:37.05 | 3:30.00 | 25280 | 41029
3 | 9:07.05 | 4:23.17 | 41030 | 60771
4 | 13:30.22 | 4:20.28 | 60772 | 80299


Range status and errors

Selected range

Filename C:\222\RUTRA1\Singles\1995 - Like A Rolling Stone [VSCDT 1562]\The Rolling Stones - Like A Rolling Stone [VSCDT 1562].wav

Peak level 98.5 %
Extraction speed 2.5 X
Range quality 100.0 %
Test CRC 1375E2D1
Copy CRC 1375E2D1
Copy OK

No errors occurred


AccurateRip summary

Track 1 accurately ripped (confidence 10) [75C82961] (AR v1)
Track 2 accurately ripped (confidence 13) [9A5CCAF4] (AR v1)
Track 3 accurately ripped (confidence 12) [789B4E32] (AR v1)
Track 4 accurately ripped (confidence 12) [C4A2C2EB] (AR v1)

All tracks accurately ripped

End of status report

==== Log checksum C0D36A546FC7AB4418265A02B6EFB310F5224C48F80675E9274CD8D9D62CD04E ====


The Rolling Stones - Like A Rolling Stone (1995)

All thanks go to Ironbelly

The Rolling Stones or The Rolling Stones in my Blog

Download The Rolling Stones - Like A Rolling Stone (1995):