Subcategories

The Rolling Stones - The Rolling Stones (1984) [MFSL, 11LP Box Set, Vinyl Rip 16/44 & mp3-320 + 3xDVD]

Posted By: v3122
The Rolling Stones - The Rolling Stones (1984) [MFSL, 11LP Box Set, Vinyl Rip 16/44 & mp3-320 + 3xDVD]

The Rolling Stones - The Rolling Stones (1984)
Vinyl Rip 16/44 | Flac(Image + Cue) > 2324 Mb
MP3 CBR 320Kbps > 1070 Mb | Artwork(jpg) > 236 Mb
2xDVD9+DVD5: NTSC 4:3 (720x480) VBR | LPCM, 2 ch, 24 bit, 96 kHz > 16.71 Gb
Mobile Fidelity Sound Lab – RC-1 (MFSL 1-161 - MFSL 2-170)
Pop Rock, Country Rock, Psychedelic Rock, Rock & Roll, Blues Rock, Rhythm & Blues

11 Classic Stones LP's pressed on "JVC Super Vinyl" for optimum sound. Housed in a gorgeous hard box with The Rolling Stones engraved in red and a nice ball-lock to close it up when not in use. Includes large full color book with 3-D cover and all artwork from the LP's and more. All LP's house in thick individual red sleeves with thick inner sleeves. Nice felt bottom so it stays firm and does not scratch any surface. Also includes "Geo-Disc", a precision cartridge alignment system in excellent shape and housed in custom sleeve in box. Still after all these years,THE final word on Rolling Stones Audiophile pressings. Includes these classic albums: The Rolling Stones, 12 x 5, Out Of Our Heads, Aftermath, Between The Buttons, Their Satanic Majesties Request, Beggars Banquet, Let It Bleed and Get Yer Ya's Ya's OutHot Rocks (2 LP's). The original master Rolling Stones tapes, from which the music in THE ROLLING STONES collection was transferred, were meticulously tracked-down by Mobile Fidelity Sound Lab in both England and America. Altogether, more than 60 boxes of recording tapes were examined and auditioned, until the genuine original masters were discovered. The first three albums ("The Rolling Stones", "12x5", and "Out Of Our Heads") were originally recorded in the mono format, while the next six albums were recorded in true stereo. (next it talks about "Hot Rocks" being a compilation of mono and stereo tracks that they "transferred from the original master tapes…carefully spliced together by MFSL's engineers.") We exclusively utilized the original (British) Decca master recording tapes, except for "12x5" and "Out Of Our Heads", which were originally recorded in America and first released by London Records.

~ amazon
The Rolling Stones - The Rolling Stones (1984):

The Rolling Stones - The Rolling Stones (1984) [MFSL, 11LP Box Set, Vinyl Rip 16/44 & mp3-320 + 3xDVD]

Tracklist LP01 - 1964 - The Rolling Stones (mono):

A1 Route 66
A2 I Just Want To Make Love To You
A3 Honest I Do
A4 I Need You Baby
A5 Now I've Got A Witness
A6 Little By Little

B1 I'm A King Bee
B2 Carol
B3 Tell Me (You're Coming Back)
B4 Can I Get A Witness
B5 You Can Make It If You Try
B6 Walking The Dog

foobar2000 1.4 / Dynamic Range Meter 1.1.1
log date: 2018-12-03 05:40:15

––––––––––––––––––––––––––––––––––––––––
Analyzed: The Rolling Stones / The Rolling Stones
––––––––––––––––––––––––––––––––––––––––

DR Peak RMS Duration Track
––––––––––––––––––––––––––––––––––––––––
DR12 -1.27 dB -14.50 dB 2:23 01-A1 Route 66
DR11 -1.49 dB -15.14 dB 2:19 02-A2 I Just Want To Make Love To You
DR12 -3.02 dB -17.38 dB 2:11 03-A3 Honest I Do
DR12 -2.54 dB -15.40 dB 3:36 04-A4 Mona (I Need You Baby)
DR11 -2.60 dB -14.90 dB 2:32 05-A5 Now I've Got A Witness (Like Uncle Phil and Uncle Gene)
DR12 -2.65 dB -16.46 dB 2:41 06-A6 Little By Little
DR12 -2.13 dB -16.32 dB 2:38 07-B1 I'm A King Bee
DR12 -1.96 dB -15.47 dB 2:36 08-B2 Carol
DR12 -1.26 dB -16.07 dB 4:08 09-B3 Tell Me (You're Coming Back)
DR11 -2.16 dB -14.97 dB 2:58 10-B4 Can I Get A Witness
DR12 -2.21 dB -16.81 dB 2:03 11-B5 You Can Make It If You Try
DR11 -2.56 dB -15.92 dB 3:11 12-B6 Walking The Dog
––––––––––––––––––––––––––––––––––––––––

Number of tracks: 12
Official DR value: DR12

Samplerate: 44100 Hz
Channels: 2
Bits per sample: 16
Bitrate: 426 kbps
Codec: FLAC
================================================================================



The Rolling Stones - The Rolling Stones (1984) [MFSL, 11LP Box Set, Vinyl Rip 16/44 & mp3-320 + 3xDVD]

Tracklist LP02 - 1964 - 12 x 5 (mono):

A1 Around And Around
A2 Confessin' The Blues
A3 Empty Heart
A4 Time Is On My Side
A5 Good Times, Bad Times
A6 It's All Over Now

B1 2120 South Michigan Avenue
B2 Under The Boardwalk
B3 Congratulations
B4 Grown Up Wrong
B5 If You Need Me
B6 Susie Q

foobar2000 1.4 / Dynamic Range Meter 1.1.1
log date: 2018-12-03 05:40:30

––––––––––––––––––––––––––––––––––––––––
Analyzed: The Rolling Stones / 12 x 5
––––––––––––––––––––––––––––––––––––––––

DR Peak RMS Duration Track
––––––––––––––––––––––––––––––––––––––––
DR11 -0.94 dB -13.47 dB 3:09 01-A1 Around And Around
DR11 -0.89 dB -14.10 dB 2:52 02-A2 Confessin' The Blues
DR9 -1.69 dB -13.28 dB 2:40 03-A3 Empty Heart
DR11 -2.10 dB -15.11 dB 2:55 04-A4 Time Is On My Side
DR13 -2.36 dB -18.05 dB 2:36 05-A5 Good Times, Bad Times
DR11 -0.27 dB -13.24 dB 3:29 06-A6 It's All Over Now
DR10 -0.87 dB -13.04 dB 2:11 07-B1 2120 South Michigan Avenue
DR10 -2.07 dB -14.64 dB 2:49 08-B2 Under The Boardwalk
DR11 -0.58 dB -14.05 dB 2:31 09-B3 Congratulations
DR11 -1.27 dB -14.81 dB 2:08 10-B4 Grown Up Wrong
DR9 -1.55 dB -12.62 dB 2:07 11-B5 If You Need Me
DR11 -1.64 dB -14.13 dB 1:51 12-B6 Susie Q
––––––––––––––––––––––––––––––––––––––––

Number of tracks: 12
Official DR value: DR11

Samplerate: 44100 Hz
Channels: 2
Bits per sample: 16
Bitrate: 409 kbps
Codec: FLAC
================================================================================



The Rolling Stones - The Rolling Stones (1984) [MFSL, 11LP Box Set, Vinyl Rip 16/44 & mp3-320 + 3xDVD]

Tracklist LP03 - 1965 - Out Of Our Heads (mono) US Edition:

A1 Mercy Mercy
A2 Hitch Hike
A3 The Last Time
A4 That's How Strong My Love Is
A5 Good Times
A6 I'm All Right

B1 Satisfaction
B2 Cry To Me
B3 The Under Assistant West Coast Promotion Man
B4 Play With Fire
B5 The Spider And The Fly
B6 One More Try

foobar2000 1.4 / Dynamic Range Meter 1.1.1
log date: 2018-12-03 05:40:43

––––––––––––––––––––––––––––––––––––––––
Analyzed: The Rolling Stones / Out Of Our Heads (US Version)
––––––––––––––––––––––––––––––––––––––––

DR Peak RMS Duration Track
––––––––––––––––––––––––––––––––––––––––
DR12 -3.38 dB -17.19 dB 2:49 01-A1 Mercy Mercy
DR12 -1.45 dB -14.45 dB 2:27 02-A2 Hitch Hike
DR10 -1.83 dB -14.46 dB 3:44 03-A3 The Last Time
DR12 -3.76 dB -17.73 dB 2:27 04-A4 That's How Strong My Love Is
DR11 -3.29 dB -15.21 dB 2:01 05-A5 Good Times
DR10 -3.93 dB -15.92 dB 2:25 06-A6 I'm All Right
DR12 -1.98 dB -15.59 dB 3:47 07-B1 Satisfaction (I Can't Get No)
DR11 -3.10 dB -16.40 dB 3:11 08-B2 Cry To Me
DR12 -4.30 dB -17.72 dB 3:11 09-B3 The Under Assistant West Coast Promotion Man
DR11 -3.93 dB -17.75 dB 2:18 10-B4 Play With Fire
DR13 -4.41 dB -18.60 dB 3:41 11-B5 The Spider And The Fly
DR12 -4.76 dB -18.04 dB 2:02 12-B6 One More Try
––––––––––––––––––––––––––––––––––––––––

Number of tracks: 12
Official DR value: DR11

Samplerate: 44100 Hz
Channels: 2
Bits per sample: 16
Bitrate: 411 kbps
Codec: FLAC
================================================================================



The Rolling Stones - The Rolling Stones (1984) [MFSL, 11LP Box Set, Vinyl Rip 16/44 & mp3-320 + 3xDVD]

Tracklist LP04 - 1966 - Aftermath (UK Edition):

A1 Mother's Little Helper
A2 Stupid Girl
A3 Lady Jane
A4 Under My Thumb
A5 Doncha Bother Me
A6 Goin' Home

B1 Flight 505
B2 High And Dry
B3 Out Of Time
B4 It's Not Easy
B5 I Am Waiting
B6 Take It Or Leave It
B7 Think
B8 What To Do

foobar2000 1.4 / Dynamic Range Meter 1.1.1
log date: 2018-12-03 05:41:06

––––––––––––––––––––––––––––––––––––––––
Analyzed: The Rolling Stones / Aftermath (UK Version)
––––––––––––––––––––––––––––––––––––––––

DR Peak RMS Duration Track
––––––––––––––––––––––––––––––––––––––––
DR12 -1.23 dB -16.06 dB 2:50 01-A1 Mother's Little Helper
DR14 -1.85 dB -17.82 dB 2:58 02-A2 Stupid Girl
DR14 -4.93 dB -24.34 dB 3:10 03-A3 Lady Jane
DR14 -2.25 dB -20.00 dB 3:44 04-A4 Under My Thumb
DR13 -2.09 dB -19.07 dB 2:43 05-A5 Doncha Bother Me
DR14 -0.47 dB -19.10 dB 11:17 06-A6 Goin' Home
DR14 -0.29 dB -17.15 dB 3:30 07-B1 Flight 505
DR13 -4.70 dB -21.00 dB 3:10 08-B2 High And Dry
DR13 -1.71 dB -19.12 dB 5:40 09-B3 Out Of Time
DR14 -1.73 dB -18.18 dB 2:58 10-B4 It's Not Easy
DR15 -1.53 dB -22.72 dB 3:13 11-B5 I Am Waiting
DR14 -4.97 dB -22.34 dB 2:49 12-B6 Take It Or Leave It
DR13 -3.91 dB -20.78 dB 3:11 13-B7 Think
DR14 -2.36 dB -18.30 dB 2:35 14-What to Do
––––––––––––––––––––––––––––––––––––––––

Number of tracks: 14
Official DR value: DR14

Samplerate: 44100 Hz
Channels: 2
Bits per sample: 16
Bitrate: 733 kbps
Codec: FLAC
================================================================================



The Rolling Stones - The Rolling Stones (1984) [MFSL, 11LP Box Set, Vinyl Rip 16/44 & mp3-320 + 3xDVD]

Tracklist LP05 - 1967 - Between The Buttons (UK edition):

A1 Yesterday's Papers
A2 My Obsession
A3 Back Street Girl
A4 Connection
A5 She Smiled Sweetly
A6 Cool, Calm And Collected

B1 All Sold Out
B2 Please Go Home
B3 Who's Been Sleeping Here?
B4 Complicated
B5 Miss Amanda Jones
B6 Something Happened To Me Yesterday

foobar2000 1.4 / Dynamic Range Meter 1.1.1
log date: 2018-12-03 05:41:28

––––––––––––––––––––––––––––––––––––––––
Analyzed: The Rolling Stones / Between The Buttons
––––––––––––––––––––––––––––––––––––––––

DR Peak RMS Duration Track
––––––––––––––––––––––––––––––––––––––––
DR11 -0.28 dB -15.18 dB 2:07 01-A1 Yesterday's Papers
DR12 -1.75 dB -16.96 dB 3:18 02-A2 My Obsession
DR12 -4.63 dB -20.29 dB 3:26 03-A3 Back Street Girl
DR15 -0.67 dB -20.22 dB 2:09 04-A4 Connection
DR11 -3.40 dB -18.05 dB 2:44 05-A5 She Smiled Sweetly
DR12 -2.66 dB -16.52 dB 4:15 06-A6 Cool, Calm And Collected
DR13 -0.30 dB -16.98 dB 2:17 07-B1 All Sold Out
DR12 -2.40 dB -15.78 dB 3:18 08-B2 Please Go Home
DR12 -1.97 dB -16.42 dB 3:52 09-B3 Who's Been Sleeping Here?
DR14 -0.97 dB -17.64 dB 3:12 10-B4 Complicated
DR11 -1.96 dB -16.13 dB 2:44 11-B5 Miss Amanda Jones
DR12 -0.64 dB -16.54 dB 4:56 12-B6 Something Happened To Me Yesterday
––––––––––––––––––––––––––––––––––––––––

Number of tracks: 12
Official DR value: DR12

Samplerate: 44100 Hz
Channels: 2
Bits per sample: 16
Bitrate: 770 kbps
Codec: FLAC
================================================================================



The Rolling Stones - The Rolling Stones (1984) [MFSL, 11LP Box Set, Vinyl Rip 16/44 & mp3-320 + 3xDVD]

Tracklist LP06 - 1967 - Their Satanic Majesties Request:

A1 Sing This All Together
A2 Citadel
A3 In Another Land
A4 2,000 Man
A5 Sing This All Together (See What Happens)

B1 She's A Rainbow
B2 The Lantern
B3 Gomper
B4 2,000 Light Years From Home
B5 On With The Show

foobar2000 1.4 / Dynamic Range Meter 1.1.1
log date: 2018-12-03 05:41:56

––––––––––––––––––––––––––––––––––––––––
Analyzed: The Rolling Stones / Their Satanic Majesties Request
––––––––––––––––––––––––––––––––––––––––

DR Peak RMS Duration Track
––––––––––––––––––––––––––––––––––––––––
DR13 -2.37 dB -18.77 dB 3:48 01-A1 Sing This All Together
DR12 -0.31 dB -15.32 dB 2:53 02-A2 Citadel
DR13 -1.16 dB -18.59 dB 3:16 03-A3 In Another Land
DR11 -0.33 dB -14.00 dB 3:08 04-A4 2,000 Man
DR14 -0.58 dB -18.40 dB 8:38 05-A5 Sing This All Together (See What Happens)
DR12 -0.98 dB -17.16 dB 4:36 06-B1 She's A Rainbow
DR14 -0.26 dB -19.29 dB 4:26 07-B2 The Lantern
DR12 -1.72 dB -16.35 dB 5:09 08-B3 Gomper
DR13 -3.38 dB -20.81 dB 4:47 09-B4 2,000 Light Years From Home
DR12 -0.76 dB -17.40 dB 3:41 10-B5 On With The Show
––––––––––––––––––––––––––––––––––––––––

Number of tracks: 10
Official DR value: DR13

Samplerate: 44100 Hz
Channels: 2
Bits per sample: 16
Bitrate: 753 kbps
Codec: FLAC
================================================================================



The Rolling Stones - The Rolling Stones (1984) [MFSL, 11LP Box Set, Vinyl Rip 16/44 & mp3-320 + 3xDVD]

Tracklist LP07 - 1968 - Beggars Banquet:

A1 Sympathy For The Devil
A2 No Expectations
A3 Dear Doctor
A4 Parachute Woman
A5 Jig-Saw Puzzle

B1 Street Fighting Man
B2 Prodigal Son
B3 Stray Cat Blues
B4 Factory Girl
B5 Salt Of The Earth

foobar2000 1.4 / Dynamic Range Meter 1.1.1
log date: 2018-12-03 05:42:17

––––––––––––––––––––––––––––––––––––––––
Analyzed: The Rolling Stones / Beggar's Banquet
––––––––––––––––––––––––––––––––––––––––

DR Peak RMS Duration Track
––––––––––––––––––––––––––––––––––––––––
DR10 -0.90 dB -12.76 dB 6:28 01-A1 Sympathy For The Devil
DR11 -2.44 dB -15.99 dB 4:04 02-A2 No Expectations
DR11 -0.50 dB -13.64 dB 3:29 03-A3 Dear Doctor
DR9 -2.68 dB -14.44 dB 2:26 04-A4 Parachute Woman
DR10 -1.66 dB -13.64 dB 6:19 05-A5 Jig-Saw Puzzle
DR11 -0.70 dB -12.99 dB 3:21 06-B1 Street Fighting Man
DR11 -1.54 dB -14.90 dB 2:56 07-B2 Prodigal Son
DR10 -1.15 dB -14.12 dB 4:42 08-B3 Stray Cat Blues
DR11 -1.99 dB -16.00 dB 2:14 09-B4 Factory Girl
DR10 -0.53 dB -14.33 dB 4:55 10-B5 Salt Of The Earth
––––––––––––––––––––––––––––––––––––––––

Number of tracks: 10
Official DR value: DR11

Samplerate: 44100 Hz
Channels: 2
Bits per sample: 16
Bitrate: 865 kbps
Codec: FLAC
================================================================================



The Rolling Stones - The Rolling Stones (1984) [MFSL, 11LP Box Set, Vinyl Rip 16/44 & mp3-320 + 3xDVD]

Tracklist LP08 - 1969 - Let It Bleed:

A1 Gimme Shelter
A2 Love In Vain
A3 Country Honk
A4 Live With Me
A5 Let It Bleed

B1 Midnight Rambler
B2 You Got The Silver
B3 Monkey Man
B4 You Can't Always Get What You Want

foobar2000 1.4 / Dynamic Range Meter 1.1.1
log date: 2018-12-03 05:42:43

––––––––––––––––––––––––––––––––––––––––
Analyzed: The Rolling Stones / Let It Bleed
––––––––––––––––––––––––––––––––––––––––

DR Peak RMS Duration Track
––––––––––––––––––––––––––––––––––––––––
DR11 -2.20 dB -15.48 dB 4:36 01-A1 Gimme Shelter
DR12 -4.27 dB -19.10 dB 4:23 02-A2 Love In Vain
DR13 -1.39 dB -16.81 dB 3:11 03-A3 Country Honk
DR13 -0.55 dB -15.92 dB 3:37 04-A4 Live With Me
DR11 -0.96 dB -14.83 dB 5:32 05-A5 Let It Bleed
DR12 -2.36 dB -16.84 dB 6:58 06-B1 Midnight Rambler
DR12 -2.03 dB -18.68 dB 2:55 07-B2 You Got The Silver
DR12 -0.91 dB -15.45 dB 4:16 08-B3 Monkey Man
DR12 -0.27 dB -15.65 dB 7:32 09-B4 You Can't Always Get What You Want
––––––––––––––––––––––––––––––––––––––––

Number of tracks: 9
Official DR value: DR12

Samplerate: 44100 Hz
Channels: 2
Bits per sample: 16
Bitrate: 805 kbps
Codec: FLAC
================================================================================



The Rolling Stones - The Rolling Stones (1984) [MFSL, 11LP Box Set, Vinyl Rip 16/44 & mp3-320 + 3xDVD]

Tracklist LP09 - 1970 - Get Yer Ya-Ya’s Out:

A1 Jumpin' Jack Flash
A2 Carol
A3 Stray Cat Blues
A4 Love In Vain
A5 Midnight Rambler

B1 Sympathy For The Devil
B2 Live With Me
B3 Little Queenie
B4 Honky Tonk Woman
B5 Street Fighting Man

foobar2000 1.4 / Dynamic Range Meter 1.1.1
log date: 2018-12-03 05:43:07

––––––––––––––––––––––––––––––––––––––––
Analyzed: The Rolling Stones / Get Yer Ya-Ya`s Out
––––––––––––––––––––––––––––––––––––––––

DR Peak RMS Duration Track
––––––––––––––––––––––––––––––––––––––––
DR13 -2.41 dB -17.69 dB 4:03 01-A1 Jumpin' Jack Flash
DR14 -0.24 dB -16.58 dB 3:48 02-A2 Carol
DR13 -2.47 dB -17.75 dB 3:47 03-A3 Stray Cat Blues
DR13 -3.11 dB -20.17 dB 5:15 04-A4 Love In Vain
DR15 -0.64 dB -17.91 dB 8:49 05-A5 Midnight Rambler
DR13 -0.31 dB -17.29 dB 7:00 06-B1 Sympathy For The Devil
DR13 -1.52 dB -16.33 dB 3:08 07-B2 Live With Me
DR13 -1.09 dB -16.20 dB 4:29 08-B3 Little Queenie
DR13 -1.59 dB -17.39 dB 3:33 09-B4 Honky Tonk Woman
DR12 -0.89 dB -15.21 dB 4:05 10-B5 Street Fighting Man
––––––––––––––––––––––––––––––––––––––––

Number of tracks: 10
Official DR value: DR13

Samplerate: 44100 Hz
Channels: 2
Bits per sample: 16
Bitrate: 806 kbps
Codec: FLAC
================================================================================



The Rolling Stones - The Rolling Stones (1984) [MFSL, 11LP Box Set, Vinyl Rip 16/44 & mp3-320 + 3xDVD]

Tracklist LP10-11 - 1971 - Hot Rocks:

A1 Time Is On My Side
A2 Heart Of Stone
A3 Play With Fire
A4 (I Can't Get No) Satisfaction
A5 As Tears Go By
A6 Get Off My Cloud

B1 Mother's Little Helper
B2 19Th Nervous Breakdown
B3 Paint It, Black
B4 Under My Thumb
B5 Ruby Tuesday
B6 Let's Spend The Night Together

C1 Jumping Jack Flash
C2 Street Fighting Man
C3 Sympathy For The Devil
C4 Honky Tonk Woman
C5 Gimme Shelter

D1 Midnight Rambler (Live)
D2 You Can't Always Get What You Want
D3 Brown Sugar
D4 Wild Horses

foobar2000 1.4 / Dynamic Range Meter 1.1.1
log date: 2018-12-03 05:43:44

––––––––––––––––––––––––––––––––––––––––
Analyzed: The Rolling Stones / Hot Rocks 1964-1971
––––––––––––––––––––––––––––––––––––––––

DR Peak RMS Duration Track
––––––––––––––––––––––––––––––––––––––––
DR13 -1.01 dB -17.62 dB 3:04 01-A1 Time Is On My Side
DR13 -0.56 dB -16.49 dB 2:50 02-A2 Heart Of Stone
DR11 -4.26 dB -18.83 dB 2:18 03-A3 Play With Fire
DR12 -1.50 dB -15.06 dB 3:47 04-A4 (I Can't Get No) Satisfaction
DR10 -4.49 dB -16.72 dB 2:47 05-A5 As Tears Go By
DR12 -3.27 dB -17.77 dB 3:00 06-A6 Get Off My Cloud
DR12 -1.64 dB -17.31 dB 2:49 07-B1 Mother's Little Helper
DR11 -2.12 dB -15.48 dB 4:00 08-B2 19Th Nervous Breakdown
DR12 -0.69 dB -15.12 dB 3:25 09-B3 Paint It, Black
DR14 -0.38 dB -18.19 dB 3:44 10-B4 Under My Thumb
DR11 -2.44 dB -16.00 dB 3:19 11-B5 Ruby Tuesday
DR12 -1.75 dB -14.91 dB 3:40 12-B6 Let's Spend The Night Together
DR11 -0.30 dB -14.31 dB 3:44 13-C1 Jumping Jack Flash
DR11 -2.53 dB -15.29 dB 3:20 14-C2 Street Fighting Man
DR10 -2.74 dB -15.23 dB 6:28 15-C3 Sympathy For The Devil
DR10 -2.14 dB -14.81 dB 3:07 16-C4 Honky Tonk Woman
DR11 -1.61 dB -14.91 dB 4:36 17-C5 Gimme Shelter
DR15 -0.50 dB -18.52 dB 9:16 18-D1 Midnight Rambler (Live)
DR11 -3.30 dB -17.82 dB 7:33 19-D2 You Can't Always Get What You Want
DR12 -2.53 dB -17.14 dB 3:52 20-D3 Brown Sugar
DR13 -2.78 dB -20.17 dB 5:45 21-D4 Wild Horses
––––––––––––––––––––––––––––––––––––––––

Number of tracks: 21
Official DR value: DR12

Samplerate: 44100 Hz
Channels: 2
Bits per sample: 16
Bitrate: 731 kbps
Codec: FLAC
================================================================================



Title: AudioDVD1
Size: 6.33 Gb ( 6 633 470,00 KBytes ) - DVD-9
Enabled regions: 1, 2, 3, 4, 5, 6, 7, 8

VTS_01 :
Play Length: 00:33:15+00:31:16+00:33:59+00:53:43+00:38:14
Video: NTSC 4:3 (720x480) VBR
Audio:
Not specified (LinearPCM, 2 ch)


Title: AudioDVD2
Size: 5.84 Gb ( 6 125 120,00 KBytes ) - DVD-9
Enabled regions: 1, 2, 3, 4, 5, 6, 7, 8

VTS_01 :
Play Length: 00:44:18+00:40:52+00:42:55+00:47:54
Video: NTSC 4:3 (720x480) VBR
Audio:
Not specified (LinearPCM, 2 ch)


Title: AudioDVD3
Size: 2.87 Gb ( 3 004 468,00 KBytes ) - DVD-5
Enabled regions: 1, 2, 3, 4, 5, 6, 7, 8

VTS_01 :
Play Length: 01:26:19
Video: NTSC 4:3 (720x480) VBR
Audio:
Not specified (LinearPCM, 2 ch)



Original ripper: Dr. Robert
Original format: 24/96
Vinyl Condition: Absolute Mint
Cleaning:
Direct Drive Turntable: VPI TNT Mark IV
Cartridge: Lyra Clavis Da Capo MC
Amplifier: Musical Surroundings Nova Phenomena Battery Powered Phono Preamp
ADC: Lavry AD11 external USB 2.0

Downsampled to 16/44

The Rolling Stones - The Rolling Stones (1984) [MFSL, 11LP Box Set, Vinyl Rip 16/44 & mp3-320 + 3xDVD]

The Rolling Stones - The Rolling Stones (1984) [MFSL, 11LP Box Set, Vinyl Rip 16/44 & mp3-320 + 3xDVD]

The Rolling Stones - The Rolling Stones (1984) [MFSL, 11LP Box Set, Vinyl Rip 16/44 & mp3-320 + 3xDVD]

The Rolling Stones or The Rolling Stones in my Blog

Download The Rolling Stones - The Rolling Stones (1984):