Subcategories
Tags
Language
Tags

The Rolling Stones - More Rolling Stones (1989)

Posted By: popsakov
The Rolling Stones - More Rolling Stones (1989)

The Rolling Stones - More Rolling Stones (1989)
EAC Rip | WavPack (Img) + Cue + Log ~ 269 Mb | MP3 CBR320 ~ 121 Mb
Full Scans | 00:43:26 | RAR 5% Recovery
Beat, Rock & Roll, Rhythm & Blues | BRS #BRS 84261 | Unofficial Release

By the time the Rolling Stones began calling themselves the World's Greatest Rock & Roll Band in the late '60s, they had already staked out an impressive claim on the title. As the self-consciously dangerous alternative to the bouncy Merseybeat of the Beatles in the British Invasion, the Stones had pioneered the gritty, hard-driving blues-based rock & roll that came to define hard rock. With his preening machismo and latent maliciousness, Mick Jagger became the prototypical rock frontman, tempering his macho showmanship with a detached, campy irony while Keith Richards and Brian Jones wrote the blueprint for sinewy, interlocking rhythm guitars. Backed by the strong yet subtly swinging rhythm section of bassist Bill Wyman and drummer Charlie Watts, the Stones became the breakout band of the British blues scene, eclipsing such contemporaries as the Animals and Them. Over the course of their career, the Stones never really abandoned blues, but as soon as they reached popularity in the U.K., they began experimenting musically, incorporating the British pop of contemporaries like the Beatles, the Kinks, and the Who into their sound. After a brief dalliance with psychedelia, the Stones re-emerged in the late '60s as a jaded, blues-soaked hard rock quintet. They had always flirted with the seedy side of rock & roll, but as the hippie dream began to break apart, they exposed and reveled in the new rock culture. It wasn't without difficulty, of course. Shortly after he was fired from the group, Jones was found dead in a swimming pool, while at a 1969 free concert at Altamont, a concertgoer was brutally killed during a Stones show. But the Stones never stopped going. For the next 50-plus years, they continued to record and perform, and while their records weren't always blockbusters, they were never less than the most visible band of their era – certainly, none of their British peers continued to be as popular or productive as the Stones. And no band since has proven to have such a broad fan base or such far-reaching popularity, and it is impossible to hear any of the groups that followed them without detecting some sort of influence, whether it was musical or aesthetic.

***************

The Rolling Stones - More Rolling Stones (1989)

The Rolling Stones - More Rolling Stones (1989)

Track List:

01. Come On [0:01:47.62]
02. I Wanna Be Your Man [0:01:43.48]
03. Not Fade Away [0:01:48.40]
04. Carol [0:02:31.02]
05. Mercy Mercy [0:02:45.33]
06. Hitch Hike [0:02:25.32]
07. That's How Strong My Love Is [0:02:25.43]
08. Can I Get A Witness [0:02:54.60]
09. Under My Thumb [0:03:41.32]
10. As Tears Go By [0:02:42.10]
11. Out of Time [0:05:33.38]
12. Poison Ivy [0:02:06.65]
13. Blue Turns to Grey [0:02:26.62]
14. One More Try [0:01:53.28]
15. Cry To Me [0:03:04.47]
16. The Spider And The Fly [0:03:34.70]

Exact Audio Copy V1.3 from 2. September 2016

EAC extraction logfile from 9. October 2018, 19:24

The Rolling Stones / More Rolling Stones

Used drive : PLEXTOR DVDR PX-L890SA Adapter: 1 ID: 1

Read mode : Secure
Utilize accurate stream : Yes
Defeat audio cache : Yes
Make use of C2 pointers : No

Read offset correction : 6
Overread into Lead-In and Lead-Out : No
Fill up missing offset samples with silence : Yes
Delete leading and trailing silent blocks : No
Null samples used in CRC calculations : Yes
Used interface : Native Win32 interface for Win NT & 2000

Used output format : User Defined Encoder
Selected bitrate : 1024 kBit/s
Quality : High
Add ID3 tag : No
Command line compressor : C:\Program Files (x86)\Exact Audio Copy\wavpack.exe
Additional command line options : -lm %source%


TOC of the extracted CD

Track | Start | Length | Start sector | End sector
––––––––––––––––––––––––––––-
1 | 0:00.00 | 1:47.62 | 0 | 8086
2 | 1:47.62 | 1:43.48 | 8087 | 15859
3 | 3:31.35 | 1:48.40 | 15860 | 23999
4 | 5:20.00 | 2:31.02 | 24000 | 35326
5 | 7:51.02 | 2:45.33 | 35327 | 47734
6 | 10:36.35 | 2:25.32 | 47735 | 58641
7 | 13:01.67 | 2:25.43 | 58642 | 69559
8 | 15:27.35 | 2:54.60 | 69560 | 82669
9 | 18:22.20 | 3:41.32 | 82670 | 99276
10 | 22:03.52 | 2:42.10 | 99277 | 111436
11 | 24:45.62 | 5:33.38 | 111437 | 136449
12 | 30:19.25 | 2:06.65 | 136450 | 145964
13 | 32:26.15 | 2:26.62 | 145965 | 156976
14 | 34:53.02 | 1:53.28 | 156977 | 165479
15 | 36:46.30 | 3:04.47 | 165480 | 179326
16 | 39:51.02 | 3:34.70 | 179327 | 195446


Range status and errors

Selected range

Filename D:\wwphil\The Rolling Stones - More Rolling Stones\The Rolling Stones - More Rolling Stones.wav

Peak level 89.4 %
Extraction speed 5.4 X
Range quality 100.0 %
Test CRC B9D973E8
Copy CRC B9D973E8
Copy OK

No errors occurred


AccurateRip summary

Track 1 accurately ripped (confidence 1) [BC3B78FC] (AR v2)
Track 2 accurately ripped (confidence 1) [DD62B786] (AR v2)
Track 3 accurately ripped (confidence 1) [BC5DCFA1] (AR v2)
Track 4 accurately ripped (confidence 1) [FEB40A07] (AR v2)
Track 5 accurately ripped (confidence 1) [A119A72F] (AR v2)
Track 6 accurately ripped (confidence 1) [9A67C86E] (AR v2)
Track 7 accurately ripped (confidence 1) [C5C325E3] (AR v2)
Track 8 accurately ripped (confidence 1) [6042649C] (AR v2)
Track 9 accurately ripped (confidence 1) [3BA1B77E] (AR v2)
Track 10 accurately ripped (confidence 1) [FF952BAA] (AR v2)
Track 11 accurately ripped (confidence 1) [9AE82EA9] (AR v2)
Track 12 accurately ripped (confidence 1) [433C252C] (AR v2)
Track 13 accurately ripped (confidence 1) [D43A6DBD] (AR v2)
Track 14 accurately ripped (confidence 1) [BC904A80] (AR v2)
Track 15 accurately ripped (confidence 1) [3C0C6038] (AR v2)
Track 16 accurately ripped (confidence 1) [E0709B4D] (AR v2)

All tracks accurately ripped

End of status report

–– CUETools DB Plugin V2.1.6

[CTDB TOCID: mzFhHBrC4a4chpsUy_q1gMVvVv8-] found
Submit result: already submitted
Track | CTDB Status
1 | (4/4) Accurately ripped
2 | (4/4) Accurately ripped
3 | (4/4) Accurately ripped
4 | (4/4) Accurately ripped
5 | (4/4) Accurately ripped
6 | (4/4) Accurately ripped
7 | (4/4) Accurately ripped
8 | (4/4) Accurately ripped
9 | (4/4) Accurately ripped
10 | (4/4) Accurately ripped
11 | (4/4) Accurately ripped
12 | (4/4) Accurately ripped
13 | (4/4) Accurately ripped
14 | (4/4) Accurately ripped
15 | (4/4) Accurately ripped
16 | (4/4) Accurately ripped


==== Log checksum D58662371DFA2D59B4F42F2816262EFB7E28EB7FDF09D13B70DAAE6C4657F5B7 ====

[CUETools log; Date: 12.10.2018 20:59:29; Version: 2.1.6]
[CTDB TOCID: mzFhHBrC4a4chpsUy_q1gMVvVv8-] found.
Track | CTDB Status
1 | (4/4) Accurately ripped
2 | (4/4) Accurately ripped
3 | (4/4) Accurately ripped
4 | (4/4) Accurately ripped
5 | (4/4) Accurately ripped
6 | (4/4) Accurately ripped
7 | (4/4) Accurately ripped
8 | (4/4) Accurately ripped
9 | (4/4) Accurately ripped
10 | (4/4) Accurately ripped
11 | (4/4) Accurately ripped
12 | (4/4) Accurately ripped
13 | (4/4) Accurately ripped
14 | (4/4) Accurately ripped
15 | (4/4) Accurately ripped
16 | (4/4) Accurately ripped
[AccurateRip ID: 00176151-01214abb-d20a2d10] found.
Track [ CRC | V2 ] Status
01 [b70d9db8|bc3b78fc] (1+1/2) Accurately ripped
02 [5511e12b|dd62b786] (1+1/2) Accurately ripped
03 [2013d353|bc5dcfa1] (1+1/2) Accurately ripped
04 [444b3fa5|feb40a07] (1+1/2) Accurately ripped
05 [a64d16dc|a119a72f] (1+1/2) Accurately ripped
06 [8d24cd4c|9a67c86e] (1+1/2) Accurately ripped
07 [f624b2e1|c5c325e3] (1+1/2) Accurately ripped
08 [a113b67f|6042649c] (1+1/2) Accurately ripped
09 [979d4870|3ba1b77e] (1+1/2) Accurately ripped
10 [4849c563|ff952baa] (1+1/2) Accurately ripped
11 [6c91982e|9ae82ea9] (1+1/2) Accurately ripped
12 [fe03da5a|433c252c] (1+1/2) Accurately ripped
13 [09f7d518|d43a6dbd] (1+1/2) Accurately ripped
14 [50124c11|bc904a80] (1+1/2) Accurately ripped
15 [cb9a4838|3c0c6038] (1+1/2) Accurately ripped
16 [02b1bbb8|e0709b4d] (1+1/2) Accurately ripped

Track Peak [ CRC32 ] [W/O NULL] [ LOG ]
– 89,4 [B9D973E8] [02F3FAE1] CRC32
01 77,8 [06F0C3AF] [52190405]
02 73,8 [6CB8A3D9] [259F712A]
03 78,6 [C77125B5] [0C781DF1]
04 75,8 [527DD1ED] [ACF2CC25]
05 71,5 [8F25AA67] [9E4D9495]
06 83,4 [A619BCBB] [21901DEF]
07 70,1 [CB13879E] [AB90E99F]
08 89,4 [5CDC7621] [E29C778A]
09 77,7 [8CDE85BE] [194D6AF3]
10 69,0 [E7C167DA] [87700E62]
11 70,3 [33532EB9] [775CA3F4]
12 70,8 [CCD1C341] [B32942CA]
13 85,2 [143390AB] [A68140FE]
14 77,9 [8C3D4CC8] [88B1A510]
15 79,4 [B816B4A9] [25CE2E01]
16 83,2 [8E574A71] [96756DB3]

The Rolling Stones - More Rolling Stones (1989)


All thanks go to wwphil

>>> The Rolling Stones in my Blog <<<

DOWNLOAD: