Subcategories
Tags
Language
Tags

The Rolling Stones - Steel Wheels (1989) [3 Releases]

Posted By: v3122
The Rolling Stones - Steel Wheels (1989) [3 Releases]

The Rolling Stones - Steel Wheels (1989)
EAC | Flac(Image) + Cue + Log & MP3 CBR 320Kbps
3CD | Label: various | ~ 1070 or 465 Mb | Artwork(jpg) -> 164 Mb
Blues Rock, Classic Rock, Rock & Roll

~ 1994 Holland Remaster, Virgin CDV 2742 + 2009 EU Remaster, Polydor 0602527015675 + 2015 Japan Remaster, Universal UICY-40162 ~

The Stones, or more accurately the relationship between Mick and Keith, imploded shortly after Dirty Work, resulting in Mick delivering a nearly unbearably mannered, ambitious solo effort that stiffed and Keith knocking out the greatest Stones album since Tattoo You, something that satisfied the cult but wasn't a hit. Clearly, they were worth more together than they were apart, so it was time for the reunion, and that's what Steel Wheels is – a self-styled reunion album. It often feels as if they sat down and decided exactly what their audience wanted from a Stones album, and they deliver a record that gives the people what they want, whether it's Tattoo You-styled rockers, ballads in the vein of "Fool to Cry," even a touch of old-fashioned experimentalism with "Continental Drift." Being professionals, in the business for over two and a half decades, and being a band that always favored calculation, they wear all this well, even if this lacks the vigor and menace that fuels the best singles; after all, the rocking singles ("Sad Sad Sad," "Rock and a Hard Place," "Mixed Emotions") wind up being smoked by such throwaways as "Hold on to Your Hat." Even though it's just 12 songs, the record feels a little long, largely due to its lack of surprises and unabashed calculation (the jams are slicked up so much they don't have the visceral power of the jam record, Black and Blue). Still, the Stones sound good, and Mick and Keith both get off a killer ballad apiece with "Almost Hear You Sigh" and "Slipping Away," respectively. It doesn't make for a great Stones album, but it's not bad, and it feels like a comeback – which it was supposed to, after all.

by Stephen Thomas Erlewine, allmusic
The Rolling Stones - Steel Wheels (1989):

The Rolling Stones - Steel Wheels (1989) [3 Releases]

Tracklist CD1 - Steel Wheels (1994 Holland Remaster, Virgin CDV 2742):

1. Sad Sad Sad (3:35)
2. Mixed Emotions (4:38)
3. Terrifying (4:53)
4. Hold On To Your Hat (3:32)
5. Hearts For Sale (4:41)
6. Blinded By Love (4:36)
7. Rock And A Hard Place (5:25)
8. Can't Be Seen (4:10)
9. Almost Hear You Sigh (4:37)
10. Continental Drift (5:14)
11. Break The Spell (3:07)
12. Slipping Away (4:28)

Exact Audio Copy V1.0 beta 3 from 29. August 2011

EAC extraction logfile from 30. June 2013, 13:02

The Rolling Stones / Steel Wheels [CDV 2742]

Used drive : _NEC DVD+-RW ND-6500A Adapter: 1 ID: 0

Read mode : Secure
Utilize accurate stream : Yes
Defeat audio cache : Yes
Make use of C2 pointers : No

Read offset correction : 48
Overread into Lead-In and Lead-Out : No
Fill up missing offset samples with silence : Yes
Delete leading and trailing silent blocks : No
Null samples used in CRC calculations : Yes
Used interface : Native Win32 interface for Win NT & 2000

Used output format : User Defined Encoder
Selected bitrate : 768 kBit/s
Quality : High
Add ID3 tag : No
Command line compressor : C:\Program Files\Exact Audio Copy\FLAC\FLAC.EXE
Additional command line options : -V -8 -T "Date=%year%" -T "Genre=%genre%" %source%


TOC of the extracted CD

Track | Start | Length | Start sector | End sector
––––––––––––––––––––––––––––-
1 | 0:00.00 | 3:35.45 | 0 | 16169
2 | 3:35.45 | 4:38.47 | 16170 | 37066
3 | 8:14.17 | 4:53.68 | 37067 | 59109
4 | 13:08.10 | 3:32.10 | 59110 | 75019
5 | 16:40.20 | 4:41.25 | 75020 | 96119
6 | 21:21.45 | 4:36.70 | 96120 | 116889
7 | 25:58.40 | 5:25.17 | 116890 | 141281
8 | 31:23.57 | 4:10.15 | 141282 | 160046
9 | 35:33.72 | 4:37.15 | 160047 | 180836
10 | 40:11.12 | 5:14.73 | 180837 | 204459
11 | 45:26.10 | 3:07.42 | 204460 | 218526
12 | 48:33.52 | 4:28.70 | 218527 | 238696


Range status and errors

Selected range

Filename E:\RUTRA\Virgin\1989 - Steel Wheels [CDV 2742]\The Rolling Stones - Steel Wheels [CDV 2742].wav

Peak level 97.7 %
Extraction speed 1.9 X
Range quality 100.0 %
Test CRC EDE42DEB
Copy CRC EDE42DEB
Copy OK

No errors occurred


AccurateRip summary

Track 1 accurately ripped (confidence 3) [DB429291] (AR v2)
Track 2 accurately ripped (confidence 3) [2C37B16B] (AR v2)
Track 3 accurately ripped (confidence 3) [B34BA8DF] (AR v2)
Track 4 accurately ripped (confidence 3) [026BC4FB] (AR v2)
Track 5 accurately ripped (confidence 3) [AA8B0673] (AR v2)
Track 6 accurately ripped (confidence 3) [DE7FF4D8] (AR v2)
Track 7 accurately ripped (confidence 3) [FB012C48] (AR v2)
Track 8 accurately ripped (confidence 3) [B634511E] (AR v2)
Track 9 accurately ripped (confidence 3) [D108FE18] (AR v2)
Track 10 accurately ripped (confidence 2) [98857FD3] (AR v2)
Track 11 accurately ripped (confidence 3) [BB5714D2] (AR v2)
Track 12 accurately ripped (confidence 3) [FEC4985C] (AR v2)

All tracks accurately ripped

End of status report

==== Log checksum D09CAB6CA18FB15F0DED1D3F2FA2DD6D69E8FB34EC72471C4A2565F375111493 ====


[CUETools log; Date: 23.06.2019 18:49:56; Version: 2.1.4]
[AccurateRip ID: 00179023-00dd4e66-9b0c6e0c] found.
Track [ CRC | V2 ] Status
01 [aebc43c5|db429291] (055+055/158) Accurately ripped
02 [68a07cca|2c37b16b] (054+054/155) Accurately ripped
03 [84579ec7|b34ba8df] (055+055/159) Accurately ripped
04 [199c335a|026bc4fb] (054+055/156) Accurately ripped
05 [df0a5038|aa8b0673] (055+055/156) Accurately ripped
06 [0acba636|de7ff4d8] (054+055/156) Accurately ripped
07 [6c1741fd|fb012c48] (055+055/157) Accurately ripped
08 [093d623a|b634511e] (055+055/157) Accurately ripped
09 [389ea195|d108fe18] (053+054/153) Accurately ripped
10 [ea06926c|98857fd3] (054+053/153) Accurately ripped
11 [a12d1afc|bb5714d2] (053+055/153) Accurately ripped
12 [32870b5e|fec4985c] (052+056/153) Accurately ripped
Offsetted by -1081:
01 [5f3cf3f0] (019/158) Accurately ripped
02 [28a57155] (019/155) Accurately ripped
03 [61f7cc20] (020/159) Accurately ripped
04 [0a9074ae] (018/156) Accurately ripped
05 [49067e3f] (018/156) Accurately ripped
06 [c96ff98e] (019/156) Accurately ripped
07 [2939b911] (019/157) Accurately ripped
08 [6c8bf2ce] (019/157) Accurately ripped
09 [0d9a7250] (018/153) Accurately ripped
10 [657a585d] (018/153) Accurately ripped
11 [56a76ed6] (018/153) Accurately ripped
12 [2de0936e] (018/153) Accurately ripped
Offsetted by -422:
01 [d6a450b3] (005/158) Accurately ripped
02 [3eb5ca8b] (005/155) Accurately ripped
03 [88537a7f] (005/159) Accurately ripped
04 [b6fc2443] (005/156) Accurately ripped
05 [e8bf6cfc] (005/156) Accurately ripped
06 [fee86ca0] (005/156) Accurately ripped
07 [61421bbe] (005/157) Accurately ripped
08 [c2ad7471] (005/157) Accurately ripped
09 [d359adc3] (005/153) Accurately ripped
10 [5f7735c8] (005/153) Accurately ripped
11 [86155b70] (005/153) Accurately ripped
12 [0088a584] (004/153) Accurately ripped
Offsetted by -782:
01 [5edd933e] (000/158) No match (V2 was not tested)
02 [0edaf84e] (000/155) No match (V2 was not tested)
03 [4b08b840] (000/159) No match
04 [12dd330a] (000/156) No match
05 [1453ff47] (000/156) No match
06 [8635f917] (000/156) No match
07 [44760017] (000/157) No match
08 [496ccdac] (000/157) No match
09 [e919f049] (000/153) No match
10 [7af1e233] (000/153) No match
11 [76e45451] (000/153) No match
12 [28f00a5b] (000/153) No match

Track Peak [ CRC32 ] [W/O NULL] [ LOG ]
– 97,7 [EDE42DEB] [B0C02CB0] CRC32
01 97,7 [A44093E1] [AE3AD76C]
02 97,7 [B436D25E] [455B2FFF]
03 97,7 [086966E0] [F4ACC9D9]
04 97,5 [6FCD5DEC] [D2D58DC5]
05 97,7 [85B25FD8] [B0EEAB53]
06 92,1 [2CCF58A1] [DDE75F92]
07 97,7 [B236EC4E] [07626AB7]
08 97,7 [6808FF58] [32143821]
09 97,7 [6A85F3D7] [0818532A]
10 97,7 [F51A7444] [3050B6C7]
11 97,7 [74AB4C13] [A36A0FDD]
12 97,7 [65705D5D] [84ED04F7]


The Rolling Stones - Steel Wheels (1989) [3 Releases]

Tracklist CD2 - Steel Wheels (2009 EU Remaster, Polydor 0602527015675):

1. Sad Sad Sad (3:35)
2. Mixed Emotions (4:38)
3. Terrifying (4:53)
4. Hold On To Your Hat (3:32)
5. Hearts For Sale (4:40)
6. Blinded By Love (4:36)
7. Rock And A Hard Place (5:25)
8. Can't Be Seen (4:10)
9. Almost Hear You Sigh (4:37)
10. Continental Drift (5:14)
11. Break The Spell (3:07)
12. Slipping Away (4:30)

Exact Audio Copy V1.0 beta 3 from 29. August 2011

Отчёт EAC об извлечении, выполненном 11. мая 2015, 19:48

Rolling Stones / Steel Wheels

Дисковод: ATAPI iHES108 2 Adapter: 3 ID: 1

Режим чтения : Достоверность
Использование точного потока : Да
Отключение кэша аудио : Да
Использование указателей C2 : Нет

Коррекция смещения при чтении : 6
Способность читать области Lead-in и Lead-out : Нет
Заполнение пропущенных сэмплов тишиной : Да
Удаление блоков с тишиной в начале и конце : Нет
При вычислениях CRC использовались нулевые сэмплы : Да
Интерфейс : Встроенный Win32-интерфейс для Win NT/2000

Выходной формат : Пользовательский кодировщик
Выбранный битрейт : 1024 kBit/s
Качество : Высокий
Добавление ID3-тега : Нет
Утилита сжатия : C:\Program Files\Exact Audio Copy\Flac\flac.exe
Дополнительные параметры : -V -8 -T "Date=%year%" -T "Genre=%genre%" %source%


TOC извлечённого CD

Трек | Старт | Длительность | Начальный сектор | Конечный сектор
––––––––––––––––––––––––––––––––––-
1 | 0:00.00 | 3:35.52 | 0 | 16176
2 | 3:35.52 | 4:38.45 | 16177 | 37071
3 | 8:14.22 | 4:53.63 | 37072 | 59109
4 | 13:08.10 | 3:32.27 | 59110 | 75036
5 | 16:40.37 | 4:40.70 | 75037 | 96106
6 | 21:21.32 | 4:36.73 | 96107 | 116879
7 | 25:58.30 | 5:25.17 | 116880 | 141271
8 | 31:23.47 | 4:10.15 | 141272 | 160036
9 | 35:33.62 | 4:37.35 | 160037 | 180846
10 | 40:11.22 | 5:14.40 | 180847 | 204436
11 | 45:25.62 | 3:07.35 | 204437 | 218496
12 | 48:33.22 | 4:30.15 | 218497 | 238761


Характеристики диапазона извлечения и сообщения об ошибках

Выбранный диапазон

Имя файла D:\EAC-FOLDER\!!!RS_2009\Rolling Stones - Steel Wheels\Rolling Stones - Steel Wheels_2009\Rolling Stones - Steel Wheels.wav

Пиковый уровень 98.7 %
Скорость извлечения 4.5 X
Качество диапазона 100.0 %
CRC теста EA44A9C3
CRC копии EA44A9C3
Копирование… OK

Ошибок не произошло


AccurateRip: сводка

Трек 1 : извлечено точно (доверие 88) [D6D22823] (AR v2)
Трек 2 : извлечено точно (доверие 88) [F8B97FE3] (AR v2)
Трек 3 : извлечено точно (доверие 88) [A9A244EA] (AR v2)
Трек 4 : извлечено точно (доверие 89) [2C9BB32B] (AR v2)
Трек 5 : извлечено точно (доверие 89) [28CAF2B5] (AR v2)
Трек 6 : извлечено точно (доверие 89) [9704089D] (AR v2)
Трек 7 : извлечено точно (доверие 89) [AC3318F7] (AR v2)
Трек 8 : извлечено точно (доверие 89) [2E00D593] (AR v2)
Трек 9 : извлечено точно (доверие 89) [D22AEE71] (AR v2)
Трек 10 : извлечено точно (доверие 89) [6D3B6FF6] (AR v2)
Трек 11 : извлечено точно (доверие 88) [18C1D725] (AR v2)
Трек 12 : извлечено точно (доверие 89) [6EE63469] (AR v2)

Все треки извлечены точно

Конец отчёта

==== Контрольная сумма отчёта E8D7C9A7B4E0114FFE1878CBA3DFD02179CD6F81351E9CCC4D311CA89BC45C97 ====


[CUETools log; Date: 23.06.2019 18:45:03; Version: 2.1.4]
[AccurateRip ID: 0017902b-00dd4ee6-9a0c6f0c] found.
Track [ CRC | V2 ] Status
01 [8e79c5a7|d6d22823] (054+136/218) Accurately ripped
02 [56895860|f8b97fe3] (054+137/220) Accurately ripped
03 [3ea677d1|a9a244ea] (054+137/220) Accurately ripped
04 [44e6509f|2c9bb32b] (054+137/220) Accurately ripped
05 [9339943c|28caf2b5] (054+137/220) Accurately ripped
06 [613b4b81|9704089d] (054+137/220) Accurately ripped
07 [0f741813|ac3318f7] (054+138/223) Accurately ripped
08 [65e52fa7|2e00d593] (054+137/219) Accurately ripped
09 [5fdc4296|d22aee71] (054+137/218) Accurately ripped
10 [408556ff|6d3b6ff6] (054+137/216) Accurately ripped
11 [327de22c|18c1d725] (054+136/215) Accurately ripped
12 [23e4a1b8|6ee63469] (053+137/210) Accurately ripped
Offsetted by -676:
01 [9812a161] (005/218) Accurately ripped
02 [0ff9abc8] (005/220) Accurately ripped
03 [7e262183] (005/220) Accurately ripped
04 [465e8c02] (005/220) Accurately ripped
05 [a2dbc10c] (005/220) Accurately ripped
06 [83ce6d9a] (005/220) Accurately ripped
07 [8c78c386] (005/223) Accurately ripped
08 [51a0633b] (005/219) Accurately ripped
09 [92ce81ad] (005/218) Accurately ripped
10 [d0298355] (005/216) Accurately ripped
11 [8f6d0406] (005/215) Accurately ripped
12 [fbb74872] (004/210) Accurately ripped
Offsetted by -1198:
01 [9aa17948] (000/218) No match
02 [18c8b122] (000/220) No match
03 [13d515dd] (000/220) No match
04 [9a38a0f6] (000/220) No match
05 [293e7ae1] (000/220) No match
06 [3c7a985e] (000/220) No match
07 [414e9513] (000/223) No match (V2 was not tested)
08 [0268039e] (000/219) No match
09 [259b331a] (000/218) No match
10 [7320a41b] (000/216) No match
11 [3d34929c] (000/215) No match
12 [ba77737d] (000/210) No match
Offsetted by -48:
01 [3f89df11] (000/218) No match (V2 was not tested)
02 [9b2cbeca] (000/220) No match (V2 was not tested)
03 [eee2366a] (000/220) No match (V2 was not tested)
04 [2233c143] (000/220) No match (V2 was not tested)
05 [ab4bb386] (000/220) No match (V2 was not tested)
06 [6f1d55ff] (000/220) No match (V2 was not tested)
07 [d6c3b453] (000/223) No match (V2 was not tested)
08 [e25de4f2] (000/219) No match (V2 was not tested)
09 [8ba3d91a] (000/218) No match (V2 was not tested)
10 [38b8a678] (000/216) No match (V2 was not tested)
11 [b7c53c25] (000/215) No match (V2 was not tested)
12 [e09d3ef3] (000/210) No match (V2 was not tested)
Offsetted by -36:
01 [53219287] (000/218) No match (V2 was not tested)
02 [c9d506e1] (000/220) No match (V2 was not tested)
03 [0304b566] (000/220) No match (V2 was not tested)
04 [ab930519] (000/220) No match (V2 was not tested)
05 [e48a2066] (000/220) No match (V2 was not tested)
06 [eb763b1c] (000/220) No match (V2 was not tested)
07 [24b91707] (000/223) No match (V2 was not tested)
08 [83bdfd3b] (000/219) No match (V2 was not tested)
09 [b9b019ed] (000/218) No match (V2 was not tested)
10 [bbdfe5f4] (000/216) No match (V2 was not tested)
11 [9653dc23] (000/215) No match (V2 was not tested)
12 [30e6c293] (000/210) No match (V2 was not tested)
Offsetted by -18:
01 [eff3f549] (000/218) No match (V2 was not tested)
02 [0fd17312] (000/220) No match (V2 was not tested)
03 [21fe2e54] (000/220) No match (V2 was not tested)
04 [f913046a] (000/220) No match (V2 was not tested)
05 [bc9ee56f] (000/220) No match (V2 was not tested)
06 [a4e4014e] (000/220) No match (V2 was not tested)
07 [9a840453] (000/223) No match (V2 was not tested)
08 [74d19666] (000/219) No match (V2 was not tested)
09 [0d1d09ad] (000/218) No match (V2 was not tested)
10 [7e1447a6] (000/216) No match (V2 was not tested)
11 [64a7f229] (000/215) No match (V2 was not tested)
12 [2a65b217] (000/210) No match (V2 was not tested)
Offsetted by -12:
01 [79bfc93d] (000/218) No match (V2 was not tested)
02 [27e1104f] (000/220) No match (V2 was not tested)
03 [2b49b34a] (000/220) No match (V2 was not tested)
04 [bca4d99a] (000/220) No match (V2 was not tested)
05 [59fb2723] (000/220) No match (V2 was not tested)
06 [e36da465] (000/220) No match (V2 was not tested)
07 [c2598ef3] (000/223) No match (V2 was not tested)
08 [c52d7423] (000/219) No match (V2 was not tested)
09 [35d862b5] (000/218) No match (V2 was not tested)
10 [bf531087] (000/216) No match (V2 was not tested)
11 [53ef4228] (000/215) No match (V2 was not tested)
12 [d22f909c] (000/210) No match (V2 was not tested)
Offsetted by 6:
01 [18458e13] (000/218) No match (V2 was not tested)
02 [6ddd7c6e] (000/220) No match (V2 was not tested)
03 [48b7b75b] (000/220) No match (V2 was not tested)
04 [087825ce] (000/220) No match (V2 was not tested)
05 [3095d5f7] (000/220) No match (V2 was not tested)
06 [9fc4ee85] (000/220) No match (V2 was not tested)
07 [3749a2b8] (000/223) No match (V2 was not tested)
08 [b6410d63] (000/219) No match (V2 was not tested)
09 [1036d392] (000/218) No match (V2 was not tested)
10 [815d7b69] (000/216) No match (V2 was not tested)
11 [2243583a] (000/215) No match (V2 was not tested)
12 [cd1a0d99] (000/210) No match (V2 was not tested)

Track Peak [ CRC32 ] [W/O NULL] [ LOG ]
– 98,7 [EA44A9C3] [B5F364A1] CRC32
01 98,7 [C96E3B9D] [6FBD566E]
02 98,7 [5AEDF68E] [DA2C0FCC]
03 96,5 [B60B36E9] [84DA395C]
04 98,7 [ADB600EC] [125CA619]
05 98,2 [8783268C] [3FA64A1D]
06 98,7 [8854A202] [1A0CE4E1]
07 98,7 [99C61EE8] [4DE3318E]
08 98,7 [5F3E1D06] [CDEF67C8]
09 98,7 [47075D5E] [30BE592C]
10 98,7 [79DB8DE5] [F13DFDEB]
11 98,7 [E7ABE6C4] [2276320C]
12 98,7 [4ECA1A35] [74B51D6B]


The Rolling Stones - Steel Wheels (1989) [3 Releases]

Tracklist CD3 - Steel Wheels (2015 Japan Remaster, Universal UICY-40162):

1. Sad Sad Sad (3:36)
2. Mixed Emotions (4:38)
3. Terrifying (4:50)
4. Hold On To Your Hat (3:32)
5. Hearts For Sale (4:41)
6. Blinded By Love (4:37)
7. Rock And A Hard Place (5:25)
8. Can't Be Seen (4:10)
9. Almost Hear You Sigh (4:37)
10. Continental Drift (5:15)
11. Break The Spell (3:07)
12. Slipping Away (4:31)

Exact Audio Copy V1.1 from 23. June 2015

EAC extraction logfile from 16. December 2015, 19:50

The Rolling Stones / Steel Wheels PT-SHM

Used drive : PLEXTOR BD-R PX-B950SA Adapter: 1 ID: 1

Read mode : Secure
Utilize accurate stream : Yes
Defeat audio cache : Yes
Make use of C2 pointers : No

Read offset correction : 6
Overread into Lead-In and Lead-Out : No
Fill up missing offset samples with silence : Yes
Delete leading and trailing silent blocks : No
Null samples used in CRC calculations : Yes
Used interface : Native Win32 interface for Win NT & 2000

Used output format : Internal WAV Routines
Sample format : 44.100 Hz; 16 Bit; Stereo


TOC of the extracted CD

Track | Start | Length | Start sector | End sector
––––––––––––––––––––––––––––-
1 | 0:00.00 | 3:36.40 | 0 | 16239
2 | 3:36.40 | 4:38.55 | 16240 | 37144
3 | 8:15.20 | 4:50.40 | 37145 | 58934
4 | 13:05.60 | 3:32.25 | 58935 | 74859
5 | 16:38.10 | 4:41.47 | 74860 | 95981
6 | 21:19.57 | 4:37.05 | 95982 | 116761
7 | 25:56.62 | 5:25.63 | 116762 | 141199
8 | 31:22.50 | 4:10.35 | 141200 | 159984
9 | 35:33.10 | 4:37.10 | 159985 | 180769
10 | 40:10.20 | 5:15.17 | 180770 | 204411
11 | 45:25.37 | 3:07.58 | 204412 | 218494
12 | 48:33.20 | 4:31.40 | 218495 | 238859


Range status and errors

Selected range

Filename C:\Users\Meijin\Desktop\ALLexxess\Rolling Stones\1989 Steel Wheels (Mini LP PT-SHM Universal Japan 2015)\The Rolling Stones - Steel Wheels PT-SHM.wav

Peak level 100.0 %
Extraction speed 7.1 X
Range quality 100.0 %
Test CRC 160B382C
Copy CRC 160B382C
Copy OK

No errors occurred


AccurateRip summary

Track 1 not present in database
Track 2 not present in database
Track 3 not present in database
Track 4 not present in database
Track 5 not present in database
Track 6 not present in database
Track 7 not present in database
Track 8 not present in database
Track 9 not present in database
Track 10 not present in database
Track 11 not present in database
Track 12 not present in database

None of the tracks are present in the AccurateRip database

End of status report

–– CUETools DB Plugin V2.1.6

[CTDB TOCID: 98kYm77FKK96j5onyYaWQU3PnaM-] disk not present in database
Submit result: 98kYm77FKK96j5onyYaWQU3PnaM- has been uploaded


==== Log checksum C4AC24AEF8175940EB5726F9109C218F3B69A7C43A5BCB81FFF7C55051CB88AC ====


[CUETools log; Date: 23.06.2019 18:47:10; Version: 2.1.4]
[AccurateRip ID: 00178dde-00dd409f-a30c700c] found.
Track [ CRC | V2 ] Status
01 [95042d46|83758cb9] (0+8/8) Accurately ripped
02 [4c40831c|0b92b21c] (0+8/8) Accurately ripped
03 [c6b19802|b9735c9b] (0+8/8) Accurately ripped
04 [303dcb8e|e4c61d1b] (0+8/8) Accurately ripped
05 [cf210b21|b1c9a7ae] (0+7/7) Accurately ripped
06 [2becbc07|799b4e06] (0+8/8) Accurately ripped
07 [e3e72bcb|c0c30e8d] (0+8/8) Accurately ripped
08 [b9aba0d3|890da25e] (0+8/8) Accurately ripped
09 [5ed68e92|c9909b38] (0+8/8) Accurately ripped
10 [35774227|bf64f1ef] (0+8/8) Accurately ripped
11 [e293b06d|64aafe12] (0+8/8) Accurately ripped
12 [68ab11b9|f56b0da0] (0+8/8) Accurately ripped

Track Peak [ CRC32 ] [W/O NULL] [ LOG ]
– 100,0 [160B382C] [8315FEB3] CRC32
01 100,0 [A3DA95FF] [5FED921A]
02 100,0 [5556C4BE] [3ECD0A1E]
03 100,0 [9175FE19] [F0BD079F]
04 100,0 [E567807E] [7FB4CA19]
05 100,0 [FF700DF6] [56DF3603]
06 100,0 [F85D2053] [A46ECFB3]
07 100,0 [743C9C62] [972FCE78]
08 100,0 [ED7EE40E] [62C90184]
09 100,0 [0CB2BD21] [5B1662C9]
10 100,0 [A2109ACD] [D0AE1FB7]
11 100,0 [50CF8F24] [B22D0909]
12 100,0 [707EA42F] [931B2AF7]


All thanks go to Ironbelly, ALLexxess & jlhjlh

The Rolling Stones in my Blog

Download The Rolling Stones - Steel Wheels (1989):