Subcategories

The Rolling Stones - Totally Stripped (2016) [4 x SD-Blu-ray]

Posted By: v3122
The Rolling Stones - Totally Stripped (2016) [4 x SD-Blu-ray]

The Rolling Stones - Totally Stripped (2016)
4xBlu-ray: MPEG-4 AVC, 1080i, 29,970 fps, 16:9, High Profile 4.1 | LPCM, DTS-HD MA
Rock, Documentary | Eagle Rock, ERSBD3025 | ~ 108.75 Gb

Totally Stripped is a newly revised version of the documentary that was originally made to coincide with the release of The Rolling Stones Stripped album released in November 1995. It tells the story of the two studio sessions and three live shows that made up the Stripped project. This followed the conclusion of the mammoth Voodoo Lounge tour and found The Stones reimagining tracks from their back catalogue in pared back versions alongside a couple of carefully chosen covers in the studio and doing smaller scale club gigs to showcase these versions, which was a marked contrast to the huge arenas and stadiums that had hosted the Voodoo Lounge tour. This new version of the documentary includes previously unseen footage and lays bare the inner workings of both The Rolling Stones and of some of their best loved tracks. Revealing, intimate and moving, Totally Stripped is unmissable…

~ amazon

BD1:
Video:
MPEG-4 AVC Video / 26995 kbps / 1080i / 29,970 fps / 16:9 / High Profile 4.1
Audio:
1: LPCM Audio / 1536 kbps / 2.0 / 48 kHz / 16-bit
2: DTS-HD Master Audio / 2371 kbps / 5.1 / 48 kHz / 16-bit
(DTS Core: 5.1 / 48 kHz / 1509 kbps / 16-bit)
Subtitles:
English / German / French / Spanish / Portuguese

BD2:
Video:
MPEG-4 AVC Video / 24997 kbps / 1080i / 29,970 fps / 16:9 / High Profile 4.1
Audio:
1: LPCM Audio / 1536 kbps / 2.0 / 48 kHz / 16-bit
2: DTS-HD Master Audio / 3036 kbps / 5.1 / 48 kHz / 16-bit
(DTS Core: 5.1 / 48 kHz / 1509 kbps / 16-bit)

BD3:
Video:
MPEG-4 AVC Video / 29553 kbps / 1080i / 29,970 fps / 16:9 / High Profile 4.1
Audio:
1: LPCM Audio / 1536 kbps / 2.0 / 48 kHz / 16-bit
2: DTS-HD Master Audio / 3048 kbps / 5.1 / 48 kHz / 16-bit
(DTS Core: 5.1 / 48 kHz / 1509 kbps / 16-bit)

BD4:
Video:
MPEG-4 AVC Video / 27901 kbps / 1080i / 29,970 fps / 16:9 / High Profile 4.1
Audio:
1: LPCM Audio / 1536 kbps / 2.0 / 48 kHz / 16-bit
2: DTS-HD Master Audio / 3042 kbps / 5.1 / 48 kHz / 16-bit
(DTS Core: 5.1 / 48 kHz / 1509 kbps / 16-bit)

The Rolling Stones - Totally Stripped (2016):

Tracklist BD1 - Totally Stripped Documentary:

[01]. Stripped
[02]. Love In Vain
[03]. The Spider And The Fly
[04]. Wild Horses
[05]. Let It Bleed
[06]. The Paradiso, Amsterdam
[07]. Down In The Bottom
[08]. Tumbling Dice
[09]. Not Fade Away
[10]. Dead Flowers
[11]. Gimme Shelter
[12]. Olympia, Paris
[13]. You Got Me Rockin'
[14]. I Go Wild
[15]. Shine A Light
[16]. Jumpin' Jack Flash
[17]. Brixton Academy, London
[18]. I Can't Get Next To You
[19]. Honky Tonk Women
[20]. Faraway Eyes
[21]. Like A Rolling Stone
[22]. Credits

Disc Title: Disc1
Disc Size: 22 821 852 587 bytes
Protection: AACS
BD-Java: No
BDInfo: 0.5.8

Notes:

BDINFO HOME:
Cinema Squid
http://www.cinemasquid.com/blu-ray/tools/bdinfo

INCLUDES FORUMS REPORT FOR:
AVS Forum Blu-ray Audio and Video Specifications Thread
http://www.avsforum.com/avs-vb/showthread.php?t=1155731

WARNING: Report is incomplete because: Scan has not been run.

********************
PLAYLIST: 00002.MPLS
********************

<–- BEGIN FORUMS PASTE –->
                                                                                                                Total   Video                                             
Title                                                           Codec   Length  Movie Size      Disc Size       Bitrate Bitrate Main Audio Track                          Secondary Audio Track
-----                                                           ------  ------- --------------  --------------  ------- ------- ------------------                        ---------------------
00002.MPLS                                                      AVC     1:31:17 0               22 821 852 587  0,00    0,00    LPCM 2.0 1536Kbps (48kHz/16-bit)          DTS-HD Master 5.1 (48kHz/16-bit)


DISC INFO:

Disc Title:     Disc1
Disc Size:      22 821 852 587 bytes
Protection:     AACS
BD-Java:        No
BDInfo:         0.5.8

PLAYLIST REPORT:

Name:                   00002.MPLS
Length:                 1:31:17.572 (h:m:s.ms)
Size:                   0 bytes
Total Bitrate:          0,00 Mbps

VIDEO:

Codec                   Bitrate             Description     
-----                   -------             -----------     
MPEG-4 AVC Video        0 kbps              1080i / 29,970 fps / 16:9 / High Profile 4.1

AUDIO:

Codec                           Language        Bitrate         Description     
-----                           --------        -------         -----------     
LPCM Audio                      English         1536 kbps       2.0 / 48 kHz / 1536 kbps / 16-bit
DTS-HD Master Audio             English         0 kbps          5.1 / 48 kHz / 16-bit (DTS Core: 5.1 / 48 kHz / 1509 kbps / 16-bit)

SUBTITLES:

Codec                           Language        Bitrate         Description     
-----                           --------        -------         -----------     
Presentation Graphics           English         0,000 kbps                      
Presentation Graphics           German          0,000 kbps                      
Presentation Graphics           English         0,000 kbps                      
Presentation Graphics           French          0,000 kbps                      
Presentation Graphics           Portuguese      0,000 kbps                      

FILES:

Name            Time In         Length          Size            Total Bitrate   
----            -------         ------          ----            -------------   
00002.M2TS      0:00:00.000     1:31:17.572     0               0               

CHAPTERS:

Number          Time In         Length          Avg Video Rate  Max 1-Sec Rate  Max 1-Sec Time  Max 5-Sec Rate  Max 5-Sec Time  Max 10Sec Rate  Max 10Sec Time  Avg Frame Size  Max Frame Size  Max Frame Time  
------          -------         ------          --------------  --------------  --------------  --------------  --------------  --------------  --------------  --------------  --------------  --------------  
1               0:00:00.000     0:01:48.975     0 kbps          0 kbps          00:00:00.000    0 kbps          00:00:00.000    0 kbps          00:00:00.000    0 bytes         0 bytes         00:00:00.000    
2               0:01:48.975     0:04:50.790     0 kbps          0 kbps          00:00:00.000    0 kbps          00:00:00.000    0 kbps          00:00:00.000    0 bytes         0 bytes         00:00:00.000    
3               0:06:39.766     0:02:14.534     0 kbps          0 kbps          00:00:00.000    0 kbps          00:00:00.000    0 kbps          00:00:00.000    0 bytes         0 bytes         00:00:00.000    
4               0:08:54.300     0:03:20.633     0 kbps          0 kbps          00:00:00.000    0 kbps          00:00:00.000    0 kbps          00:00:00.000    0 bytes         0 bytes         00:00:00.000    
5               0:12:14.934     0:01:09.602     0 kbps          0 kbps          00:00:00.000    0 kbps          00:00:00.000    0 kbps          00:00:00.000    0 bytes         0 bytes         00:00:00.000    
6               0:13:24.537     0:05:05.271     0 kbps          0 kbps          00:00:00.000    0 kbps          00:00:00.000    0 kbps          00:00:00.000    0 bytes         0 bytes         00:00:00.000    
7               0:18:29.808     0:01:09.436     0 kbps          0 kbps          00:00:00.000    0 kbps          00:00:00.000    0 kbps          00:00:00.000    0 bytes         0 bytes         00:00:00.000    
8               0:19:39.244     0:04:01.174     0 kbps          0 kbps          00:00:00.000    0 kbps          00:00:00.000    0 kbps          00:00:00.000    0 bytes         0 bytes         00:00:00.000    
9               0:23:40.419     0:01:11.371     0 kbps          0 kbps          00:00:00.000    0 kbps          00:00:00.000    0 kbps          00:00:00.000    0 bytes         0 bytes         00:00:00.000    
10              0:24:51.790     0:00:19.519     0 kbps          0 kbps          00:00:00.000    0 kbps          00:00:00.000    0 kbps          00:00:00.000    0 bytes         0 bytes         00:00:00.000    
11              0:25:11.309     0:03:43.356     0 kbps          0 kbps          00:00:00.000    0 kbps          00:00:00.000    0 kbps          00:00:00.000    0 bytes         0 bytes         00:00:00.000    
12              0:28:54.666     0:00:58.925     0 kbps          0 kbps          00:00:00.000    0 kbps          00:00:00.000    0 kbps          00:00:00.000    0 bytes         0 bytes         00:00:00.000    
13              0:29:53.591     0:01:49.309     0 kbps          0 kbps          00:00:00.000    0 kbps          00:00:00.000    0 kbps          00:00:00.000    0 bytes         0 bytes         00:00:00.000    
14              0:31:42.901     0:00:31.831     0 kbps          0 kbps          00:00:00.000    0 kbps          00:00:00.000    0 kbps          00:00:00.000    0 bytes         0 bytes         00:00:00.000    
15              0:32:14.732     0:03:51.064     0 kbps          0 kbps          00:00:00.000    0 kbps          00:00:00.000    0 kbps          00:00:00.000    0 bytes         0 bytes         00:00:00.000    
16              0:36:05.796     0:01:07.600     0 kbps          0 kbps          00:00:00.000    0 kbps          00:00:00.000    0 kbps          00:00:00.000    0 bytes         0 bytes         00:00:00.000    
17              0:37:13.397     0:02:54.574     0 kbps          0 kbps          00:00:00.000    0 kbps          00:00:00.000    0 kbps          00:00:00.000    0 bytes         0 bytes         00:00:00.000    
18              0:40:07.972     0:03:42.822     0 kbps          0 kbps          00:00:00.000    0 kbps          00:00:00.000    0 kbps          00:00:00.000    0 bytes         0 bytes         00:00:00.000    
19              0:43:50.794     0:03:19.799     0 kbps          0 kbps          00:00:00.000    0 kbps          00:00:00.000    0 kbps          00:00:00.000    0 bytes         0 bytes         00:00:00.000    
20              0:47:10.594     0:01:02.929     0 kbps          0 kbps          00:00:00.000    0 kbps          00:00:00.000    0 kbps          00:00:00.000    0 bytes         0 bytes         00:00:00.000    
21              0:48:13.523     0:06:20.747     0 kbps          0 kbps          00:00:00.000    0 kbps          00:00:00.000    0 kbps          00:00:00.000    0 bytes         0 bytes         00:00:00.000    
22              0:54:34.271     0:01:09.669     0 kbps          0 kbps          00:00:00.000    0 kbps          00:00:00.000    0 kbps          00:00:00.000    0 bytes         0 bytes         00:00:00.000    
23              0:55:43.940     0:04:32.605     0 kbps          0 kbps          00:00:00.000    0 kbps          00:00:00.000    0 kbps          00:00:00.000    0 bytes         0 bytes         00:00:00.000    
24              1:00:16.546     0:01:24.784     0 kbps          0 kbps          00:00:00.000    0 kbps          00:00:00.000    0 kbps          00:00:00.000    0 bytes         0 bytes         00:00:00.000    
25              1:01:41.330     0:06:14.073     0 kbps          0 kbps          00:00:00.000    0 kbps          00:00:00.000    0 kbps          00:00:00.000    0 bytes         0 bytes         00:00:00.000    
26              1:07:55.404     0:01:00.360     0 kbps          0 kbps          00:00:00.000    0 kbps          00:00:00.000    0 kbps          00:00:00.000    0 bytes         0 bytes         00:00:00.000    
27              1:08:55.764     0:04:10.950     0 kbps          0 kbps          00:00:00.000    0 kbps          00:00:00.000    0 kbps          00:00:00.000    0 bytes         0 bytes         00:00:00.000    
28              1:13:06.715     0:01:50.877     0 kbps          0 kbps          00:00:00.000    0 kbps          00:00:00.000    0 kbps          00:00:00.000    0 bytes         0 bytes         00:00:00.000    
29              1:14:57.593     0:01:08.768     0 kbps          0 kbps          00:00:00.000    0 kbps          00:00:00.000    0 kbps          00:00:00.000    0 bytes         0 bytes         00:00:00.000    
30              1:16:06.361     0:01:32.625     0 kbps          0 kbps          00:00:00.000    0 kbps          00:00:00.000    0 kbps          00:00:00.000    0 bytes         0 bytes         00:00:00.000    
31              1:17:38.987     0:04:40.413     0 kbps          0 kbps          00:00:00.000    0 kbps          00:00:00.000    0 kbps          00:00:00.000    0 bytes         0 bytes         00:00:00.000    
32              1:22:19.401     0:01:26.352     0 kbps          0 kbps          00:00:00.000    0 kbps          00:00:00.000    0 kbps          00:00:00.000    0 bytes         0 bytes         00:00:00.000    
33              1:23:45.754     0:04:24.230     0 kbps          0 kbps          00:00:00.000    0 kbps          00:00:00.000    0 kbps          00:00:00.000    0 bytes         0 bytes         00:00:00.000    
34              1:28:09.984     0:01:58.218     0 kbps          0 kbps          00:00:00.000    0 kbps          00:00:00.000    0 kbps          00:00:00.000    0 bytes         0 bytes         00:00:00.000    
35              1:30:08.202     0:01:09.369     0 kbps          0 kbps          00:00:00.000    0 kbps          00:00:00.000    0 kbps          00:00:00.000    0 bytes         0 bytes         00:00:00.000    

STREAM DIAGNOSTICS:

File            PID             Type            Codec           Language                Seconds                 Bitrate                 Bytes           Packets         
----            ---             ----            -----           --------                --------------          --------------          -------------   -----           
00002.M2TS      4113 (0x1011)   0x1B            AVC                                     0                       0                       0               0               
00002.M2TS      4352 (0x1100)   0x80            LPCM            eng (English)           0                       0                       0               0               
00002.M2TS      4353 (0x1101)   0x86            DTS-HD MA       eng (English)           0                       0                       0               0               
00002.M2TS      4608 (0x1200)   0x90            PGS             eng (English)           0                       0                       0               0               
00002.M2TS      4609 (0x1201)   0x90            PGS             deu (German)            0                       0                       0               0               
00002.M2TS      4610 (0x1202)   0x90            PGS             eng (English)           0                       0                       0               0               
00002.M2TS      4611 (0x1203)   0x90            PGS             fra (French)            0                       0                       0               0               
00002.M2TS      4612 (0x1204)   0x90            PGS             por (Portuguese)        0                       0                       0               0               

<–– END FORUMS PASTE ––>

QUICK SUMMARY:

Disc Title: Disc1
Disc Size: 22 821 852 587 bytes
Protection: AACS
BD-Java: No
Playlist: 00002.MPLS
Size: 0 bytes
Length: 1:31:17.572
Total Bitrate: 0,00 Mbps
Video: MPEG-4 AVC Video / 0 kbps / 1080i / 29,970 fps / 16:9 / High Profile 4.1
Audio: English / LPCM Audio / 2.0 / 48 kHz / 1536 kbps / 16-bit
Audio: English / DTS-HD Master Audio / 5.1 / 48 kHz / 16-bit (DTS Core: 5.1 / 48 kHz / 1509 kbps / 16-bit)
Subtitle: English / 0,000 kbps
Subtitle: German / 0,000 kbps
Subtitle: English / 0,000 kbps
Subtitle: French / 0,000 kbps
Subtitle: Portuguese / 0,000 kbps


********************
PLAYLIST: 00004.MPLS
********************

<–- BEGIN FORUMS PASTE –->
                                                                                                                Total   Video                                             
Title                                                           Codec   Length  Movie Size      Disc Size       Bitrate Bitrate Main Audio Track                          Secondary Audio Track
-----                                                           ------  ------- --------------  --------------  ------- ------- ------------------                        ---------------------
00004.MPLS                                                      AVC     0:00:21 0               22 821 852 587  0,00    0,00                                              


DISC INFO:

Disc Title:     Disc1
Disc Size:      22 821 852 587 bytes
Protection:     AACS
BD-Java:        No
BDInfo:         0.5.8

PLAYLIST REPORT:

Name:                   00004.MPLS
Length:                 0:00:21.020 (h:m:s.ms)
Size:                   0 bytes
Total Bitrate:          0,00 Mbps

VIDEO:

Codec                   Bitrate             Description     
-----                   -------             -----------     
MPEG-4 AVC Video        0 kbps              1080i / 29,970 fps / 16:9 / High Profile 4.1

FILES:

Name            Time In         Length          Size            Total Bitrate   
----            -------         ------          ----            -------------   
00005.M2TS      0:00:00.000     0:00:10.510     0               0               
00006.M2TS      0:00:10.510     0:00:10.510     0               0               

CHAPTERS:

Number          Time In         Length          Avg Video Rate  Max 1-Sec Rate  Max 1-Sec Time  Max 5-Sec Rate  Max 5-Sec Time  Max 10Sec Rate  Max 10Sec Time  Avg Frame Size  Max Frame Size  Max Frame Time  
------          -------         ------          --------------  --------------  --------------  --------------  --------------  --------------  --------------  --------------  --------------  --------------  
1               0:00:00.000     0:00:21.020     0 kbps          0 kbps          00:00:00.000    0 kbps          00:00:00.000    0 kbps          00:00:00.000    0 bytes         0 bytes         00:00:00.000    

STREAM DIAGNOSTICS:

File            PID             Type            Codec           Language                Seconds                 Bitrate                 Bytes           Packets         
----            ---             ----            -----           --------                --------------          --------------          -------------   -----           
00005.M2TS      4113 (0x1011)   0x1B            AVC                                     0                       0                       0               0               
00006.M2TS      4113 (0x1011)   0x1B            AVC                                     0                       0                       0               0               

<–– END FORUMS PASTE ––>

QUICK SUMMARY:

Disc Title: Disc1
Disc Size: 22 821 852 587 bytes
Protection: AACS
BD-Java: No
Playlist: 00004.MPLS
Size: 0 bytes
Length: 0:00:21.020
Total Bitrate: 0,00 Mbps
Video: MPEG-4 AVC Video / 0 kbps / 1080i / 29,970 fps / 16:9 / High Profile 4.1


********************
PLAYLIST: 00003.MPLS
********************

<–- BEGIN FORUMS PASTE –->
                                                                                                                Total   Video                                             
Title                                                           Codec   Length  Movie Size      Disc Size       Bitrate Bitrate Main Audio Track                          Secondary Audio Track
-----                                                           ------  ------- --------------  --------------  ------- ------- ------------------                        ---------------------
00003.MPLS                                                      AVC     0:00:20 0               22 821 852 587  0,00    0,00    DTS-HD Master 5.1 (48kHz/16-bit)          


DISC INFO:

Disc Title:     Disc1
Disc Size:      22 821 852 587 bytes
Protection:     AACS
BD-Java:        No
BDInfo:         0.5.8

PLAYLIST REPORT:

Name:                   00003.MPLS
Length:                 0:00:20.053 (h:m:s.ms)
Size:                   0 bytes
Total Bitrate:          0,00 Mbps

VIDEO:

Codec                   Bitrate             Description     
-----                   -------             -----------     
MPEG-4 AVC Video        0 kbps              1080i / 29,970 fps / 16:9 / High Profile 4.1

AUDIO:

Codec                           Language        Bitrate         Description     
-----                           --------        -------         -----------     
DTS-HD Master Audio             English         0 kbps          5.1 / 48 kHz / 16-bit (DTS Core: 5.1 / 48 kHz / 1509 kbps / 16-bit)

FILES:

Name            Time In         Length          Size            Total Bitrate   
----            -------         ------          ----            -------------   
00003.M2TS      0:00:00.000     0:00:20.053     0               0               

CHAPTERS:

Number          Time In         Length          Avg Video Rate  Max 1-Sec Rate  Max 1-Sec Time  Max 5-Sec Rate  Max 5-Sec Time  Max 10Sec Rate  Max 10Sec Time  Avg Frame Size  Max Frame Size  Max Frame Time  
------          -------         ------          --------------  --------------  --------------  --------------  --------------  --------------  --------------  --------------  --------------  --------------  
1               0:00:00.000     0:00:20.053     0 kbps          0 kbps          00:00:00.000    0 kbps          00:00:00.000    0 kbps          00:00:00.000    0 bytes         0 bytes         00:00:00.000    

STREAM DIAGNOSTICS:

File            PID             Type            Codec           Language                Seconds                 Bitrate                 Bytes           Packets         
----            ---             ----            -----           --------                --------------          --------------          -------------   -----           
00003.M2TS      4113 (0x1011)   0x1B            AVC                                     0                       0                       0               0               
00003.M2TS      4352 (0x1100)   0x86            DTS-HD MA       eng (English)           0                       0                       0               0               

<–– END FORUMS PASTE ––>

QUICK SUMMARY:

Disc Title: Disc1
Disc Size: 22 821 852 587 bytes
Protection: AACS
BD-Java: No
Playlist: 00003.MPLS
Size: 0 bytes
Length: 0:00:20.053
Total Bitrate: 0,00 Mbps
Video: MPEG-4 AVC Video / 0 kbps / 1080i / 29,970 fps / 16:9 / High Profile 4.1
Audio: English / DTS-HD Master Audio / 5.1 / 48 kHz / 16-bit (DTS Core: 5.1 / 48 kHz / 1509 kbps / 16-bit)



Tracklist BD2 - Paradiso, Amsterdam, 26th May 1995:

[01]. Not Fade Away
[02]. It’s All Over Now
[03]. Live With Me
[04]. Let It Bleed
[05]. The Spider And The Fly
[06]. Beast Of Burden
[07]. Angie
[08]. Wild Horses
[09]. Sweet Virginia
[10]. Dead Flowers
[11]. Shine A Light
[12]. Like A Rolling Stone
[13]. Connection
[14]. Slipping Away
[15]. The Worst
[16]. Gimme Shelter
[17]. All Down The Line
[18]. Respectable
[19]. Rip This Joint
[20]. Street Fighting Man

Disc Title: Disc2
Disc Size: 23 714 176 932 bytes
Protection: AACS
BD-Java: No
BDInfo: 0.5.8

Notes:

BDINFO HOME:
Cinema Squid
http://www.cinemasquid.com/blu-ray/tools/bdinfo

INCLUDES FORUMS REPORT FOR:
AVS Forum Blu-ray Audio and Video Specifications Thread
http://www.avsforum.com/avs-vb/showthread.php?t=1155731

WARNING: Report is incomplete because: Scan has not been run.

********************
PLAYLIST: 00002.MPLS
********************

<–- BEGIN FORUMS PASTE –->
                                                                                                                Total   Video                                             
Title                                                           Codec   Length  Movie Size      Disc Size       Bitrate Bitrate Main Audio Track                          Secondary Audio Track
-----                                                           ------  ------- --------------  --------------  ------- ------- ------------------                        ---------------------
00002.MPLS                                                      AVC     1:38:56 0               23 714 176 932  0,00    0,00    LPCM 2.0 1536Kbps (48kHz/16-bit)          DTS-HD Master 5.1 (48kHz/16-bit)


DISC INFO:

Disc Title:     Disc2
Disc Size:      23 714 176 932 bytes
Protection:     AACS
BD-Java:        No
BDInfo:         0.5.8

PLAYLIST REPORT:

Name:                   00002.MPLS
Length:                 1:38:56.964 (h:m:s.ms)
Size:                   0 bytes
Total Bitrate:          0,00 Mbps

VIDEO:

Codec                   Bitrate             Description     
-----                   -------             -----------     
MPEG-4 AVC Video        0 kbps              1080i / 29,970 fps / 16:9 / High Profile 4.1

AUDIO:

Codec                           Language        Bitrate         Description     
-----                           --------        -------         -----------     
LPCM Audio                      English         1536 kbps       2.0 / 48 kHz / 1536 kbps / 16-bit
DTS-HD Master Audio             English         0 kbps          5.1 / 48 kHz / 16-bit (DTS Core: 5.1 / 48 kHz / 1509 kbps / 16-bit)

FILES:

Name            Time In         Length          Size            Total Bitrate   
----            -------         ------          ----            -------------   
00002.M2TS      0:00:00.000     1:38:56.964     0               0               

CHAPTERS:

Number          Time In         Length          Avg Video Rate  Max 1-Sec Rate  Max 1-Sec Time  Max 5-Sec Rate  Max 5-Sec Time  Max 10Sec Rate  Max 10Sec Time  Avg Frame Size  Max Frame Size  Max Frame Time  
------          -------         ------          --------------  --------------  --------------  --------------  --------------  --------------  --------------  --------------  --------------  --------------  
1               0:00:00.000     0:03:50.363     0 kbps          0 kbps          00:00:00.000    0 kbps          00:00:00.000    0 kbps          00:00:00.000    0 bytes         0 bytes         00:00:00.000    
2               0:03:50.363     0:03:58.271     0 kbps          0 kbps          00:00:00.000    0 kbps          00:00:00.000    0 kbps          00:00:00.000    0 bytes         0 bytes         00:00:00.000    
3               0:07:48.634     0:04:20.493     0 kbps          0 kbps          00:00:00.000    0 kbps          00:00:00.000    0 kbps          00:00:00.000    0 bytes         0 bytes         00:00:00.000    
4               0:12:09.128     0:05:24.757     0 kbps          0 kbps          00:00:00.000    0 kbps          00:00:00.000    0 kbps          00:00:00.000    0 bytes         0 bytes         00:00:00.000    
5               0:17:33.886     0:03:56.970     0 kbps          0 kbps          00:00:00.000    0 kbps          00:00:00.000    0 kbps          00:00:00.000    0 bytes         0 bytes         00:00:00.000    
6               0:21:30.856     0:05:13.913     0 kbps          0 kbps          00:00:00.000    0 kbps          00:00:00.000    0 kbps          00:00:00.000    0 bytes         0 bytes         00:00:00.000    
7               0:26:44.769     0:04:20.893     0 kbps          0 kbps          00:00:00.000    0 kbps          00:00:00.000    0 kbps          00:00:00.000    0 bytes         0 bytes         00:00:00.000    
8               0:31:05.663     0:05:23.056     0 kbps          0 kbps          00:00:00.000    0 kbps          00:00:00.000    0 kbps          00:00:00.000    0 bytes         0 bytes         00:00:00.000    
9               0:36:28.719     0:04:56.262     0 kbps          0 kbps          00:00:00.000    0 kbps          00:00:00.000    0 kbps          00:00:00.000    0 bytes         0 bytes         00:00:00.000    
10              0:41:24.982     0:05:02.802     0 kbps          0 kbps          00:00:00.000    0 kbps          00:00:00.000    0 kbps          00:00:00.000    0 bytes         0 bytes         00:00:00.000    
11              0:46:27.785     0:05:20.420     0 kbps          0 kbps          00:00:00.000    0 kbps          00:00:00.000    0 kbps          00:00:00.000    0 bytes         0 bytes         00:00:00.000    
12              0:51:48.205     0:06:35.928     0 kbps          0 kbps          00:00:00.000    0 kbps          00:00:00.000    0 kbps          00:00:00.000    0 bytes         0 bytes         00:00:00.000    
13              0:58:24.133     0:07:31.017     0 kbps          0 kbps          00:00:00.000    0 kbps          00:00:00.000    0 kbps          00:00:00.000    0 bytes         0 bytes         00:00:00.000    
14              1:05:55.151     0:06:09.302     0 kbps          0 kbps          00:00:00.000    0 kbps          00:00:00.000    0 kbps          00:00:00.000    0 bytes         0 bytes         00:00:00.000    
15              1:12:04.453     0:02:38.558     0 kbps          0 kbps          00:00:00.000    0 kbps          00:00:00.000    0 kbps          00:00:00.000    0 bytes         0 bytes         00:00:00.000    
16              1:14:43.011     0:06:50.843     0 kbps          0 kbps          00:00:00.000    0 kbps          00:00:00.000    0 kbps          00:00:00.000    0 bytes         0 bytes         00:00:00.000    
17              1:21:33.855     0:04:40.346     0 kbps          0 kbps          00:00:00.000    0 kbps          00:00:00.000    0 kbps          00:00:00.000    0 bytes         0 bytes         00:00:00.000    
18              1:26:14.202     0:02:57.143     0 kbps          0 kbps          00:00:00.000    0 kbps          00:00:00.000    0 kbps          00:00:00.000    0 bytes         0 bytes         00:00:00.000    
19              1:29:11.345     0:03:18.131     0 kbps          0 kbps          00:00:00.000    0 kbps          00:00:00.000    0 kbps          00:00:00.000    0 bytes         0 bytes         00:00:00.000    
20              1:32:29.477     0:06:27.487     0 kbps          0 kbps          00:00:00.000    0 kbps          00:00:00.000    0 kbps          00:00:00.000    0 bytes         0 bytes         00:00:00.000    

STREAM DIAGNOSTICS:

File            PID             Type            Codec           Language                Seconds                 Bitrate                 Bytes           Packets         
----            ---             ----            -----           --------                --------------          --------------          -------------   -----           
00002.M2TS      4113 (0x1011)   0x1B            AVC                                     0                       0                       0               0               
00002.M2TS      4352 (0x1100)   0x80            LPCM            eng (English)           0                       0                       0               0               
00002.M2TS      4353 (0x1101)   0x86            DTS-HD MA       eng (English)           0                       0                       0               0               

<–– END FORUMS PASTE ––>

QUICK SUMMARY:

Disc Title: Disc2
Disc Size: 23 714 176 932 bytes
Protection: AACS
BD-Java: No
Playlist: 00002.MPLS
Size: 0 bytes
Length: 1:38:56.964
Total Bitrate: 0,00 Mbps
Video: MPEG-4 AVC Video / 0 kbps / 1080i / 29,970 fps / 16:9 / High Profile 4.1
Audio: English / LPCM Audio / 2.0 / 48 kHz / 1536 kbps / 16-bit
Audio: English / DTS-HD Master Audio / 5.1 / 48 kHz / 16-bit (DTS Core: 5.1 / 48 kHz / 1509 kbps / 16-bit)


********************
PLAYLIST: 00004.MPLS
********************

<–- BEGIN FORUMS PASTE –->
                                                                                                                Total   Video                                             
Title                                                           Codec   Length  Movie Size      Disc Size       Bitrate Bitrate Main Audio Track                          Secondary Audio Track
-----                                                           ------  ------- --------------  --------------  ------- ------- ------------------                        ---------------------
00004.MPLS                                                      AVC     0:00:21 0               23 714 176 932  0,00    0,00                                              


DISC INFO:

Disc Title:     Disc2
Disc Size:      23 714 176 932 bytes
Protection:     AACS
BD-Java:        No
BDInfo:         0.5.8

PLAYLIST REPORT:

Name:                   00004.MPLS
Length:                 0:00:21.020 (h:m:s.ms)
Size:                   0 bytes
Total Bitrate:          0,00 Mbps

VIDEO:

Codec                   Bitrate             Description     
-----                   -------             -----------     
MPEG-4 AVC Video        0 kbps              1080i / 29,970 fps / 16:9 / High Profile 4.1

FILES:

Name            Time In         Length          Size            Total Bitrate   
----            -------         ------          ----            -------------   
00005.M2TS      0:00:00.000     0:00:10.510     0               0               
00006.M2TS      0:00:10.510     0:00:10.510     0               0               

CHAPTERS:

Number          Time In         Length          Avg Video Rate  Max 1-Sec Rate  Max 1-Sec Time  Max 5-Sec Rate  Max 5-Sec Time  Max 10Sec Rate  Max 10Sec Time  Avg Frame Size  Max Frame Size  Max Frame Time  
------          -------         ------          --------------  --------------  --------------  --------------  --------------  --------------  --------------  --------------  --------------  --------------  
1               0:00:00.000     0:00:21.020     0 kbps          0 kbps          00:00:00.000    0 kbps          00:00:00.000    0 kbps          00:00:00.000    0 bytes         0 bytes         00:00:00.000    

STREAM DIAGNOSTICS:

File            PID             Type            Codec           Language                Seconds                 Bitrate                 Bytes           Packets         
----            ---             ----            -----           --------                --------------          --------------          -------------   -----           
00005.M2TS      4113 (0x1011)   0x1B            AVC                                     0                       0                       0               0               
00006.M2TS      4113 (0x1011)   0x1B            AVC                                     0                       0                       0               0               

<–– END FORUMS PASTE ––>

QUICK SUMMARY:

Disc Title: Disc2
Disc Size: 23 714 176 932 bytes
Protection: AACS
BD-Java: No
Playlist: 00004.MPLS
Size: 0 bytes
Length: 0:00:21.020
Total Bitrate: 0,00 Mbps
Video: MPEG-4 AVC Video / 0 kbps / 1080i / 29,970 fps / 16:9 / High Profile 4.1


********************
PLAYLIST: 00003.MPLS
********************

<–- BEGIN FORUMS PASTE –->
                                                                                                                Total   Video                                             
Title                                                           Codec   Length  Movie Size      Disc Size       Bitrate Bitrate Main Audio Track                          Secondary Audio Track
-----                                                           ------  ------- --------------  --------------  ------- ------- ------------------                        ---------------------
00003.MPLS                                                      AVC     0:00:20 0               23 714 176 932  0,00    0,00    DTS-HD Master 5.1 (48kHz/16-bit)          


DISC INFO:

Disc Title:     Disc2
Disc Size:      23 714 176 932 bytes
Protection:     AACS
BD-Java:        No
BDInfo:         0.5.8

PLAYLIST REPORT:

Name:                   00003.MPLS
Length:                 0:00:20.053 (h:m:s.ms)
Size:                   0 bytes
Total Bitrate:          0,00 Mbps

VIDEO:

Codec                   Bitrate             Description     
-----                   -------             -----------     
MPEG-4 AVC Video        0 kbps              1080i / 29,970 fps / 16:9 / High Profile 4.1

AUDIO:

Codec                           Language        Bitrate         Description     
-----                           --------        -------         -----------     
DTS-HD Master Audio             English         0 kbps          5.1 / 48 kHz / 16-bit (DTS Core: 5.1 / 48 kHz / 1509 kbps / 16-bit)

FILES:

Name            Time In         Length          Size            Total Bitrate   
----            -------         ------          ----            -------------   
00003.M2TS      0:00:00.000     0:00:20.053     0               0               

CHAPTERS:

Number          Time In         Length          Avg Video Rate  Max 1-Sec Rate  Max 1-Sec Time  Max 5-Sec Rate  Max 5-Sec Time  Max 10Sec Rate  Max 10Sec Time  Avg Frame Size  Max Frame Size  Max Frame Time  
------          -------         ------          --------------  --------------  --------------  --------------  --------------  --------------  --------------  --------------  --------------  --------------  
1               0:00:00.000     0:00:20.053     0 kbps          0 kbps          00:00:00.000    0 kbps          00:00:00.000    0 kbps          00:00:00.000    0 bytes         0 bytes         00:00:00.000    

STREAM DIAGNOSTICS:

File            PID             Type            Codec           Language                Seconds                 Bitrate                 Bytes           Packets         
----            ---             ----            -----           --------                --------------          --------------          -------------   -----           
00003.M2TS      4113 (0x1011)   0x1B            AVC                                     0                       0                       0               0               
00003.M2TS      4352 (0x1100)   0x86            DTS-HD MA       eng (English)           0                       0                       0               0               

<–– END FORUMS PASTE ––>

QUICK SUMMARY:

Disc Title: Disc2
Disc Size: 23 714 176 932 bytes
Protection: AACS
BD-Java: No
Playlist: 00003.MPLS
Size: 0 bytes
Length: 0:00:20.053
Total Bitrate: 0,00 Mbps
Video: MPEG-4 AVC Video / 0 kbps / 1080i / 29,970 fps / 16:9 / High Profile 4.1
Audio: English / DTS-HD Master Audio / 5.1 / 48 kHz / 16-bit (DTS Core: 5.1 / 48 kHz / 1509 kbps / 16-bit)



Tracklist BD3 - L’Olympia, Paris, 3rd July 1995:

[01]. Honky Tonk Women
[02]. Tumbling Dice
[03]. You Got Me Rockin’
[04]. All Down The Line
[05]. Shattered
[06]. Beast Of Burden
[07]. Let It Bleed
[08]. Angie
[09]. Wild Horses
[10]. Down In The Bottom
[11]. Shine A Light
[12]. Like A Rolling Stone
[13]. I Go Wild
[14]. Miss you
[15]. Connection
[16]. Slipping Away
[17]. Midnight Rambler
[18]. Rip This Joint
[19]. Start Me Up
[20]. It’s Only Rock ‘n’ Roll
[21]. Brown Sugar
[22]. Jumpin’ Jack Flash

Disc Title: Disc3
Disc Size: 34 298 381 865 bytes
Protection: AACS
BD-Java: No
BDInfo: 0.5.8

Notes:

BDINFO HOME:
Cinema Squid
http://www.cinemasquid.com/blu-ray/tools/bdinfo

INCLUDES FORUMS REPORT FOR:
AVS Forum Blu-ray Audio and Video Specifications Thread
http://www.avsforum.com/avs-vb/showthread.php?t=1155731

WARNING: Report is incomplete because: Scan has not been run.

********************
PLAYLIST: 00002.MPLS
********************

<–- BEGIN FORUMS PASTE –->
                                                                                                                Total   Video                                             
Title                                                           Codec   Length  Movie Size      Disc Size       Bitrate Bitrate Main Audio Track                          Secondary Audio Track
-----                                                           ------  ------- --------------  --------------  ------- ------- ------------------                        ---------------------
00002.MPLS                                                      AVC     2:04:44 0               34 298 381 865  0,00    0,00    LPCM 2.0 1536Kbps (48kHz/16-bit)          DTS-HD Master 5.1 (48kHz/16-bit)


DISC INFO:

Disc Title:     Disc3
Disc Size:      34 298 381 865 bytes
Protection:     AACS
BD-Java:        No
BDInfo:         0.5.8

PLAYLIST REPORT:

Name:                   00002.MPLS
Length:                 2:04:44.977 (h:m:s.ms)
Size:                   0 bytes
Total Bitrate:          0,00 Mbps

VIDEO:

Codec                   Bitrate             Description     
-----                   -------             -----------     
MPEG-4 AVC Video        0 kbps              1080i / 29,970 fps / 16:9 / High Profile 4.1

AUDIO:

Codec                           Language        Bitrate         Description     
-----                           --------        -------         -----------     
LPCM Audio                      English         1536 kbps       2.0 / 48 kHz / 1536 kbps / 16-bit
DTS-HD Master Audio             English         0 kbps          5.1 / 48 kHz / 16-bit (DTS Core: 5.1 / 48 kHz / 1509 kbps / 16-bit)

FILES:

Name            Time In         Length          Size            Total Bitrate   
----            -------         ------          ----            -------------   
00002.M2TS      0:00:00.000     2:04:44.977     0               0               

CHAPTERS:

Number          Time In         Length          Avg Video Rate  Max 1-Sec Rate  Max 1-Sec Time  Max 5-Sec Rate  Max 5-Sec Time  Max 10Sec Rate  Max 10Sec Time  Avg Frame Size  Max Frame Size  Max Frame Time  
------          -------         ------          --------------  --------------  --------------  --------------  --------------  --------------  --------------  --------------  --------------  --------------  
1               0:00:00.000     0:04:48.888     0 kbps          0 kbps          00:00:00.000    0 kbps          00:00:00.000    0 kbps          00:00:00.000    0 bytes         0 bytes         00:00:00.000    
2               0:04:48.888     0:04:21.894     0 kbps          0 kbps          00:00:00.000    0 kbps          00:00:00.000    0 kbps          00:00:00.000    0 bytes         0 bytes         00:00:00.000    
3               0:09:10.783     0:03:36.249     0 kbps          0 kbps          00:00:00.000    0 kbps          00:00:00.000    0 kbps          00:00:00.000    0 bytes         0 bytes         00:00:00.000    
4               0:12:47.032     0:04:51.324     0 kbps          0 kbps          00:00:00.000    0 kbps          00:00:00.000    0 kbps          00:00:00.000    0 bytes         0 bytes         00:00:00.000    
5               0:17:38.357     0:04:33.573     0 kbps          0 kbps          00:00:00.000    0 kbps          00:00:00.000    0 kbps          00:00:00.000    0 bytes         0 bytes         00:00:00.000    
6               0:22:11.930     0:05:19.252     0 kbps          0 kbps          00:00:00.000    0 kbps          00:00:00.000    0 kbps          00:00:00.000    0 bytes         0 bytes         00:00:00.000    
7               0:27:31.182     0:05:18.718     0 kbps          0 kbps          00:00:00.000    0 kbps          00:00:00.000    0 kbps          00:00:00.000    0 bytes         0 bytes         00:00:00.000    
8               0:32:49.901     0:03:55.468     0 kbps          0 kbps          00:00:00.000    0 kbps          00:00:00.000    0 kbps          00:00:00.000    0 bytes         0 bytes         00:00:00.000    
9               0:36:45.369     0:05:49.849     0 kbps          0 kbps          00:00:00.000    0 kbps          00:00:00.000    0 kbps          00:00:00.000    0 bytes         0 bytes         00:00:00.000    
10              0:42:35.219     0:03:36.583     0 kbps          0 kbps          00:00:00.000    0 kbps          00:00:00.000    0 kbps          00:00:00.000    0 bytes         0 bytes         00:00:00.000    
11              0:46:11.802     0:05:05.171     0 kbps          0 kbps          00:00:00.000    0 kbps          00:00:00.000    0 kbps          00:00:00.000    0 bytes         0 bytes         00:00:00.000    
12              0:51:16.973     0:05:59.859     0 kbps          0 kbps          00:00:00.000    0 kbps          00:00:00.000    0 kbps          00:00:00.000    0 bytes         0 bytes         00:00:00.000    
13              0:57:16.833     0:07:32.318     0 kbps          0 kbps          00:00:00.000    0 kbps          00:00:00.000    0 kbps          00:00:00.000    0 bytes         0 bytes         00:00:00.000    
14              1:04:49.151     0:14:22.294     0 kbps          0 kbps          00:00:00.000    0 kbps          00:00:00.000    0 kbps          00:00:00.000    0 bytes         0 bytes         00:00:00.000    
15              1:19:11.446     0:04:03.042     0 kbps          0 kbps          00:00:00.000    0 kbps          00:00:00.000    0 kbps          00:00:00.000    0 bytes         0 bytes         00:00:00.000    
16              1:23:14.489     0:05:45.044     0 kbps          0 kbps          00:00:00.000    0 kbps          00:00:00.000    0 kbps          00:00:00.000    0 bytes         0 bytes         00:00:00.000    
17              1:28:59.534     0:10:10.910     0 kbps          0 kbps          00:00:00.000    0 kbps          00:00:00.000    0 kbps          00:00:00.000    0 bytes         0 bytes         00:00:00.000    
18              1:39:10.444     0:02:30.383     0 kbps          0 kbps          00:00:00.000    0 kbps          00:00:00.000    0 kbps          00:00:00.000    0 bytes         0 bytes         00:00:00.000    
19              1:41:40.828     0:04:18.491     0 kbps          0 kbps          00:00:00.000    0 kbps          00:00:00.000    0 kbps          00:00:00.000    0 bytes         0 bytes         00:00:00.000    
20              1:45:59.319     0:05:04.637     0 kbps          0 kbps          00:00:00.000    0 kbps          00:00:00.000    0 kbps          00:00:00.000    0 bytes         0 bytes         00:00:00.000    
21              1:51:03.957     0:06:04.163     0 kbps          0 kbps          00:00:00.000    0 kbps          00:00:00.000    0 kbps          00:00:00.000    0 bytes         0 bytes         00:00:00.000    
22              1:57:08.121     0:07:36.856     0 kbps          0 kbps          00:00:00.000    0 kbps          00:00:00.000    0 kbps          00:00:00.000    0 bytes         0 bytes         00:00:00.000    

STREAM DIAGNOSTICS:

File            PID             Type            Codec           Language                Seconds                 Bitrate                 Bytes           Packets         
----            ---             ----            -----           --------                --------------          --------------          -------------   -----           
00002.M2TS      4113 (0x1011)   0x1B            AVC                                     0                       0                       0               0               
00002.M2TS      4352 (0x1100)   0x80            LPCM            eng (English)           0                       0                       0               0               
00002.M2TS      4353 (0x1101)   0x86            DTS-HD MA       eng (English)           0                       0                       0               0               

<–– END FORUMS PASTE ––>

QUICK SUMMARY:

Disc Title: Disc3
Disc Size: 34 298 381 865 bytes
Protection: AACS
BD-Java: No
Playlist: 00002.MPLS
Size: 0 bytes
Length: 2:04:44.977
Total Bitrate: 0,00 Mbps
Video: MPEG-4 AVC Video / 0 kbps / 1080i / 29,970 fps / 16:9 / High Profile 4.1
Audio: English / LPCM Audio / 2.0 / 48 kHz / 1536 kbps / 16-bit
Audio: English / DTS-HD Master Audio / 5.1 / 48 kHz / 16-bit (DTS Core: 5.1 / 48 kHz / 1509 kbps / 16-bit)


********************
PLAYLIST: 00004.MPLS
********************

<–- BEGIN FORUMS PASTE –->
                                                                                                                Total   Video                                             
Title                                                           Codec   Length  Movie Size      Disc Size       Bitrate Bitrate Main Audio Track                          Secondary Audio Track
-----                                                           ------  ------- --------------  --------------  ------- ------- ------------------                        ---------------------
00004.MPLS                                                      AVC     0:00:21 0               34 298 381 865  0,00    0,00                                              


DISC INFO:

Disc Title:     Disc3
Disc Size:      34 298 381 865 bytes
Protection:     AACS
BD-Java:        No
BDInfo:         0.5.8

PLAYLIST REPORT:

Name:                   00004.MPLS
Length:                 0:00:21.020 (h:m:s.ms)
Size:                   0 bytes
Total Bitrate:          0,00 Mbps

VIDEO:

Codec                   Bitrate             Description     
-----                   -------             -----------     
MPEG-4 AVC Video        0 kbps              1080i / 29,970 fps / 16:9 / High Profile 4.1

FILES:

Name            Time In         Length          Size            Total Bitrate   
----            -------         ------          ----            -------------   
00005.M2TS      0:00:00.000     0:00:10.510     0               0               
00006.M2TS      0:00:10.510     0:00:10.510     0               0               

CHAPTERS:

Number          Time In         Length          Avg Video Rate  Max 1-Sec Rate  Max 1-Sec Time  Max 5-Sec Rate  Max 5-Sec Time  Max 10Sec Rate  Max 10Sec Time  Avg Frame Size  Max Frame Size  Max Frame Time  
------          -------         ------          --------------  --------------  --------------  --------------  --------------  --------------  --------------  --------------  --------------  --------------  
1               0:00:00.000     0:00:21.020     0 kbps          0 kbps          00:00:00.000    0 kbps          00:00:00.000    0 kbps          00:00:00.000    0 bytes         0 bytes         00:00:00.000    

STREAM DIAGNOSTICS:

File            PID             Type            Codec           Language                Seconds                 Bitrate                 Bytes           Packets         
----            ---             ----            -----           --------                --------------          --------------          -------------   -----           
00005.M2TS      4113 (0x1011)   0x1B            AVC                                     0                       0                       0               0               
00006.M2TS      4113 (0x1011)   0x1B            AVC                                     0                       0                       0               0               

<–– END FORUMS PASTE ––>

QUICK SUMMARY:

Disc Title: Disc3
Disc Size: 34 298 381 865 bytes
Protection: AACS
BD-Java: No
Playlist: 00004.MPLS
Size: 0 bytes
Length: 0:00:21.020
Total Bitrate: 0,00 Mbps
Video: MPEG-4 AVC Video / 0 kbps / 1080i / 29,970 fps / 16:9 / High Profile 4.1


********************
PLAYLIST: 00003.MPLS
********************

<–- BEGIN FORUMS PASTE –->
                                                                                                                Total   Video                                             
Title                                                           Codec   Length  Movie Size      Disc Size       Bitrate Bitrate Main Audio Track                          Secondary Audio Track
-----                                                           ------  ------- --------------  --------------  ------- ------- ------------------                        ---------------------
00003.MPLS                                                      AVC     0:00:20 0               34 298 381 865  0,00    0,00    DTS-HD Master 5.1 (48kHz/16-bit)          


DISC INFO:

Disc Title:     Disc3
Disc Size:      34 298 381 865 bytes
Protection:     AACS
BD-Java:        No
BDInfo:         0.5.8

PLAYLIST REPORT:

Name:                   00003.MPLS
Length:                 0:00:20.053 (h:m:s.ms)
Size:                   0 bytes
Total Bitrate:          0,00 Mbps

VIDEO:

Codec                   Bitrate             Description     
-----                   -------             -----------     
MPEG-4 AVC Video        0 kbps              1080i / 29,970 fps / 16:9 / High Profile 4.1

AUDIO:

Codec                           Language        Bitrate         Description     
-----                           --------        -------         -----------     
DTS-HD Master Audio             English         0 kbps          5.1 / 48 kHz / 16-bit (DTS Core: 5.1 / 48 kHz / 1509 kbps / 16-bit)

FILES:

Name            Time In         Length          Size            Total Bitrate   
----            -------         ------          ----            -------------   
00003.M2TS      0:00:00.000     0:00:20.053     0               0               

CHAPTERS:

Number          Time In         Length          Avg Video Rate  Max 1-Sec Rate  Max 1-Sec Time  Max 5-Sec Rate  Max 5-Sec Time  Max 10Sec Rate  Max 10Sec Time  Avg Frame Size  Max Frame Size  Max Frame Time  
------          -------         ------          --------------  --------------  --------------  --------------  --------------  --------------  --------------  --------------  --------------  --------------  
1               0:00:00.000     0:00:20.053     0 kbps          0 kbps          00:00:00.000    0 kbps          00:00:00.000    0 kbps          00:00:00.000    0 bytes         0 bytes         00:00:00.000    

STREAM DIAGNOSTICS:

File            PID             Type            Codec           Language                Seconds                 Bitrate                 Bytes           Packets         
----            ---             ----            -----           --------                --------------          --------------          -------------   -----           			  		 	 	  		 	    	 			   		  	   		  	   		   	  	 			   		   	  		  		  		 		   	 			   		 		   		  	 			 
00003.M2TS      4113 (0x1011)   0x1B            AVC                                     0                       0                       0               0               
00003.M2TS      4352 (0x1100)   0x86            DTS-HD MA       eng (English)           0                       0                       0               0               

<–– END FORUMS PASTE ––>

QUICK SUMMARY:

Disc Title: Disc3
Disc Size: 34 298 381 865 bytes
Protection: AACS
BD-Java: No
Playlist: 00003.MPLS
Size: 0 bytes
Length: 0:00:20.053
Total Bitrate: 0,00 Mbps
Video: MPEG-4 AVC Video / 0 kbps / 1080i / 29,970 fps / 16:9 / High Profile 4.1
Audio: English / DTS-HD Master Audio / 5.1 / 48 kHz / 16-bit (DTS Core: 5.1 / 48 kHz / 1509 kbps / 16-bit)



Tracklist BD4 - Brixton Academy, London, 19th July 1995:

[01]. Honky Tonk Women
[02]. Tumbling Dice
[03]. You Got Me Rockin’
[04]. Live With Me
[05]. Black Limousine
[06]. Dead Flowers
[07]. Sweet Virginia
[08]. Faraway Eyes
[09]. Love In Vain
[10]. Down In The Bottom
[11]. Shine A Light
[12]. Like A Rolling Stone
[13]. Monkey Man
[14]. I Go Wild
[15]. Miss You
[16]. Connection
[17]. Slipping Away
[18]. Midnight Rambler
[19]. Rip This Joint
[20]. Start Me Up
[21]. Brown Sugar
[22]. Jumpin’ Jack Flash

Disc Title: Disc4
Disc Size: 32 073 584 781 bytes
Protection: AACS
BD-Java: No
BDInfo: 0.5.8

Notes:

BDINFO HOME:
Cinema Squid
http://www.cinemasquid.com/blu-ray/tools/bdinfo

INCLUDES FORUMS REPORT FOR:
AVS Forum Blu-ray Audio and Video Specifications Thread
http://www.avsforum.com/avs-vb/showthread.php?t=1155731

WARNING: Report is incomplete because: Scan has not been run.

********************
PLAYLIST: 00002.MPLS
********************

<–- BEGIN FORUMS PASTE –->
                                                                                                                Total   Video                                             
Title                                                           Codec   Length  Movie Size      Disc Size       Bitrate Bitrate Main Audio Track                          Secondary Audio Track
-----                                                           ------  ------- --------------  --------------  ------- ------- ------------------                        ---------------------
00002.MPLS                                                      AVC     2:02:23 0               32 073 584 781  0,00    0,00    LPCM 2.0 1536Kbps (48kHz/16-bit)          DTS-HD Master 5.1 (48kHz/16-bit)


DISC INFO:

Disc Title:     Disc4
Disc Size:      32 073 584 781 bytes
Protection:     AACS
BD-Java:        No
BDInfo:         0.5.8

PLAYLIST REPORT:

Name:                   00002.MPLS
Length:                 2:02:23.002 (h:m:s.ms)
Size:                   0 bytes
Total Bitrate:          0,00 Mbps

VIDEO:

Codec                   Bitrate             Description     
-----                   -------             -----------     
MPEG-4 AVC Video        0 kbps              1080i / 29,970 fps / 16:9 / High Profile 4.1

AUDIO:

Codec                           Language        Bitrate         Description     
-----                           --------        -------         -----------     
LPCM Audio                      English         1536 kbps       2.0 / 48 kHz / 1536 kbps / 16-bit
DTS-HD Master Audio             English         0 kbps          5.1 / 48 kHz / 16-bit (DTS Core: 5.1 / 48 kHz / 1509 kbps / 16-bit)

FILES:

Name            Time In         Length          Size            Total Bitrate   
----            -------         ------          ----            -------------   
00002.M2TS      0:00:00.000     2:02:23.002     0               0               

CHAPTERS:

Number          Time In         Length          Avg Video Rate  Max 1-Sec Rate  Max 1-Sec Time  Max 5-Sec Rate  Max 5-Sec Time  Max 10Sec Rate  Max 10Sec Time  Avg Frame Size  Max Frame Size  Max Frame Time  
------          -------         ------          --------------  --------------  --------------  --------------  --------------  --------------  --------------  --------------  --------------  --------------  
1               0:00:00.000     0:05:40.273     0 kbps          0 kbps          00:00:00.000    0 kbps          00:00:00.000    0 kbps          00:00:00.000    0 bytes         0 bytes         00:00:00.000    
2               0:05:40.273     0:04:48.621     0 kbps          0 kbps          00:00:00.000    0 kbps          00:00:00.000    0 kbps          00:00:00.000    0 bytes         0 bytes         00:00:00.000    
3               0:10:28.894     0:03:23.736     0 kbps          0 kbps          00:00:00.000    0 kbps          00:00:00.000    0 kbps          00:00:00.000    0 bytes         0 bytes         00:00:00.000    
4               0:13:52.631     0:04:29.135     0 kbps          0 kbps          00:00:00.000    0 kbps          00:00:00.000    0 kbps          00:00:00.000    0 bytes         0 bytes         00:00:00.000    
5               0:18:21.767     0:04:03.309     0 kbps          0 kbps          00:00:00.000    0 kbps          00:00:00.000    0 kbps          00:00:00.000    0 bytes         0 bytes         00:00:00.000    
6               0:22:25.077     0:04:18.191     0 kbps          0 kbps          00:00:00.000    0 kbps          00:00:00.000    0 kbps          00:00:00.000    0 bytes         0 bytes         00:00:00.000    
7               0:26:43.268     0:04:41.147     0 kbps          0 kbps          00:00:00.000    0 kbps          00:00:00.000    0 kbps          00:00:00.000    0 bytes         0 bytes         00:00:00.000    
8               0:31:24.415     0:04:59.198     0 kbps          0 kbps          00:00:00.000    0 kbps          00:00:00.000    0 kbps          00:00:00.000    0 bytes         0 bytes         00:00:00.000    
9               0:36:23.614     0:05:27.927     0 kbps          0 kbps          00:00:00.000    0 kbps          00:00:00.000    0 kbps          00:00:00.000    0 bytes         0 bytes         00:00:00.000    
10              0:41:51.542     0:03:30.777     0 kbps          0 kbps          00:00:00.000    0 kbps          00:00:00.000    0 kbps          00:00:00.000    0 bytes         0 bytes         00:00:00.000    
11              0:45:22.319     0:04:47.654     0 kbps          0 kbps          00:00:00.000    0 kbps          00:00:00.000    0 kbps          00:00:00.000    0 bytes         0 bytes         00:00:00.000    
12              0:50:09.973     0:06:02.395     0 kbps          0 kbps          00:00:00.000    0 kbps          00:00:00.000    0 kbps          00:00:00.000    0 bytes         0 bytes         00:00:00.000    
13              0:56:12.369     0:04:29.669     0 kbps          0 kbps          00:00:00.000    0 kbps          00:00:00.000    0 kbps          00:00:00.000    0 bytes         0 bytes         00:00:00.000    
14              1:00:42.038     0:06:42.568     0 kbps          0 kbps          00:00:00.000    0 kbps          00:00:00.000    0 kbps          00:00:00.000    0 bytes         0 bytes         00:00:00.000    
15              1:07:24.607     0:15:00.232     0 kbps          0 kbps          00:00:00.000    0 kbps          00:00:00.000    0 kbps          00:00:00.000    0 bytes         0 bytes         00:00:00.000    
16              1:22:24.839     0:03:45.625     0 kbps          0 kbps          00:00:00.000    0 kbps          00:00:00.000    0 kbps          00:00:00.000    0 bytes         0 bytes         00:00:00.000    
17              1:26:10.465     0:05:58.324     0 kbps          0 kbps          00:00:00.000    0 kbps          00:00:00.000    0 kbps          00:00:00.000    0 bytes         0 bytes         00:00:00.000    
18              1:32:08.789     0:09:35.741     0 kbps          0 kbps          00:00:00.000    0 kbps          00:00:00.000    0 kbps          00:00:00.000    0 bytes         0 bytes         00:00:00.000    
19              1:41:44.531     0:02:23.943     0 kbps          0 kbps          00:00:00.000    0 kbps          00:00:00.000    0 kbps          00:00:00.000    0 bytes         0 bytes         00:00:00.000    
20              1:44:08.475     0:04:04.777     0 kbps          0 kbps          00:00:00.000    0 kbps          00:00:00.000    0 kbps          00:00:00.000    0 bytes         0 bytes         00:00:00.000    
21              1:48:13.253     0:06:18.711     0 kbps          0 kbps          00:00:00.000    0 kbps          00:00:00.000    0 kbps          00:00:00.000    0 bytes         0 bytes         00:00:00.000    
22              1:54:31.965     0:07:51.037     0 kbps          0 kbps          00:00:00.000    0 kbps          00:00:00.000    0 kbps          00:00:00.000    0 bytes         0 bytes         00:00:00.000    

STREAM DIAGNOSTICS:

File            PID             Type            Codec           Language                Seconds                 Bitrate                 Bytes           Packets         
----            ---             ----            -----           --------                --------------          --------------          -------------   -----           
00002.M2TS      4113 (0x1011)   0x1B            AVC                                     0                       0                       0               0               
00002.M2TS      4352 (0x1100)   0x80            LPCM            eng (English)           0                       0                       0               0               
00002.M2TS      4353 (0x1101)   0x86            DTS-HD MA       eng (English)           0                       0                       0               0               

<–– END FORUMS PASTE ––>

QUICK SUMMARY:

Disc Title: Disc4
Disc Size: 32 073 584 781 bytes
Protection: AACS
BD-Java: No
Playlist: 00002.MPLS
Size: 0 bytes
Length: 2:02:23.002
Total Bitrate: 0,00 Mbps
Video: MPEG-4 AVC Video / 0 kbps / 1080i / 29,970 fps / 16:9 / High Profile 4.1
Audio: English / LPCM Audio / 2.0 / 48 kHz / 1536 kbps / 16-bit
Audio: English / DTS-HD Master Audio / 5.1 / 48 kHz / 16-bit (DTS Core: 5.1 / 48 kHz / 1509 kbps / 16-bit)


********************
PLAYLIST: 00004.MPLS
********************

<–- BEGIN FORUMS PASTE –->
                                                                                                                Total   Video                                             
Title                                                           Codec   Length  Movie Size      Disc Size       Bitrate Bitrate Main Audio Track                          Secondary Audio Track
-----                                                           ------  ------- --------------  --------------  ------- ------- ------------------                        ---------------------
00004.MPLS                                                      AVC     0:00:21 0               32 073 584 781  0,00    0,00                                              


DISC INFO:

Disc Title:     Disc4
Disc Size:      32 073 584 781 bytes
Protection:     AACS
BD-Java:        No
BDInfo:         0.5.8

PLAYLIST REPORT:

Name:                   00004.MPLS
Length:                 0:00:21.020 (h:m:s.ms)
Size:                   0 bytes
Total Bitrate:          0,00 Mbps

VIDEO:

Codec                   Bitrate             Description     
-----                   -------             -----------     
MPEG-4 AVC Video        0 kbps              1080i / 29,970 fps / 16:9 / High Profile 4.1

FILES:

Name            Time In         Length          Size            Total Bitrate   
----            -------         ------          ----            -------------   
00005.M2TS      0:00:00.000     0:00:10.510     0               0               
00006.M2TS      0:00:10.510     0:00:10.510     0               0               

CHAPTERS:

Number          Time In         Length          Avg Video Rate  Max 1-Sec Rate  Max 1-Sec Time  Max 5-Sec Rate  Max 5-Sec Time  Max 10Sec Rate  Max 10Sec Time  Avg Frame Size  Max Frame Size  Max Frame Time  
------          -------         ------          --------------  --------------  --------------  --------------  --------------  --------------  --------------  --------------  --------------  --------------  
1               0:00:00.000     0:00:21.020     0 kbps          0 kbps          00:00:00.000    0 kbps          00:00:00.000    0 kbps          00:00:00.000    0 bytes         0 bytes         00:00:00.000    

STREAM DIAGNOSTICS:

File            PID             Type            Codec           Language                Seconds                 Bitrate                 Bytes           Packets         
----            ---             ----            -----           --------                --------------          --------------          -------------   -----           
00005.M2TS      4113 (0x1011)   0x1B            AVC                                     0                       0                       0               0               
00006.M2TS      4113 (0x1011)   0x1B            AVC                                     0                       0                       0               0               

<–– END FORUMS PASTE ––>

QUICK SUMMARY:

Disc Title: Disc4
Disc Size: 32 073 584 781 bytes
Protection: AACS
BD-Java: No
Playlist: 00004.MPLS
Size: 0 bytes
Length: 0:00:21.020
Total Bitrate: 0,00 Mbps
Video: MPEG-4 AVC Video / 0 kbps / 1080i / 29,970 fps / 16:9 / High Profile 4.1


********************
PLAYLIST: 00003.MPLS
********************

<–- BEGIN FORUMS PASTE –->
                                                                                                                Total   Video                                             
Title                                                           Codec   Length  Movie Size      Disc Size       Bitrate Bitrate Main Audio Track                          Secondary Audio Track
-----                                                           ------  ------- --------------  --------------  ------- ------- ------------------                        ---------------------
00003.MPLS                                                      AVC     0:00:20 0               32 073 584 781  0,00    0,00    DTS-HD Master 5.1 (48kHz/16-bit)          


DISC INFO:

Disc Title:     Disc4
Disc Size:      32 073 584 781 bytes
Protection:     AACS
BD-Java:        No
BDInfo:         0.5.8

PLAYLIST REPORT:

Name:                   00003.MPLS
Length:                 0:00:20.053 (h:m:s.ms)
Size:                   0 bytes
Total Bitrate:          0,00 Mbps

VIDEO:

Codec                   Bitrate             Description     
-----                   -------             -----------     
MPEG-4 AVC Video        0 kbps              1080i / 29,970 fps / 16:9 / High Profile 4.1

AUDIO:

Codec                           Language        Bitrate         Description     
-----                           --------        -------         -----------     
DTS-HD Master Audio             English         0 kbps          5.1 / 48 kHz / 16-bit (DTS Core: 5.1 / 48 kHz / 1509 kbps / 16-bit)

FILES:

Name            Time In         Length          Size            Total Bitrate   
----            -------         ------          ----            -------------   
00003.M2TS      0:00:00.000     0:00:20.053     0               0               

CHAPTERS:

Number          Time In         Length          Avg Video Rate  Max 1-Sec Rate  Max 1-Sec Time  Max 5-Sec Rate  Max 5-Sec Time  Max 10Sec Rate  Max 10Sec Time  Avg Frame Size  Max Frame Size  Max Frame Time  
------          -------         ------          --------------  --------------  --------------  --------------  --------------  --------------  --------------  --------------  --------------  --------------  
1               0:00:00.000     0:00:20.053     0 kbps          0 kbps          00:00:00.000    0 kbps          00:00:00.000    0 kbps          00:00:00.000    0 bytes         0 bytes         00:00:00.000    

STREAM DIAGNOSTICS:

File            PID             Type            Codec           Language                Seconds                 Bitrate                 Bytes           Packets         
----            ---             ----            -----           --------                --------------          --------------          -------------   -----           
00003.M2TS      4113 (0x1011)   0x1B            AVC                                     0                       0                       0               0               
00003.M2TS      4352 (0x1100)   0x86            DTS-HD MA       eng (English)           0                       0                       0               0               

<–– END FORUMS PASTE ––>

QUICK SUMMARY:

Disc Title: Disc4
Disc Size: 32 073 584 781 bytes
Protection: AACS
BD-Java: No
Playlist: 00003.MPLS
Size: 0 bytes
Length: 0:00:20.053
Total Bitrate: 0,00 Mbps
Video: MPEG-4 AVC Video / 0 kbps / 1080i / 29,970 fps / 16:9 / High Profile 4.1
Audio: English / DTS-HD Master Audio / 5.1 / 48 kHz / 16-bit (DTS Core: 5.1 / 48 kHz / 1509 kbps / 16-bit)



The Rolling Stones - Totally Stripped (2016) [4 x SD-Blu-ray]

The Rolling Stones - Totally Stripped (2016) [4 x SD-Blu-ray]

The Rolling Stones - Totally Stripped (2016) [4 x SD-Blu-ray]

The Rolling Stones - Totally Stripped (2016) [4 x SD-Blu-ray]

The Rolling Stones - Totally Stripped (2016) [4 x SD-Blu-ray]

The Rolling Stones - Totally Stripped (2016) [4 x SD-Blu-ray]

The Rolling Stones - Totally Stripped (2016) [4 x SD-Blu-ray]

The Rolling Stones - Totally Stripped (2016) [4 x SD-Blu-ray]

All thanks go to the original releaser

The Rolling Stones in my Blog

Download The Rolling Stones - Totally Stripped (2016):