Subcategories

The Savage Rose - Love And Freedom (2012)

Posted By: v3122
The Savage Rose - Love And Freedom (2012)

The Savage Rose - Love And Freedom (2012)
EAC Rip | Flac(Image) + Cue + Log & iPod M4A(Tracks) & MP3 CBR 320Kbps
Nordic 119 | ~ 273 or 276 or 117 Mb | Scans(jpg, 300dpi) Included
Psychedelic Rock

Savage Rose keep on producing excellent albums and have done so for more than 40 years now. The band members have changed during the years, but the quality and the one of a kind lead singer Annisette has remained. They have created albums in different styles and this is a more rock oriented album than previous ones. Savage Rose have a lot of fans in Scandinavia, and globally, but the big breakthrough is still missing. Hopefully this time then? I can only recommend that you take a good listen to one of the greatest singers there are.

By Mats, Amazon
The Savage Rose - Love And Freedom (2012)

The Savage Rose Biography

One of the most well-known rock groups from Continental Europe, Denmark's Savage Rose recorded a wealth of intriguing and eclectic progressive rock in the late '60s and '70s. In their early work, one hears faint echoes of the Airplane, Doors, Pink Floyd, and other psychedelic heavyweights combined with classical jazz and Danish-Euro folk elements. Their arrangements rely heavily on an incandescent, watery organ that sounds like nothing so much as psychedelic aquarium music. The most striking aspect of the band's sound, however, was the vocals of lead singer Annisette. Her childish wispy and sensual phrasing can suddenly break into jarring, almost histrionic wailing, like a Janis Joplin with Yoko Ono-isms, and eerily foreshadows Kate Bush's style.

Stars in their native land, Savage Rose also achieved a bit of underground success abroad, and several of their albums were released in North America. Between 1968 and 1978, the group released nine albums, moving from vaguely psychedelic rock and the heavily gospel-influenced Refugee to the nearly classical ballet score Dodens Triumf and the folky, nearly all-Danish Solen Var Ogsa Din (their first eight albums were sung entirely in English).
Always a radical band – the Black Panthers even invited the group to play at a benefit for Bobby Seale after hearing one of Savage Rose's records – they took the extremely radical step of withdrawing from the studio entirely by the end of 1970s to focus on using their music to support leftist political causes. Although they continued to make music and perform, they were often heard at benefits and free concerts, actually playing in Lebanese hospitals, schools, and refugee camps at the P.L.O.'s invitation. They eased back into recording in the early '80s with Danish-language efforts on small labels, eventually getting back into the mainstream music business with established distribution. Their mid-'90s album, Black Angel, was their first English-language recording in many years, and a substantial Danish hit. By this time the only remaining members from the original band were Thomas Koppel and Annisette (now his wife); Koppel also records and composes symphonic music as a solo artist.

by Richie Unterberger


The Savage Rose - Love And Freedom (2012)

The Savage Rose — датская психоделическая рок-группа, основанная в Копенгагане в 1967 году клавишниками Томасом и Андерсом Коппелями, ударником Алексом Рилем, басистом Йенсом Рюгстедом и певицей Аннисет Хансен при участии арфистки Ильзы Марии Коппель и Флеминга Остермана. При записи второго альбома к коллективу присоединился гитарист Нильс Туксен, заменивший Остермана. С середины 1970-х, группа представляла собой акустическое трио в составе Томаса Коппеля, Аннисет Хансен и Джона Равна. С середины 1990-х, группа вновь вернулась к использованию электронных инструментов.

by Raffaella Berry, progarchives
The Savage Rose - Love And Freedom (2012):

The Savage Rose - Love And Freedom (2012)

Tracklist:

01. Voice Of Revolution 05:13
02. No More Love To Give 04:25
03. Freedom To Love 04:00
04. You Made Me Stay 04:55
05. Soldier On The Run 05:14
06. Traveling Child 05:20
07. The Messenger 04:37
08. Heartbeat Of Love 03:51
09. There's A Lovesong 05:03

Exact Audio Copy V1.0 beta 1 from 15. November 2010

EAC extraction logfile from 31. October 2012, 19:44

Savage Rose / Love and Freedom

Used drive : Optiarc DVD RW AD-7200S Adapter: 2 ID: 1

Read mode : Secure
Utilize accurate stream : Yes
Defeat audio cache : Yes
Make use of C2 pointers : No

Read offset correction : 48
Overread into Lead-In and Lead-Out : No
Fill up missing offset samples with silence : Yes
Delete leading and trailing silent blocks : No
Null samples used in CRC calculations : Yes
Used interface : Native Win32 interface for Win NT & 2000
Gap handling : Appended to previous track

Used output format : User Defined Encoder
Selected bitrate : 896 kBit/s
Quality : High
Add ID3 tag : No
Command line compressor : C:\Program Files\Exact Audio Copy\FLAC\FLAC.EXE
Additional command line options : -8 -V -T "ARTIST=%a" -T "TITLE=%t" -T "ALBUM=%g" -T "DATE=%y" -T "TRACKNUMBER=%n" -T "TOTALTRACKS=%x" -T "GENRE=%m" -T "ALBUMARTIST=%v" -T "ALBUM ARTIST=%v" -T "COMMENT=EAC V1.0 beta 1, Secure Mode, Test & Copy, AccurateRip


TOC of the extracted CD

Track | Start | Length | Start sector | End sector
––––––––––––––––––––––––––––-
1 | 0:00.00 | 5:13.70 | 0 | 23544
2 | 5:13.70 | 4:25.64 | 23545 | 43483
3 | 9:39.59 | 4:00.57 | 43484 | 61540
4 | 13:40.41 | 4:55.44 | 61541 | 83709
5 | 18:36.10 | 5:14.07 | 83710 | 107266
6 | 23:50.17 | 5:20.45 | 107267 | 131311
7 | 29:10.62 | 4:37.12 | 131312 | 152098
8 | 33:47.74 | 3:51.42 | 152099 | 169465
9 | 37:39.41 | 5:03.38 | 169466 | 192228


Track 1

Filename C:\[runner's rip]\Savage Rose - Love And Freedom (2012) [flac]\01 - Voice of Revolution.wav

Pre-gap length 0:00:02.00

Peak level 90.3 %
Extraction speed 2.4 X
Track quality 100.0 %
Test CRC 8EE57A87
Copy CRC 8EE57A87
Track not present in AccurateRip database
Copy OK

Track 2

Filename C:\[runner's rip]\Savage Rose - Love And Freedom (2012) [flac]\02 - No More Love To Give.wav

Pre-gap length 0:00:01.62

Peak level 100.0 %
Extraction speed 2.6 X
Track quality 100.0 %
Test CRC A31AA27B
Copy CRC A31AA27B
Track not present in AccurateRip database
Copy OK

Track 3

Filename C:\[runner's rip]\Savage Rose - Love And Freedom (2012) [flac]\03 - Freedom to Love.wav

Pre-gap length 0:00:01.64

Peak level 94.4 %
Extraction speed 2.5 X
Track quality 99.9 %
Test CRC 6B9E326C
Copy CRC 6B9E326C
Track not present in AccurateRip database
Copy OK

Track 4

Filename C:\[runner's rip]\Savage Rose - Love And Freedom (2012) [flac]\04 - You Made Me Stay.wav

Pre-gap length 0:00:01.09

Peak level 89.1 %
Extraction speed 3.2 X
Track quality 100.0 %
Test CRC 6C23BE55
Copy CRC 6C23BE55
Track not present in AccurateRip database
Copy OK

Track 5

Filename C:\[runner's rip]\Savage Rose - Love And Freedom (2012) [flac]\05 - Soldier On The Run.wav

Pre-gap length 0:00:00.70

Peak level 89.1 %
Extraction speed 3.4 X
Track quality 100.0 %
Test CRC 118F9BA8
Copy CRC 118F9BA8
Track not present in AccurateRip database
Copy OK

Track 6

Filename C:\[runner's rip]\Savage Rose - Love And Freedom (2012) [flac]\06 - Traveling Child.wav

Pre-gap length 0:00:01.60

Peak level 89.1 %
Extraction speed 3.7 X
Track quality 100.0 %
Test CRC 907C5393
Copy CRC 907C5393
Track not present in AccurateRip database
Copy OK

Track 7

Filename C:\[runner's rip]\Savage Rose - Love And Freedom (2012) [flac]\07 - The Messenger.wav

Pre-gap length 0:00:02.12

Peak level 88.1 %
Extraction speed 3.8 X
Track quality 100.0 %
Test CRC 10FC50DA
Copy CRC 10FC50DA
Track not present in AccurateRip database
Copy OK

Track 8

Filename C:\[runner's rip]\Savage Rose - Love And Freedom (2012) [flac]\08 - Heartbeat of Love.wav

Pre-gap length 0:00:02.65

Peak level 89.1 %
Extraction speed 3.9 X
Track quality 100.0 %
Test CRC 3BA5CCEC
Copy CRC 3BA5CCEC
Track not present in AccurateRip database
Copy OK

Track 9

Filename C:\[runner's rip]\Savage Rose - Love And Freedom (2012) [flac]\09 - There's a Lovesong.wav

Pre-gap length 0:00:01.74

Peak level 78.6 %
Extraction speed 3.8 X
Track quality 99.9 %
Test CRC D5E23AE4
Copy CRC D5E23AE4
Track not present in AccurateRip database
Copy OK


None of the tracks are present in the AccurateRip database

No errors occurred

End of status report

foobar2000 1.1.18 / Dynamic Range Meter 1.1.1
log date: 2013-02-21 22:05:41

––––––––––––––––––––––––––––––––––––––––
Analyzed: Savage Rose / Love and Freedom
––––––––––––––––––––––––––––––––––––––––

DR Peak RMS Duration Track
––––––––––––––––––––––––––––––––––––––––
DR5 -0.88 dB -7.56 dB 5:14 01-Voice of Revolution
DR7 0.00 dB -10.91 dB 4:26 02-No More Love To Give
DR6 -0.50 dB -7.68 dB 4:01 03-Freedom to Love
DR7 -1.00 dB -10.28 dB 4:56 04-You Made Me Stay
DR6 -1.00 dB -9.11 dB 5:14 05-Soldier On The Run
DR8 -1.00 dB -12.94 dB 5:21 06-Traveling Child
DR5 -1.10 dB -8.03 dB 4:37 07-The Messenger
DR6 -1.00 dB -9.71 dB 3:52 08-Heartbeat of Love
DR6 -2.09 dB -10.79 dB 5:04 09-There's a Lovesong
––––––––––––––––––––––––––––––––––––––––

Number of tracks: 9
Official DR value: DR6

Samplerate: 44100 Hz
Channels: 2
Bits per sample: 16
Bitrate: 814 kbps
Codec: FLAC

The Savage Rose - Love And Freedom (2012)

All thanks go to runner

Download The Savage Rose - Love And Freedom (2012):