Subcategories

The Shadows - Kon-Tiki. 1958-1961 [2012, Jasmine Records, JASCD 205]

Posted By: v3122
The Shadows - Kon-Tiki. 1958-1961 [2012, Jasmine Records, JASCD 205]

The Shadows - Kon-Tiki. 1958-1961
EAC Rip | Flac(Image) + Cue + Log & iPod M4A(Tracks) & MP3 CBR 320Kbps
Surf Rock/Rock & Roll | ~ 611 or 615 or 307 Mb | Scans Included
2CD | 2012 | Jasmine Records, JASCD 205

With lead guitarist Hank B. Marvin's twangy, melodious Stratocaster, The Shadows provided the template and inspiration for a thousand copycat groups worldwide and were the most influential and successful British instrumental group of all time.

This compilation comprises everything they recorded between 1958 (when they were originally known as The Drifters) and the end of 1961, including an unfeasibly-rare South African EP.

Also includes a pre-Drifters single featuring Hank B. Marvin and Bruce Welch. When they were with The Five Chesternuts.

Features their worldwide hits: 'Apache' (a UK No. 1); 'Man of Mystery'; 'The Stranger', 'F.B.I.' (their signature tune); 'The Frightened City'; 'Kon-Tiki' (their second UK No. 1) and 'Peace Pipe'.

Also includes their chart-topping Eps 'Shadows' and 'Shadows to the Fore', as well as their chart-topping LP 'The Shadows'.

~ jasmine-records
The Shadows - Kon-Tiki. 1958-1961

The Shadows - Kon-Tiki. 1958-1961 [2012, Jasmine Records, JASCD 205]

Tracklist CD1:

1. JEAN DOROTHY - THE FIVE CHESTERNUTS
2. TEENAGE LOVE - THE FIVE CHESTERNUTS
3. FEELIN' FINE (as The Drifters)
4. DON'T BE A FOOL WITH LOVE (as The Drifters)
5. CHINCHILLA (as The Drifters)
6. JET BLACK (as The Drifters)
7. DRIFTIN' (as The Drifters)
8. SATURDAY DANCE
9. LONESOME FELLA
10. BONGO BLUES
11. APACHE
12. QUARTERMASTERS STORES
13. MAN OF MYSTERY
14. THE STRANGER
15. F.B.I.
16. MIDNIGHT
17. THE FRIGHTENED CITY
18. BACK HOME
19. KON-TIKI
20. 36-24-36
21. THE SAVAGE
22. PEACE PIPE

Exact Audio Copy V1.0 beta 3 from 29. August 2011

EAC extraction logfile from 17. January 2013, 20:15

The Shadows / Kon-Tiki 1958-1961 CD1

Used drive : ATAPI iHAS124 B Adapter: 2 ID: 0

Read mode : Secure
Utilize accurate stream : Yes
Defeat audio cache : Yes
Make use of C2 pointers : No

Read offset correction : 6
Overread into Lead-In and Lead-Out : No
Fill up missing offset samples with silence : Yes
Delete leading and trailing silent blocks : No
Null samples used in CRC calculations : Yes
Used interface : Native Win32 interface for Win NT & 2000

Used output format : User Defined Encoder
Selected bitrate : 1024 kBit/s
Quality : High
Add ID3 tag : No
Command line compressor : C:\Program Files (x86)\Exact Audio Copy\FLAC\FLAC.EXE
Additional command line options : -8 -V -T "ARTIST=%artist%" -T "TITLE=%title%" -T "ALBUM=%albumtitle%" -T "DATE=%year%" -T "TRACKNUMBER=%tracknr%" -T "GENRE=%genre%" -T "PERFORMER=%albuminterpret%" -T "COMPOSER=%composer%" %haslyrics%–tag-from-file=LYRICS="%lyricsfile%"%haslyrics% -T "ALBUMARTIST=%albumartist%" -T "DISCNUMBER=%cdnumber%" -T "TOTALDISCS=%totalcds%" -T "TOTALTRACKS=%numtracks%" -T "COMMENT=%comment%" %source% -o %dest%


TOC of the extracted CD

Track | Start | Length | Start sector | End sector
––––––––––––––––––––––––––––-
1 | 0:00.00 | 2:20.36 | 0 | 10535
2 | 2:20.36 | 2:21.01 | 10536 | 21111
3 | 4:41.37 | 1:58.20 | 21112 | 29981
4 | 6:39.57 | 2:07.54 | 29982 | 39560
5 | 8:47.36 | 1:57.67 | 39561 | 48402
6 | 10:45.28 | 2:30.03 | 48403 | 59655
7 | 13:15.31 | 2:34.57 | 59656 | 71262
8 | 15:50.13 | 1:45.71 | 71263 | 79208
9 | 17:36.09 | 2:35.12 | 79209 | 90845
10 | 20:11.21 | 1:47.00 | 90846 | 98870
11 | 21:58.21 | 2:57.22 | 98871 | 112167
12 | 24:55.43 | 2:24.20 | 112168 | 122987
13 | 27:19.63 | 2:02.60 | 122988 | 132197
14 | 29:22.48 | 2:43.71 | 132198 | 144493
15 | 32:06.44 | 2:21.08 | 144494 | 155076
16 | 34:27.52 | 2:32.63 | 155077 | 166539
17 | 37:00.40 | 2:24.18 | 166540 | 177357
18 | 39:24.58 | 2:44.43 | 177358 | 189700
19 | 42:09.26 | 1:56.40 | 189701 | 198440
20 | 44:05.66 | 1:44.64 | 198441 | 206304
21 | 45:50.55 | 2:25.04 | 206305 | 217183
22 | 48:15.59 | 2:14.15 | 217184 | 227248


Range status and errors

Selected range

Filename G:\CD\The Shadows - Kon-Tiki CD1.wav

Peak level 94.3 %
Extraction speed 5.6 X
Range quality 100.0 %
Test CRC EDB5F9B7
Copy CRC EDB5F9B7
Copy OK

No errors occurred


AccurateRip summary

Track 1 not present in database
Track 2 not present in database
Track 3 not present in database
Track 4 not present in database
Track 5 not present in database
Track 6 not present in database
Track 7 not present in database
Track 8 not present in database
Track 9 not present in database
Track 10 not present in database
Track 11 not present in database
Track 12 not present in database
Track 13 not present in database
Track 14 not present in database
Track 15 not present in database
Track 16 not present in database
Track 17 not present in database
Track 18 not present in database
Track 19 not present in database
Track 20 not present in database
Track 21 not present in database
Track 22 not present in database

None of the tracks are present in the AccurateRip database

End of status report

foobar2000 1.1.18 / Dynamic Range Meter 1.1.1
log date: 2013-02-14 11:11:36

––––––––––––––––––––––––––––––––––––––––
Analyzed: Five Chesternuts / Kon-Tiki 1958-1961 CD1 (1-2)
The Shadows As The Drifters / Kon-Tiki 1958-1961 CD1 (3-7)
The Shadows / Kon-Tiki 1958-1961 CD1 (8-22)
––––––––––––––––––––––––––––––––––––––––

DR Peak RMS Duration Track
––––––––––––––––––––––––––––––––––––––––
DR11 -1.13 dB -13.17 dB 2:20 01-Jean Dorothy
DR11 -0.51 dB -13.94 dB 2:21 02-Teenage Love
DR9 -0.51 dB -11.82 dB 1:58 03-Feelin' Fine
DR10 -0.51 dB -12.63 dB 2:08 04-Don't Be A Fool With Love
DR13 -0.51 dB -16.73 dB 1:58 05-Chinchilla
DR11 -0.51 dB -13.26 dB 2:30 06-Jet Black
DR10 -0.51 dB -13.57 dB 2:35 07-Driftin'
DR11 -0.51 dB -13.40 dB 1:46 08-Saturday Dance
DR12 -1.01 dB -15.27 dB 2:35 09-Lonesome Fella
DR12 -1.01 dB -15.13 dB 1:47 10-Bongo Blues
DR10 -1.01 dB -12.98 dB 2:57 11-Apache
DR11 -0.51 dB -13.43 dB 2:24 12-Quatermaster's Stores
DR11 -0.51 dB -13.91 dB 2:03 13-Man Of Mystery
DR12 -0.51 dB -14.14 dB 2:44 14-The Stranger
DR11 -1.01 dB -13.40 dB 2:21 15-F.B.I.
DR11 -1.51 dB -14.86 dB 2:33 16-Midnight
DR13 -0.51 dB -15.45 dB 2:24 17-The Frightened City
DR12 -0.51 dB -14.26 dB 2:45 18-Back Home
DR13 -0.51 dB -15.69 dB 1:57 19-Kon-Tiki
DR13 -0.51 dB -16.11 dB 1:45 20-36-24-36
DR13 -0.51 dB -14.97 dB 2:25 21-The Savage
DR13 -0.51 dB -16.10 dB 2:14 22-Peace Pipe
––––––––––––––––––––––––––––––––––––––––

Number of tracks: 22
Official DR value: DR11

Samplerate: 44100 Hz
Channels: 2
Bits per sample: 16
Bitrate: 661 kbps
Codec: FLAC

The Shadows - Kon-Tiki. 1958-1961 [2012, Jasmine Records, JASCD 205]

Tracklist CD2:

1. JET BLACK (Live) (as The Drifters)
2. DRIFTIN' (Live) (as The Drifters)
3. BE BOP A-LULA (Live) (as The Drifters)
4. MUSTANG
5. THEME FROM 'SHANE'
6. SHOTGUN
7. THEME FROM 'GIANT'
8. SHADOOGIE
9. BLUE STAR
10. NIVRAM
11. BABY MY HEART
12. SEE YOU IN MY DRUMS
13. ALL MY SORROWS
14. STAND UP AND SAY THAT
15. GONZALES
16. FIND ME A GOLDEN STREET
17. THEME FROM 'A FILLETED PLACE'
18. THAT'S MY DESIRE
19. MY RESISTANCE IS LOW
20. SLEEP WALK
21. BIG BOY
22. SHAZAM (Live)
23. GUITAR BOOGIE (Live)
24. F.B.I. (Live)
25. SLEEPWALK (Live)

Exact Audio Copy V1.0 beta 3 from 29. August 2011

EAC extraction logfile from 17. January 2013, 20:40

The Shadows / Kon-Tiki 1958-1961 CD2

Used drive : ATAPI iHAS124 B Adapter: 2 ID: 0

Read mode : Secure
Utilize accurate stream : Yes
Defeat audio cache : Yes
Make use of C2 pointers : No

Read offset correction : 6
Overread into Lead-In and Lead-Out : No
Fill up missing offset samples with silence : Yes
Delete leading and trailing silent blocks : No
Null samples used in CRC calculations : Yes
Used interface : Native Win32 interface for Win NT & 2000

Used output format : User Defined Encoder
Selected bitrate : 1024 kBit/s
Quality : High
Add ID3 tag : No
Command line compressor : C:\Program Files (x86)\Exact Audio Copy\FLAC\FLAC.EXE
Additional command line options : -8 -V -T "ARTIST=%artist%" -T "TITLE=%title%" -T "ALBUM=%albumtitle%" -T "DATE=%year%" -T "TRACKNUMBER=%tracknr%" -T "GENRE=%genre%" -T "PERFORMER=%albuminterpret%" -T "COMPOSER=%composer%" %haslyrics%–tag-from-file=LYRICS="%lyricsfile%"%haslyrics% -T "ALBUMARTIST=%albumartist%" -T "DISCNUMBER=%cdnumber%" -T "TOTALDISCS=%totalcds%" -T "TOTALTRACKS=%numtracks%" -T "COMMENT=%comment%" %source% -o %dest%


TOC of the extracted CD

Track | Start | Length | Start sector | End sector
––––––––––––––––––––––––––––-
1 | 0:00.00 | 2:14.10 | 0 | 10059
2 | 2:14.10 | 2:43.14 | 10060 | 22298
3 | 4:57.24 | 2:21.72 | 22299 | 32945
4 | 7:19.21 | 2:41.31 | 32946 | 45051
5 | 10:00.52 | 2:22.26 | 45052 | 55727
6 | 12:23.03 | 2:06.49 | 55728 | 65226
7 | 14:29.52 | 2:38.70 | 65227 | 77146
8 | 17:08.47 | 2:25.33 | 77147 | 88054
9 | 19:34.05 | 2:46.53 | 88055 | 100557
10 | 22:20.58 | 3:22.06 | 100558 | 115713
11 | 25:42.64 | 2:16.06 | 115714 | 125919
12 | 27:58.70 | 2:50.24 | 125920 | 138693
13 | 30:49.19 | 3:01.02 | 138694 | 152270
14 | 33:50.21 | 2:14.46 | 152271 | 162366
15 | 36:04.67 | 2:16.65 | 162367 | 172631
16 | 38:21.57 | 2:50.26 | 172632 | 185407
17 | 41:12.08 | 2:23.43 | 185408 | 196175
18 | 43:35.51 | 2:28.57 | 196176 | 207332
19 | 46:04.33 | 1:58.63 | 207333 | 216245
20 | 48:03.21 | 2:49.35 | 216246 | 228955
21 | 50:52.56 | 2:10.09 | 228956 | 238714
22 | 53:02.65 | 2:08.15 | 238715 | 248329
23 | 55:11.05 | 2:29.70 | 248330 | 259574
24 | 57:41.00 | 2:32.09 | 259575 | 270983
25 | 60:13.09 | 3:11.36 | 270984 | 285344


Range status and errors

Selected range

Filename G:\CD\The Shadows - Kon-Tiki CD2.wav

Peak level 94.3 %
Extraction speed 6.0 X
Range quality 100.0 %
Test CRC 04EFB726
Copy CRC 04EFB726
Copy OK

No errors occurred


AccurateRip summary

Track 1 not present in database
Track 2 not present in database
Track 3 not present in database
Track 4 not present in database
Track 5 not present in database
Track 6 not present in database
Track 7 not present in database
Track 8 not present in database
Track 9 not present in database
Track 10 not present in database
Track 11 not present in database
Track 12 not present in database
Track 13 not present in database
Track 14 not present in database
Track 15 not present in database
Track 16 not present in database
Track 17 not present in database
Track 18 not present in database
Track 19 not present in database
Track 20 not present in database
Track 21 not present in database
Track 22 not present in database
Track 23 not present in database
Track 24 not present in database
Track 25 not present in database

None of the tracks are present in the AccurateRip database

End of status report

foobar2000 1.1.18 / Dynamic Range Meter 1.1.1
log date: 2013-02-14 11:12:07

––––––––––––––––––––––––––––––––––––––––
Analyzed: The Shadows As The Drifters / Kon-Tiki 1958-1961 CD2 (1-3)
The Shadows / Kon-Tiki 1958-1961 CD2 (4-25)
––––––––––––––––––––––––––––––––––––––––

DR Peak RMS Duration Track
––––––––––––––––––––––––––––––––––––––––
DR13 -0.75 dB -17.48 dB 2:14 01-Jet Black (Live)
DR12 -0.78 dB -15.39 dB 2:43 02-Driftin' (Live)
DR10 -0.51 dB -12.98 dB 2:22 03-Be Bop A-Lula (Live)
DR13 -0.51 dB -16.05 dB 2:41 04-Mustang
DR14 -1.79 dB -17.32 dB 2:22 05-Theme From 'Shane'
DR13 -1.51 dB -16.33 dB 2:07 06-Shotgun
DR12 -2.01 dB -16.52 dB 2:39 07-Theme From 'Giant'
DR13 -0.51 dB -15.66 dB 2:25 08-Shadoogie
DR12 -0.51 dB -15.46 dB 2:47 09-Blue Star
DR13 -0.51 dB -17.29 dB 3:22 10-Nivram
DR13 -1.01 dB -16.83 dB 2:16 11-Baby My Heart
DR15 -1.51 dB -19.18 dB 2:50 12-See You In My Drums
DR12 -2.51 dB -17.88 dB 3:01 13-All My Sorrows
DR11 -1.01 dB -15.33 dB 2:15 14-Stand Up And Say That
DR12 -1.51 dB -16.53 dB 2:17 15-Gonzales
DR13 -0.51 dB -15.65 dB 2:50 16-Find Me A Golden Street
DR13 -0.51 dB -15.97 dB 2:24 17-Theme From 'A Filleted Place'
DR13 -1.51 dB -16.66 dB 2:29 18-That's My Desire
DR12 -1.01 dB -16.37 dB 1:59 19-My Resistance Is Low
DR13 -1.01 dB -17.48 dB 2:49 20-Sleepwalk
DR12 -1.01 dB -14.78 dB 2:10 21-Big Boy
DR10 -2.01 dB -12.70 dB 2:08 22-Shazam (Live)
DR10 -3.51 dB -14.51 dB 2:30 23-Guitar Boogie (Live)
DR10 -2.01 dB -13.22 dB 2:32 24-F.B.I. (Live)
DR11 -1.01 dB -14.66 dB 3:11 25-Sleepwalk (Live)
––––––––––––––––––––––––––––––––––––––––

Number of tracks: 25
Official DR value: DR12

Samplerate: 44100 Hz
Channels: 2
Bits per sample: 16
Bitrate: 699 kbps
Codec: FLAC

The Shadows - Kon-Tiki. 1958-1961 [2012, Jasmine Records, JASCD 205]

All thanks go to gerrV

Download The Shadows - Kon-Tiki. 1958-1961: