Subcategories

The Sixteen, Harry Christophers - The Deer's Cry: Arvo Pärt, William Byrd (2016)

Posted By: tirexiss
The Sixteen, Harry Christophers - The Deer's Cry: Arvo Pärt, William Byrd (2016)

The Sixteen, Harry Christophers - The Deer's Cry: Arvo Pärt, William Byrd (2016)
EAC | FLAC (image+.cue, log) | Covers + Digital Booklet | 66:52 | 275 MB
Genre: Classical | Label: Coro | Catalog: COR 16140

The popular choral group the Sixteen has never sounded better than on this release, and fans of the ensemble can buy with confidence in acquiring a set of classic English Renaissance pieces with a few modern works for spice. For the unconverted it's a bit less convincing, but it has a strong idea. The album title comes from the conventional name of a prayer of none other than St. Patrick, set in modern English by Arvo Pärt in 2007. There are two other works by Pärt on the album, both well known, but the rest of the music is by William Byrd and in a couple of cases, one collaborative, by Thomas Tallis. The idea of combining Byrd and Pärt is a very strong one. Both drew on the experience of being religious recusants, and it's fascinating to hear the musical results of this experience even with more than four centuries separating the works of the two composers. Director Harry Christophers establishes the simple, inward side of Byrd on the program, but also sets Byrd apart with such works as the palindromic Diliges Dominum (track one) and the intricate Ad Dominum cum tribularer (track seven). Sample a Byrd/Pärt pair, such as the familiar Emendemus in melius and The Woman with the Alabaster Box (tracks four and five) for an indication of the possible power of Christophers' approach here. The problem is that Pärt is outnumbered on the program: having drawn the connection between Byrd and Pärt, the performers give it short shrift. The result is a handsomely performed program, but one that treats Pärt as an ornament rather than exploring the commonalities among these composers in depth.

The Sixteen, Harry Christophers - The Deer's Cry: Arvo Pärt, William Byrd (2016)

Track List:

William Byrd (c.1540-1623)
[1] Diliges Dominum
[2] Christe qui lux es et dies
Arvo Pärt (b.1935)
[3] The Deer's Cry
William Byrd
[4] Emendemus in melius
Arvo Pärt
[5] The Woman with the Alabaster Box
William Byrd
[6] Miserere mihi, Domine
[7] Ad Dominum cum tribularer
Thomas Tallis / William Byrd
[8] Miserere nostri
Thomas Tallis (c.1505-1585)
[9] When Jesus went
William Byrd
[10] O lux beata Trinitas
Arvo Pärt
[11] Nunc dimittis
William Byrd
[12] Laetentur coeli
[13] Tribue, Domine

Performers:
The Sixteen
Harry Christophers

Exact Audio Copy V1.1 from 23. June 2015

EAC extraction logfile from 30. July 2016, 23:58

The Sixteen, Harry Christophers / The Deer’s Cry

Used drive : HL-DT-STDVDRAM GU70N Adapter: 1 ID: 0

Read mode : Secure
Utilize accurate stream : Yes
Defeat audio cache : Yes
Make use of C2 pointers : No

Read offset correction : 48
Overread into Lead-In and Lead-Out : No
Fill up missing offset samples with silence : Yes
Delete leading and trailing silent blocks : No
Null samples used in CRC calculations : Yes
Used interface : Native Win32 interface for Win NT & 2000

Used output format : User Defined Encoder
Selected bitrate : 128 kBit/s
Quality : High
Add ID3 tag : No
Command line compressor : C:\Program Files (x86)\Exact Audio Copy\Flac\flac.exe
Additional command line options : -V -8 -T "Date=%year%" -T "Genre=%genre%" %source%


TOC of the extracted CD

Track | Start | Length | Start sector | End sector
––––––––––––––––––––––––––––-
1 | 0:00.00 | 3:15.74 | 0 | 14698
2 | 3:15.74 | 4:54.63 | 14699 | 36811
3 | 8:10.62 | 4:23.23 | 36812 | 56559
4 | 12:34.10 | 3:58.70 | 56560 | 74479
5 | 16:33.05 | 6:11.72 | 74480 | 102376
6 | 22:45.02 | 2:24.74 | 102377 | 113250
7 | 25:10.01 | 10:12.34 | 113251 | 159184
8 | 35:22.35 | 3:00.02 | 159185 | 172686
9 | 38:22.37 | 2:37.35 | 172687 | 184496
10 | 40:59.72 | 4:10.32 | 184497 | 203278
11 | 45:10.29 | 6:40.15 | 203279 | 233293
12 | 51:50.44 | 3:28.09 | 233294 | 248902
13 | 55:18.53 | 11:31.36 | 248903 | 300763


Range status and errors

Selected range

Filename C:\temp\The Deer's Cry - The Sixteen, Christophers\The Deer’s Cry.wav

Peak level 94.8 %
Extraction speed 2.2 X
Range quality 100.0 %
Test CRC 707DA538
Copy CRC 707DA538
Copy OK

No errors occurred


AccurateRip summary

Track 1 not present in database
Track 2 not present in database
Track 3 not present in database
Track 4 not present in database
Track 5 not present in database
Track 6 not present in database
Track 7 not present in database
Track 8 not present in database
Track 9 not present in database
Track 10 not present in database
Track 11 not present in database
Track 12 not present in database
Track 13 not present in database

None of the tracks are present in the AccurateRip database

End of status report

==== Log checksum FE4E2B23FBD850FAB5EB28DD4C39B10F3EAE635444827661CFFC6A9369322851 ====

[CUETools log; Date: 31.05.2017 9:40:27; Version: 2.1.5]
[CTDB TOCID: hWNhUllaYJZUYWEs1FLhTQXTd2M-] found.
Track | CTDB Status
1 | (13/13) Accurately ripped
2 | (13/13) Accurately ripped
3 | (13/13) Accurately ripped
4 | (13/13) Accurately ripped
5 | (13/13) Accurately ripped
6 | (13/13) Accurately ripped
7 | (13/13) Accurately ripped
8 | (13/13) Accurately ripped
9 | (13/13) Accurately ripped
10 | (13/13) Accurately ripped
11 | (13/13) Accurately ripped
12 | (13/13) Accurately ripped
13 | (13/13) Accurately ripped
[AccurateRip ID: 001d00f4-01267f3f-9f0faa0d] found.
Track [ CRC | V2 ] Status
01 [e8b67878|c9c9e870] (0+2/2) Accurately ripped
02 [8d558b7f|4c2e34d0] (0+2/2) Accurately ripped
03 [816d2ccb|561b1e04] (0+1/2) Accurately ripped
04 [488c30f3|d41ee6e4] (0+1/2) Accurately ripped
05 [88a9f49b|331b336c] (0+1/2) Accurately ripped
06 [e6219052|8f52fe6c] (0+1/2) Accurately ripped
07 [26876f8f|53892f3d] (0+2/2) Accurately ripped
08 [13a5977e|c5f2e96a] (0+2/2) Accurately ripped
09 [371f3654|31a267c5] (0+2/2) Accurately ripped
10 [bc1a23f9|884a66d6] (0+2/2) Accurately ripped
11 [704a18eb|4e0e59d6] (0+1/2) Accurately ripped
12 [eff8fd00|7ec4d7c8] (0+2/2) Accurately ripped
13 [a3ca994f|bd7f3248] (0+2/2) Accurately ripped

Track Peak [ CRC32 ] [W/O NULL] [ LOG ]
– 94,8 [707DA538] [B9ACDB40] CRC32
01 40,6 [7880774B] [E11BD050]
02 73,4 [6B06851F] [B056D20C]
03 77,1 [C08D2944] [A00B3B92]
04 89,7 [B8BE13D2] [F7E8377A]
05 67,4 [404F83E5] [D6A8A8D9]
06 56,8 [B8993909] [6E07E402]
07 67,0 [8F8BED69] [87AE3B13]
08 44,9 [6F975CA8] [5D708367]
09 30,3 [F60F0D89] [21CEE8EF]
10 72,5 [587B6D35] [C2EEF90A]
11 94,8 [71475234] [9849D74E]
12 67,6 [A53F91ED] [6E71643C]
13 92,3 [A1EE29EA] [E7DE208D]

Thanks to the Original ripper A-Z!

Download: