Subcategories

The Smithereens - God Save The Smithereens (1999) [2CD, Deluxe Edition]

Posted By: v3122
The Smithereens - God Save The Smithereens (1999) [2CD, Deluxe Edition]

The Smithereens - God Save The Smithereens (1999)
EAC | Flac(Image) + Cue + Log & MP3 CBR 320Kbps
2005 | Koch Records, KOC-CD-9687 | ~ 953 or 333 Mb | Scans(jpg) -> 157 Mb
Alternative Rock / Indie Rock

After two decades, the Smithereens were no longer in step with the times and they no longer cared – they do what they do because they love it, not because it's fashionable. They were at that point with 1994's A Date With the Smithereens, but that record was hurt by a weird undercurrent of bitterness and Pat DiNizio's songwriting slump. Wisely, the group decided to take a break after that album. The extended five-year hiatus recharged the group, if God Save the Smithereens is any indication. Not that the record is a masterpiece, but it is a good journeyman record that plays up their strengths quite nicely. There's a little bit of everything that the Smithereens do on the record – jangly pop ("She's Got a Way"), doomy rock ("The Last Good Time"), melancholy ballads, crunching riffs, and even a reworking of "Gloomy Sunday," reminiscent of DiNizio's moody solo effort. The Kinks allusion in the title is appropriate, since the Smithereens are also pop traditionalists whose consistency is only appreciated by a selective, discerning audience. Unlike Ray Davies, no one in the band really seems to care about the hits drying up – there's joy within their songcraft and their performances, since they like the act of making music itself. Admittedly, God Save may not be as immediate or memorable as their best albums from the late '80s, but there are no weak moments on the record. Every song is well-crafted and delivered with conviction – the very things that made the Smithereens a beloved cult band. God Save the Smithereens may not play to the wide audience that loved "A Girl Like You," but that cult will certainly be pleased by this strong comeback. [The deluxe edition of the album added bonus demos of the God Save material. It was also bundled with Pat DiNizio's 1997 solo album, Songs and Sounds, which itself featured bonus track demos and live material.]

by Stephen Thomas Erlewine, AMG
The Smithereens - God Save The Smithereens (1999) [2CD, Deluxe Edition]


The Smithereens - God Save The Smithereens (1999):

The Smithereens - God Save The Smithereens (1999) [2CD, Deluxe Edition]

Tracklist CD1 - God Save The Smithereens:

01. She's Got a Way (03:25)
02. House at the End of the World (03:35)
03. Everything Changes (02:15)
04. Flowers in the Blood (03:37)
05. The Long Loneliness (01:39)
06. Someday (03:31)
07. The Age of Innocence (04:09)
08. Gloomy Sunday (03:41)
09. I Believe (03:12)
10. All Revved Up (02:08)
11. Even If I Never Get Back Home (02:44)
12. Try (04:12)
13. The Last Good Time (03:29)

Bonus Tracks:
14. A World Apart (demo) (02:59)
15. This Is the Way the World Ends (demo) (03:44)
16. King of the World (demo) (4:01)
17. Sundown (demo) (03:31)
18. All Revved Up (demo) (02:46)
19. On the Beach (demo) (01:38)
20. House at the End of the World (EP version) (04:02)
21. I Want to Tell You (03:12)

Exact Audio Copy V1.0 beta 1 from 15. November 2010

EAC extraction logfile from 25. March 2011, 16:36

The Smithereens / God Save The Smithereens (Deluxe Edition) CD 1

Used drive : ATAPI DVD D DH16D3S Adapter: 0 ID: 2

Read mode : Secure
Utilize accurate stream : Yes
Defeat audio cache : Yes
Make use of C2 pointers : No

Read offset correction : 6
Overread into Lead-In and Lead-Out : No
Fill up missing offset samples with silence : Yes
Delete leading and trailing silent blocks : No
Null samples used in CRC calculations : Yes
Used interface : Native Win32 interface for Win NT & 2000
Gap handling : Appended to previous track

Used output format : User Defined Encoder
Selected bitrate : 896 kBit/s
Quality : High
Add ID3 tag : No
Command line compressor : C:\Program Files (x86)\Exact Audio Copy\Flac\flac.exe
Additional command line options : -V -8 -T "artist=%a" -T "title=%t" -T "album=%g" -T "date=%y" -T "tracknumber=%n" -T "genre=%m" %s


TOC of the extracted CD

Track | Start | Length | Start sector | End sector
––––––––––––––––––––––––––––-
1 | 0:00.00 | 3:25.46 | 0 | 15420
2 | 3:25.46 | 3:35.06 | 15421 | 31551
3 | 7:00.52 | 2:15.13 | 31552 | 41689
4 | 9:15.65 | 3:37.01 | 41690 | 57965
5 | 12:52.66 | 1:39.49 | 57966 | 65439
6 | 14:32.40 | 3:31.48 | 65440 | 81312
7 | 18:04.13 | 4:09.34 | 81313 | 100021
8 | 22:13.47 | 3:41.48 | 100022 | 116644
9 | 25:55.20 | 3:12.09 | 116645 | 131053
10 | 29:07.29 | 2:08.73 | 131054 | 140726
11 | 31:16.27 | 2:44.21 | 140727 | 153047
12 | 34:00.48 | 4:12.36 | 153048 | 171983
13 | 38:13.09 | 3:29.31 | 171984 | 187689
14 | 41:42.40 | 2:59.43 | 187690 | 201157
15 | 44:42.08 | 3:44.61 | 201158 | 218018
16 | 48:26.69 | 4:01.22 | 218019 | 236115
17 | 52:28.16 | 3:31.05 | 236116 | 251945
18 | 55:59.21 | 2:46.11 | 251946 | 264406
19 | 58:45.32 | 1:38.63 | 264407 | 271819
20 | 60:24.20 | 4:02.49 | 271820 | 290018
21 | 64:26.69 | 3:12.01 | 290019 | 304419


Track 1

Filename C:\Users\Public\Smithereens, The - God Save The Smithereens\Smithereens, The - God Save The Smithereens (2005 Deluxe Edition) - flac\CD 1\01. She's Got A Way.wav

Pre-gap length 0:00:02.00

Peak level 99.8 %
Extraction speed 4.2 X
Track quality 100.0 %
Test CRC 38D536CB
Copy CRC 38D536CB
Accurately ripped (confidence 4) [55CEC185]
Copy OK

Track 2

Filename C:\Users\Public\Smithereens, The - God Save The Smithereens\Smithereens, The - God Save The Smithereens (2005 Deluxe Edition) - flac\CD 1\02. House At The End Of The World.wav

Peak level 99.8 %
Extraction speed 4.6 X
Track quality 100.0 %
Test CRC 5B2D5652
Copy CRC 5B2D5652
Accurately ripped (confidence 4) [5C637609]
Copy OK

Track 3

Filename C:\Users\Public\Smithereens, The - God Save The Smithereens\Smithereens, The - God Save The Smithereens (2005 Deluxe Edition) - flac\CD 1\03. Everything Changes.wav

Peak level 99.8 %
Extraction speed 4.4 X
Track quality 100.0 %
Test CRC 210FBAA1
Copy CRC 210FBAA1
Accurately ripped (confidence 4) [18E0BE23]
Copy OK

Track 4

Filename C:\Users\Public\Smithereens, The - God Save The Smithereens\Smithereens, The - God Save The Smithereens (2005 Deluxe Edition) - flac\CD 1\04. Flowers In The Blood.wav

Peak level 99.8 %
Extraction speed 5.2 X
Track quality 100.0 %
Test CRC 54A3CA47
Copy CRC 54A3CA47
Accurately ripped (confidence 3) [74F03B49]
Copy OK

Track 5

Filename C:\Users\Public\Smithereens, The - God Save The Smithereens\Smithereens, The - God Save The Smithereens (2005 Deluxe Edition) - flac\CD 1\05. The Long Loneliness.wav

Peak level 99.8 %
Extraction speed 4.6 X
Track quality 100.0 %
Test CRC 7A9FF7D8
Copy CRC 7A9FF7D8
Accurately ripped (confidence 4) [814D9F5D]
Copy OK

Track 6

Filename C:\Users\Public\Smithereens, The - God Save The Smithereens\Smithereens, The - God Save The Smithereens (2005 Deluxe Edition) - flac\CD 1\06. Someday.wav

Peak level 99.8 %
Extraction speed 5.7 X
Track quality 100.0 %
Test CRC CA4EF058
Copy CRC CA4EF058
Accurately ripped (confidence 4) [A822C1AD]
Copy OK

Track 7

Filename C:\Users\Public\Smithereens, The - God Save The Smithereens\Smithereens, The - God Save The Smithereens (2005 Deluxe Edition) - flac\CD 1\07. The Age Of Innocence.wav

Peak level 99.8 %
Extraction speed 6.2 X
Track quality 100.0 %
Test CRC 7AC231FB
Copy CRC 7AC231FB
Accurately ripped (confidence 4) [7368B6A8]
Copy OK

Track 8

Filename C:\Users\Public\Smithereens, The - God Save The Smithereens\Smithereens, The - God Save The Smithereens (2005 Deluxe Edition) - flac\CD 1\08. Gloomy Sunday.wav

Peak level 99.8 %
Extraction speed 6.4 X
Track quality 100.0 %
Test CRC 3526A9E4
Copy CRC 3526A9E4
Accurately ripped (confidence 3) [629FB5A1]
Copy OK

Track 9

Filename C:\Users\Public\Smithereens, The - God Save The Smithereens\Smithereens, The - God Save The Smithereens (2005 Deluxe Edition) - flac\CD 1\09. I Believe.wav

Peak level 99.8 %
Extraction speed 6.5 X
Track quality 100.0 %
Test CRC FD235C3A
Copy CRC FD235C3A
Accurately ripped (confidence 3) [C15BBF61]
Copy OK

Track 10

Filename C:\Users\Public\Smithereens, The - God Save The Smithereens\Smithereens, The - God Save The Smithereens (2005 Deluxe Edition) - flac\CD 1\10. All Revved Up.wav

Peak level 99.8 %
Extraction speed 6.1 X
Track quality 100.0 %
Test CRC DE1DECC8
Copy CRC DE1DECC8
Accurately ripped (confidence 4) [D76CBECE]
Copy OK

Track 11

Filename C:\Users\Public\Smithereens, The - God Save The Smithereens\Smithereens, The - God Save The Smithereens (2005 Deluxe Edition) - flac\CD 1\11. Even If I Never Get Back Home.wav

Peak level 99.8 %
Extraction speed 6.6 X
Track quality 100.0 %
Test CRC BF317EF5
Copy CRC BF317EF5
Accurately ripped (confidence 4) [39DFEBD9]
Copy OK

Track 12

Filename C:\Users\Public\Smithereens, The - God Save The Smithereens\Smithereens, The - God Save The Smithereens (2005 Deluxe Edition) - flac\CD 1\12. Try.wav

Peak level 99.8 %
Extraction speed 7.3 X
Track quality 100.0 %
Test CRC 5C209568
Copy CRC 5C209568
Accurately ripped (confidence 3) [3A9C0959]
Copy OK

Track 13

Filename C:\Users\Public\Smithereens, The - God Save The Smithereens\Smithereens, The - God Save The Smithereens (2005 Deluxe Edition) - flac\CD 1\13. The Last Good Time.wav

Peak level 99.8 %
Extraction speed 7.4 X
Track quality 100.0 %
Test CRC 2AB93689
Copy CRC 2AB93689
Accurately ripped (confidence 3) [14CB1EE4]
Copy OK

Track 14

Filename C:\Users\Public\Smithereens, The - God Save The Smithereens\Smithereens, The - God Save The Smithereens (2005 Deluxe Edition) - flac\CD 1\14. A World Apart Smithereens (Dem.wav

Peak level 97.7 %
Extraction speed 7.3 X
Track quality 100.0 %
Test CRC 43B252E5
Copy CRC 43B252E5
Accurately ripped (confidence 4) [B0D4A1FB]
Copy OK

Track 15

Filename C:\Users\Public\Smithereens, The - God Save The Smithereens\Smithereens, The - God Save The Smithereens (2005 Deluxe Edition) - flac\CD 1\15. This Is The Way The World Ends.wav

Pre-gap length 0:00:02.00

Peak level 76.7 %
Extraction speed 6.4 X
Track quality 99.9 %
Test CRC EDDAF877
Copy CRC EDDAF877
Accurately ripped (confidence 3) [7FF0ADF0]
Copy OK

Track 16

Filename C:\Users\Public\Smithereens, The - God Save The Smithereens\Smithereens, The - God Save The Smithereens (2005 Deluxe Edition) - flac\CD 1\16. King Of The World (Demo).wav

Pre-gap length 0:00:02.00

Peak level 84.1 %
Extraction speed 8.2 X
Track quality 100.0 %
Test CRC 10355C22
Copy CRC 10355C22
Accurately ripped (confidence 3) [CAE2A3A2]
Copy OK

Track 17

Filename C:\Users\Public\Smithereens, The - God Save The Smithereens\Smithereens, The - God Save The Smithereens (2005 Deluxe Edition) - flac\CD 1\17. Sundown (Demo).wav

Pre-gap length 0:00:02.00

Peak level 73.3 %
Extraction speed 8.2 X
Track quality 100.0 %
Test CRC 5B28824D
Copy CRC 5B28824D
Accurately ripped (confidence 3) [46E3F11B]
Copy OK

Track 18

Filename C:\Users\Public\Smithereens, The - God Save The Smithereens\Smithereens, The - God Save The Smithereens (2005 Deluxe Edition) - flac\CD 1\18. All Revved Up (Demo).wav

Pre-gap length 0:00:02.00

Peak level 77.6 %
Extraction speed 8.1 X
Track quality 100.0 %
Test CRC 9EBB9F83
Copy CRC 9EBB9F83
Accurately ripped (confidence 3) [08DD7760]
Copy OK

Track 19

Filename C:\Users\Public\Smithereens, The - God Save The Smithereens\Smithereens, The - God Save The Smithereens (2005 Deluxe Edition) - flac\CD 1\19. On The Beach (Demo).wav

Pre-gap length 0:00:02.00

Peak level 75.8 %
Extraction speed 7.0 X
Track quality 100.0 %
Test CRC 2B9ACC2A
Copy CRC 2B9ACC2A
Accurately ripped (confidence 3) [0701E5AF]
Copy OK

Track 20

Filename C:\Users\Public\Smithereens, The - God Save The Smithereens\Smithereens, The - God Save The Smithereens (2005 Deluxe Edition) - flac\CD 1\20. House At The End Of The World.wav

Pre-gap length 0:00:02.00

Peak level 78.5 %
Extraction speed 8.8 X
Track quality 100.0 %
Test CRC 66C4EF37
Copy CRC 66C4EF37
Accurately ripped (confidence 3) [C317FE61]
Copy OK

Track 21

Filename C:\Users\Public\Smithereens, The - God Save The Smithereens\Smithereens, The - God Save The Smithereens (2005 Deluxe Edition) - flac\CD 1\21. I Want To Tell You.wav

Pre-gap length 0:00:02.00

Peak level 95.5 %
Extraction speed 8.6 X
Track quality 100.0 %
Test CRC 684A73F1
Copy CRC 684A73F1
Accurately ripped (confidence 3) [B2A94812]
Copy OK


All tracks accurately ripped

No errors occurred

End of status report

foobar2000 1.2.9 / Dynamic Range Meter 1.1.1
log date: 2015-10-26 21:20:43

––––––––––––––––––––––––––––––––––––––––
Analyzed: The Smithereens / God Save The Smithereens (Deluxe Edition) CD 1
––––––––––––––––––––––––––––––––––––––––

DR Peak RMS Duration Track
––––––––––––––––––––––––––––––––––––––––
DR8 -0.01 dB -8.56 dB 3:26 01-She's Got A Way
DR8 -0.01 dB -9.39 dB 3:35 02-House At The End Of The World
DR8 -0.01 dB -10.08 dB 2:15 03-Everything Changes
DR8 -0.01 dB -8.97 dB 3:37 04-Flowers In The Blood
DR8 -0.01 dB -8.87 dB 1:40 05-The Long Loneliness
DR8 -0.01 dB -8.88 dB 3:32 06-Someday
DR9 -0.01 dB -10.54 dB 4:09 07-The Age Of Innocence
DR9 -0.01 dB -10.38 dB 3:42 08-Gloomy Sunday
DR7 -0.01 dB -8.13 dB 3:12 09-I Believe
DR8 -0.01 dB -8.48 dB 2:09 10-All Revved Up
DR7 -0.01 dB -8.96 dB 2:44 11-Even If I Never Get Back Home
DR8 -0.01 dB -9.38 dB 4:12 12-Try
DR7 -0.01 dB -8.68 dB 3:29 13-The Last Good Time
DR7 -0.20 dB -8.58 dB 3:00 14-A World Apart Smithereens (Dem
DR4 -2.30 dB -7.51 dB 3:45 15-This Is The Way The World Ends
DR4 -1.50 dB -7.35 dB 4:01 16-King Of The World (Demo)
DR6 -2.70 dB -9.71 dB 3:31 17-Sundown (Demo)
DR3 -2.20 dB -7.03 dB 2:46 18-All Revved Up (Demo)
DR9 -2.40 dB -12.01 dB 1:39 19-On The Beach (Demo)
DR5 -2.10 dB -8.75 dB 4:03 20-House At The End Of The World
DR5 -0.40 dB -7.32 dB 3:12 21-I Want To Tell You
––––––––––––––––––––––––––––––––––––––––

Number of tracks: 21
Official DR value: DR7

Samplerate: 44100 Hz
Channels: 2
Bits per sample: 16
Bitrate: 962 kbps
Codec: FLAC

[CUETools log; Date: 23.10.2015 21:11:27; Version: 2.1.4]
[AccurateRip ID: 0032d969-030e1680-410fda15] found.
Track [ CRC | V2 ] Status
01 [55cec185|88006118] (4+2/8) Accurately ripped
02 [5c637609|6033b7e6] (4+2/8) Accurately ripped
03 [18e0be23|4b2e246e] (4+2/8) Accurately ripped
04 [74f03b49|bfe3cdb5] (3+2/7) Accurately ripped
05 [814d9f5d|cc297708] (4+2/8) Accurately ripped
06 [a822c1ad|74b3a84e] (4+2/8) Accurately ripped
07 [7368b6a8|945aa2e5] (4+2/8) Accurately ripped
08 [629fb5a1|5639cab0] (3+2/7) Accurately ripped
09 [c15bbf61|87ca538f] (3+2/7) Accurately ripped
10 [d76cbece|940787e9] (4+2/8) Accurately ripped
11 [39dfebd9|51a131cc] (4+2/8) Accurately ripped
12 [3a9c0959|28e124cb] (3+2/7) Accurately ripped
13 [14cb1ee4|9c9d1796] (3+2/7) Accurately ripped
14 [b0d4a1fb|28e7d160] (4+2/8) Accurately ripped
15 [7ff0adf0|b99461c7] (3+2/7) Accurately ripped
16 [cae2a3a2|19425ded] (3+2/7) Accurately ripped
17 [46e3f11b|6948d26c] (3+2/7) Accurately ripped
18 [08dd7760|abfb6b65] (3+2/7) Accurately ripped
19 [0701e5af|7199477f] (3+2/7) Accurately ripped
20 [c317fe61|324658f7] (3+2/7) Accurately ripped
21 [b2a94812|198a004d] (3+2/7) Accurately ripped
Offsetted by 634:
01 [40a5f11f] (0/8) No match (V2 was not tested)
02 [89e26ae4] (0/8) No match (V2 was not tested)
03 [3fb20ee5] (0/8) No match (V2 was not tested)
04 [6b41196c] (0/7) No match (V2 was not tested)
05 [59a1e7aa] (0/8) No match (V2 was not tested)
06 [d2e71bab] (0/8) No match (V2 was not tested)
07 [4192de2a] (0/8) No match (V2 was not tested)
08 [510cb917] (0/7) No match (V2 was not tested)
09 [675b3ebc] (0/7) No match (V2 was not tested)
10 [bdb76924] (0/8) No match (V2 was not tested)
11 [2866737f] (0/8) No match (V2 was not tested)
12 [da4fb53c] (0/7) No match (V2 was not tested)
13 [919d9f31] (0/7) No match (V2 was not tested)
14 [65d6d3f3] (0/8) No match (V2 was not tested)
15 [da083bd6] (0/7) No match (V2 was not tested)
16 [59e001fa] (0/7) No match (V2 was not tested)
17 [5794c8d9] (0/7) No match (V2 was not tested)
18 [728e2f5a] (0/7) No match (V2 was not tested)
19 [f6564e59] (0/7) No match (V2 was not tested)
20 [9c64c695] (0/7) No match (V2 was not tested)
21 [bf682cf6] (0/7) No match (V2 was not tested)

Track Peak [ CRC32 ] [W/O NULL] [ LOG ]
– 99,8 [986A4AF2] [CA44E2D4]
01 99,8 [38D536CB] [2B28D2E5] CRC32
02 99,8 [5B2D5652] [1C8F7510] CRC32
03 99,8 [210FBAA1] [27748332] CRC32
04 99,8 [54A3CA47] [965CFE02] CRC32
05 99,8 [7A9FF7D8] [51ED984B] CRC32
06 99,8 [CA4EF058] [267E82ED] CRC32
07 99,8 [7AC231FB] [6740FCEB] CRC32
08 99,8 [3526A9E4] [7F4CA37F] CRC32
09 99,8 [FD235C3A] [3C647D2A] CRC32
10 99,8 [DE1DECC8] [FFD51F39] CRC32
11 99,8 [BF317EF5] [9A992063] CRC32
12 99,8 [5C209568] [73E5F1A6] CRC32
13 99,8 [2AB93689] [3FA7A613] CRC32
14 97,7 [43B252E5] [797420E5] CRC32
15 76,7 [EDDAF877] [D2950E50] CRC32
16 84,1 [10355C22] [2741D6A8] CRC32
17 73,3 [5B28824D] [C50A45EC] CRC32
18 77,6 [9EBB9F83] [6536C0F6] CRC32
19 75,8 [2B9ACC2A] [0AD2B377] CRC32
20 78,5 [66C4EF37] [205765A4] CRC32
21 95,5 [684A73F1] [405D0AD7] CRC32

The Smithereens - God Save The Smithereens (1999) [2CD, Deluxe Edition]

Tracklist CD2 - Pat Dinizio - Songs And Sounds:

01. Where Am I Going (Jennie's Song) (01:46)
02. Nobody But Me (02:41)
03. 124 MPH (04:10)
04. Running, Jumping, Standing Stil (l4:04)
05. Everyday World (02:48)
06. No Love Lost (05:07)
07. A World Apart (03:35)
08. Today It's You (02:01)
09. Liza (03:16)
10. Somewhere Down the Line (02:51)
11. You Should Know (03:41)
12. I'd Rather Have the Blues (07:55)

Bonus Tracks:
13. A Girl Like You (live) (05:43)
14. Yesterday Girl (live) (03:46)
15. Behind the Wall of Sleep (live) (03:42)
16. She's Got a Way (live) (03:36)
17. Blood and Roses (live) (04:13)
18. Someday Boy (demo) (03:18)
19. Afternoon Tea (demo) (04:05)

Exact Audio Copy V1.0 beta 1 from 15. November 2010

EAC extraction logfile from 25. March 2011, 19:00

Pat Dinizio / God Save The Smithereens (Deluxe Edition) CD 2

Used drive : ATAPI DVD D DH16D3S Adapter: 0 ID: 2

Read mode : Secure
Utilize accurate stream : Yes
Defeat audio cache : Yes
Make use of C2 pointers : No

Read offset correction : 6
Overread into Lead-In and Lead-Out : No
Fill up missing offset samples with silence : Yes
Delete leading and trailing silent blocks : No
Null samples used in CRC calculations : Yes
Used interface : Native Win32 interface for Win NT & 2000
Gap handling : Appended to previous track

Used output format : User Defined Encoder
Selected bitrate : 896 kBit/s
Quality : High
Add ID3 tag : No
Command line compressor : C:\Program Files (x86)\Exact Audio Copy\Flac\flac.exe
Additional command line options : -V -8 -T "artist=%a" -T "title=%t" -T "album=%g" -T "date=%y" -T "tracknumber=%n" -T "genre=%m" %s


TOC of the extracted CD

Track | Start | Length | Start sector | End sector
––––––––––––––––––––––––––––-
1 | 0:00.00 | 1:46.43 | 0 | 7992
2 | 1:46.43 | 2:41.39 | 7993 | 20106
3 | 4:28.07 | 4:10.61 | 20107 | 38917
4 | 8:38.68 | 4:04.33 | 38918 | 57250
5 | 12:43.26 | 2:48.66 | 57251 | 69916
6 | 15:32.17 | 5:07.26 | 69917 | 92967
7 | 20:39.43 | 3:35.16 | 92968 | 109108
8 | 24:14.59 | 2:01.58 | 109109 | 118241
9 | 26:16.42 | 3:16.51 | 118242 | 132992
10 | 29:33.18 | 2:51.26 | 132993 | 145843
11 | 32:24.44 | 3:41.71 | 145844 | 162489
12 | 36:06.40 | 7:55.16 | 162490 | 198130
13 | 44:01.56 | 5:43.58 | 198131 | 223913
14 | 49:45.39 | 3:46.46 | 223914 | 240909
15 | 53:32.10 | 3:42.58 | 240910 | 257617
16 | 57:14.68 | 3:36.17 | 257618 | 273834
17 | 60:51.10 | 4:13.55 | 273835 | 292864
18 | 65:04.65 | 3:18.46 | 292865 | 307760
19 | 68:23.36 | 4:05.44 | 307761 | 326179


Track 1

Filename C:\Users\Public\Smithereens, The - God Save The Smithereens\Smithereens, The - God Save The Smithereens (2005 Deluxe Edition) - flac\CD 2\01. Where I Am Going (Jennie's Son).wav

Pre-gap length 0:00:02.00

Peak level 89.1 %
Extraction speed 2.1 X
Track quality 99.9 %
Test CRC 0B367668
Copy CRC 0B367668
Accurately ripped (confidence 4) [DAD6C917]
Copy OK

Track 2

Filename C:\Users\Public\Smithereens, The - God Save The Smithereens\Smithereens, The - God Save The Smithereens (2005 Deluxe Edition) - flac\CD 2\02. Nobody But Me.wav

Peak level 100.0 %
Extraction speed 3.6 X
Track quality 100.0 %
Test CRC 82E643CD
Copy CRC 82E643CD
Accurately ripped (confidence 4) [E42B9219]
Copy OK

Track 3

Filename C:\Users\Public\Smithereens, The - God Save The Smithereens\Smithereens, The - God Save The Smithereens (2005 Deluxe Edition) - flac\CD 2\03. 124 Mph.wav

Peak level 100.0 %
Extraction speed 4.2 X
Track quality 100.0 %
Test CRC 6A1E174A
Copy CRC 6A1E174A
Accurately ripped (confidence 5) [4F291515]
Copy OK

Track 4

Filename C:\Users\Public\Smithereens, The - God Save The Smithereens\Smithereens, The - God Save The Smithereens (2005 Deluxe Edition) - flac\CD 2\04. Running, Jumping, Standing Still.wav

Peak level 100.0 %
Extraction speed 4.5 X
Track quality 100.0 %
Test CRC 434A8D2D
Copy CRC 434A8D2D
Accurately ripped (confidence 4) [66BD7F10]
Copy OK

Track 5

Filename C:\Users\Public\Smithereens, The - God Save The Smithereens\Smithereens, The - God Save The Smithereens (2005 Deluxe Edition) - flac\CD 2\05. Everday World.wav

Peak level 97.7 %
Extraction speed 4.5 X
Track quality 100.0 %
Test CRC A053A15C
Copy CRC A053A15C
Accurately ripped (confidence 4) [33DFBCB6]
Copy OK

Track 6

Filename C:\Users\Public\Smithereens, The - God Save The Smithereens\Smithereens, The - God Save The Smithereens (2005 Deluxe Edition) - flac\CD 2\06. No Love Lost.wav

Peak level 100.0 %
Extraction speed 5.3 X
Track quality 100.0 %
Test CRC 13DFD226
Copy CRC 13DFD226
Accurately ripped (confidence 5) [9A64811D]
Copy OK

Track 7

Filename C:\Users\Public\Smithereens, The - God Save The Smithereens\Smithereens, The - God Save The Smithereens (2005 Deluxe Edition) - flac\CD 2\07. A World Apart.wav

Peak level 100.0 %
Extraction speed 5.3 X
Track quality 100.0 %
Test CRC FE1E35B9
Copy CRC FE1E35B9
Accurately ripped (confidence 5) [AA4FEC24]
Copy OK

Track 8

Filename C:\Users\Public\Smithereens, The - God Save The Smithereens\Smithereens, The - God Save The Smithereens (2005 Deluxe Edition) - flac\CD 2\08. Today It's You.wav

Peak level 100.0 %
Extraction speed 4.9 X
Track quality 100.0 %
Test CRC 75881687
Copy CRC 75881687
Accurately ripped (confidence 5) [BAB0F29F]
Copy OK

Track 9

Filename C:\Users\Public\Smithereens, The - God Save The Smithereens\Smithereens, The - God Save The Smithereens (2005 Deluxe Edition) - flac\CD 2\09. Liza.wav

Peak level 98.2 %
Extraction speed 5.6 X
Track quality 100.0 %
Test CRC E6878399
Copy CRC E6878399
Accurately ripped (confidence 4) [3A1711C3]
Copy OK

Track 10

Filename C:\Users\Public\Smithereens, The - God Save The Smithereens\Smithereens, The - God Save The Smithereens (2005 Deluxe Edition) - flac\CD 2\10. Somewhere Down The Line.wav

Peak level 100.0 %
Extraction speed 4.1 X
Track quality 99.9 %
Test CRC 6176CA71
Copy CRC 6176CA71
Accurately ripped (confidence 5) [36270FAA]
Copy OK

Track 11

Filename C:\Users\Public\Smithereens, The - God Save The Smithereens\Smithereens, The - God Save The Smithereens (2005 Deluxe Edition) - flac\CD 2\11. You Should Know.wav

Peak level 100.0 %
Extraction speed 6.1 X
Track quality 100.0 %
Test CRC C3F85361
Copy CRC C3F85361
Accurately ripped (confidence 4) [F87B0693]
Copy OK

Track 12

Filename C:\Users\Public\Smithereens, The - God Save The Smithereens\Smithereens, The - God Save The Smithereens (2005 Deluxe Edition) - flac\CD 2\12. I'd Rather Have The Blues.wav

Peak level 100.0 %
Extraction speed 7.0 X
Track quality 100.0 %
Test CRC B22F69A9
Copy CRC B22F69A9
Accurately ripped (confidence 4) [9E5931E4]
Copy OK

Track 13

Filename C:\Users\Public\Smithereens, The - God Save The Smithereens\Smithereens, The - God Save The Smithereens (2005 Deluxe Edition) - flac\CD 2\13. A Girl Like You (Live In Spain).wav

Pre-gap length 0:00:02.00

Peak level 74.1 %
Extraction speed 7.1 X
Track quality 100.0 %
Test CRC 8C6DFE80
Copy CRC 8C6DFE80
Accurately ripped (confidence 4) [3420D007]
Copy OK

Track 14

Filename C:\Users\Public\Smithereens, The - God Save The Smithereens\Smithereens, The - God Save The Smithereens (2005 Deluxe Edition) - flac\CD 2\14. Yesterday Girl (Live In Spain).wav

Pre-gap length 0:00:02.00

Peak level 69.2 %
Extraction speed 7.0 X
Track quality 100.0 %
Test CRC 36904A97
Copy CRC 36904A97
Accurately ripped (confidence 4) [9F19BEC2]
Copy OK

Track 15

Filename C:\Users\Public\Smithereens, The - God Save The Smithereens\Smithereens, The - God Save The Smithereens (2005 Deluxe Edition) - flac\CD 2\15. Behind A Wall Of Sleep (Live in Spain).wav

Pre-gap length 0:00:02.00

Peak level 74.1 %
Extraction speed 7.2 X
Track quality 100.0 %
Test CRC C46FCBE9
Copy CRC C46FCBE9
Accurately ripped (confidence 4) [4C8E53A3]
Copy OK

Track 16

Filename C:\Users\Public\Smithereens, The - God Save The Smithereens\Smithereens, The - God Save The Smithereens (2005 Deluxe Edition) - flac\CD 2\16. She's Got A Way (Live In Spain).wav

Pre-gap length 0:00:02.00

Peak level 73.3 %
Extraction speed 7.3 X
Track quality 100.0 %
Test CRC 1453649F
Copy CRC 1453649F
Accurately ripped (confidence 3) [0045149C]
Copy OK

Track 17

Filename C:\Users\Public\Smithereens, The - God Save The Smithereens\Smithereens, The - God Save The Smithereens (2005 Deluxe Edition) - flac\CD 2\17. Blood And Roses (Live In Spain).wav

Pre-gap length 0:00:02.00

Peak level 73.3 %
Extraction speed 7.6 X
Track quality 100.0 %
Test CRC 62B0FFBE
Copy CRC 62B0FFBE
Accurately ripped (confidence 4) [B136A53C]
Copy OK

Track 18

Filename C:\Users\Public\Smithereens, The - God Save The Smithereens\Smithereens, The - God Save The Smithereens (2005 Deluxe Edition) - flac\CD 2\18. Someday Boy (Unreleased Demo).wav

Pre-gap length 0:00:02.00

Peak level 55.6 %
Extraction speed 7.5 X
Track quality 100.0 %
Test CRC C63660CD
Copy CRC C63660CD
Accurately ripped (confidence 4) [2FDC28C5]
Copy OK

Track 19

Filename C:\Users\Public\Smithereens, The - God Save The Smithereens\Smithereens, The - God Save The Smithereens (2005 Deluxe Edition) - flac\CD 2\19. Afternoon Tea (Unreleased Demo).wav

Pre-gap length 0:00:02.00

Peak level 78.5 %
Extraction speed 4.4 X
Track quality 100.0 %
Test CRC 63B25F64
Copy CRC 63B25F64
Accurately ripped (confidence 4) [588CB4DE]
Copy OK


All tracks accurately ripped

No errors occurred

End of status report

foobar2000 1.2.9 / Dynamic Range Meter 1.1.1
log date: 2015-10-26 21:20:24

––––––––––––––––––––––––––––––––––––––––
Analyzed: Pat Dinizio / God Save The Smithereens (Deluxe Edition) CD 2
––––––––––––––––––––––––––––––––––––––––

DR Peak RMS Duration Track
––––––––––––––––––––––––––––––––––––––––
DR11 -1.00 dB -15.82 dB 1:47 01-Where I Am Going (Jennie's Son)
DR8 0.00 dB -8.98 dB 2:42 02-Nobody But Me
DR7 0.00 dB -8.30 dB 4:11 03-124 Mph
DR8 0.00 dB -9.40 dB 4:04 04-Running, Jumping, Standing Still
DR7 -0.20 dB -8.92 dB 2:49 05-Everday World
DR8 0.00 dB -9.05 dB 5:07 06-No Love Lost
DR9 0.00 dB -9.49 dB 3:35 07-A World Apart
DR8 0.00 dB -9.58 dB 2:02 08-Today It's You
DR10 -0.15 dB -12.39 dB 3:17 09-Liza
DR8 0.00 dB -9.30 dB 2:51 10-Somewhere Down The Line
DR8 0.00 dB -8.72 dB 3:42 11-You Should Know
DR12 0.00 dB -15.20 dB 7:55 12-I'd Rather Have The Blues
DR8 -2.60 dB -12.71 dB 5:44 13-A Girl Like You (Live In Spain)
DR7 -3.20 dB -12.48 dB 3:47 14-Yesterday Girl (Live In Spain)
DR7 -2.60 dB -11.74 dB 3:43 15-Behind A Wall Of Sleep (Live in Spain)
DR7 -2.70 dB -11.99 dB 3:36 16-She's Got A Way (Live In Spain)
DR7 -2.70 dB -12.29 dB 4:14 17-Blood And Roses (Live In Spain)
DR4 -5.10 dB -10.32 dB 3:19 18-Someday Boy (Unreleased Demo)
DR5 -2.10 dB -8.35 dB 4:06 19-Afternoon Tea (Unreleased Demo)
––––––––––––––––––––––––––––––––––––––––

Number of tracks: 19
Official DR value: DR8

Samplerate: 44100 Hz
Channels: 2
Bits per sample: 16
Bitrate: 886 kbps
Codec: FLAC

[CUETools log; Date: 23.10.2015 21:22:29; Version: 2.1.4]
[AccurateRip ID: 002ef3b6-02a1baae-1410fd13] found.
Track [ CRC | V2 ] Status
01 [dad6c917|cc0273a1] (4+2/8) Accurately ripped
02 [e42b9219|4b908d84] (4+2/8) Accurately ripped
03 [4f291515|67f4cad4] (5+2/9) Accurately ripped
04 [66bd7f10|bad9e99d] (4+2/8) Accurately ripped
05 [33dfbcb6|d8ccf430] (4+2/8) Accurately ripped
06 [9a64811d|5b0097fe] (5+2/9) Accurately ripped
07 [aa4fec24|3d975d7e] (5+2/9) Accurately ripped
08 [bab0f29f|fa596fa6] (5+2/9) Accurately ripped
09 [3a1711c3|25675e9e] (4+2/8) Accurately ripped
10 [36270faa|2bd169fa] (5+2/9) Accurately ripped
11 [f87b0693|2fcf3cae] (4+2/8) Accurately ripped
12 [9e5931e4|4daa2c1b] (4+2/8) Accurately ripped
13 [3420d007|6568ba18] (4+2/8) Accurately ripped
14 [9f19bec2|a0e9f446] (4+2/8) Accurately ripped
15 [4c8e53a3|4c9d9db8] (4+2/8) Accurately ripped
16 [0045149c|ae275be4] (3+2/7) Accurately ripped
17 [b136a53c|fdb2a99d] (4+2/8) Accurately ripped
18 [2fdc28c5|cdcef508] (4+2/8) Accurately ripped
19 [588cb4de|647df21c] (4+2/8) Accurately ripped
Offsetted by -30:
01 [02cce589] (0/8) No match (V2 was not tested)
02 [07e90113] (0/8) No match (V2 was not tested)
03 [a5e401fb] (0/9) No match (V2 was not tested)
04 [e21e7c7c] (0/8) No match (V2 was not tested)
05 [93e5146e] (0/8) No match (V2 was not tested)
06 [de41b014] (0/9) No match (V2 was not tested)
07 [6aded0b8] (0/9) No match (V2 was not tested)
08 [793571af] (0/9) No match (V2 was not tested)
09 [aa58acb6] (0/8) No match (V2 was not tested)
10 [7f174d6d] (0/9) No match (V2 was not tested)
11 [1d22b537] (0/8) No match (V2 was not tested)
12 [15b5fbe1] (0/8) No match (V2 was not tested)
13 [d75ad8fb] (0/8) No match (V2 was not tested)
14 [6db0fa7e] (0/8) No match (V2 was not tested)
15 [708281dd] (0/8) No match (V2 was not tested)
16 [fe741ecc] (0/7) No match (V2 was not tested)
17 [0ef35348] (0/8) No match (V2 was not tested)
18 [e698b05f] (0/8) No match (V2 was not tested)
19 [47f87044] (0/8) No match (V2 was not tested)

Track Peak [ CRC32 ] [W/O NULL] [ LOG ]
– 99,9 [186374CC] [A37464DC]
01 89,1 [0B367668] [BE2A9FAC] CRC32
02 99,9 [82E643CD] [237A1C9F] CRC32
03 99,9 [6A1E174A] [3886C51B] CRC32
04 99,9 [434A8D2D] [7E5B7668] CRC32
05 97,7 [A053A15C] [74E8069C] CRC32
06 99,9 [13DFD226] [623D68B2] CRC32
07 99,9 [FE1E35B9] [6E304310] CRC32
08 99,9 [75881687] [CA5D653C] CRC32
09 98,2 [E6878399] [AF9BF7F4] CRC32
10 99,9 [6176CA71] [6F8FAF1E] CRC32
11 99,9 [C3F85361] [1011836C] CRC32
12 99,9 [B22F69A9] [6A2DC0C2] CRC32
13 74,1 [8C6DFE80] [2042392A] CRC32
14 69,2 [36904A97] [39D82CDA] CRC32
15 74,1 [C46FCBE9] [44790145] CRC32
16 73,3 [1453649F] [E16828ED] CRC32
17 73,3 [62B0FFBE] [D55531D7] CRC32
18 55,6 [C63660CD] [99BE6421] CRC32
19 78,5 [63B25F64] [7BF92386] CRC32

The Smithereens - God Save The Smithereens (1999) [2CD, Deluxe Edition]

All thanks go to the original releaser

The Smithereens in my Blog

Download The Smithereens - God Save The Smithereens (1999):