Tags
Language
Tags

The Sweet - Starke Zeiten (1988)

Posted By: popsakov
The Sweet - Starke Zeiten (1988)

The Sweet - Starke Zeiten (1988)
EAC Rip | FLAC (Img) + Cue + Log ~ 389 Mb | MP3 CBR320 ~ 168 Mb
Full Scans | 00:54:30 | RAR 5% Recovery
Hard Rock / Pop Rock / Glam Rock | BMG Ariola #258 867 / 258 867-222

Starke Zeiten is a greatest hits album from British rock band The Sweet, initially released in Germany in 1988 on the Ariola/BMG label.

***************

The Sweet - Starke Zeiten (1988)

The Sweet - Starke Zeiten (1988)

Track List:

01. Co-Co [03:11]
02. Little Willy [03:14]
03. Wig-Wam Bam [02:56]
04. Poppa Joe [03:10]
05. The Lies In Your Eyes [03:48]
06. The Six Teens [04:04]
07. Turn It Down [03:31]
08. Block Buster [03:14]
09. Ballroom Blitz [04:02]
10. Teenage Rampage [03:36]
11. Action [03:20]
12. Hell Raiser [03:18]
13. Alexander Graham Bell [02:54]
14. Fever Of Love [04:02]
15. Funny Funny [02:48]
16. Fox On The Run [03:24]

Exact Audio Copy V1.0 beta 1 from 15. November 2010

EAC extraction logfile from 16. December 2015, 17:09

Sweet / Starke Zeiten

Used drive : MATSHITADVD-RAM UJ8A0AS Adapter: 0 ID: 1

Read mode : Secure
Utilize accurate stream : Yes
Defeat audio cache : Yes
Make use of C2 pointers : No

Read offset correction : 102
Overread into Lead-In and Lead-Out : No
Fill up missing offset samples with silence : Yes
Delete leading and trailing silent blocks : No
Null samples used in CRC calculations : Yes
Used interface : Native Win32 interface for Win NT & 2000

Used output format : Internal WAV Routines
Sample format : 44.100 Hz; 16 Bit; Stereo


TOC of the extracted CD

Track | Start | Length | Start sector | End sector
––––––––––––––––––––––––––––-
1 | 0:00.00 | 3:10.50 | 0 | 14299
2 | 3:10.50 | 3:14.00 | 14300 | 28849
3 | 6:24.50 | 2:56.00 | 28850 | 42049
4 | 9:20.50 | 3:10.00 | 42050 | 56299
5 | 12:30.50 | 3:48.00 | 56300 | 73399
6 | 16:18.50 | 4:03.50 | 73400 | 91674
7 | 20:22.25 | 3:30.50 | 91675 | 107474
8 | 23:53.00 | 3:13.50 | 107475 | 121999
9 | 27:06.50 | 4:02.00 | 122000 | 140149
10 | 31:08.50 | 3:35.52 | 140150 | 156326
11 | 34:44.27 | 3:19.23 | 156327 | 171274
12 | 38:03.50 | 3:18.00 | 171275 | 186124
13 | 41:21.50 | 2:54.00 | 186125 | 199174
14 | 44:15.50 | 4:02.00 | 199175 | 217324
15 | 48:17.50 | 2:48.00 | 217325 | 229924
16 | 51:05.50 | 3:23.45 | 229925 | 245194


Range status and errors

Selected range

Filename C:\Users\Alex\Music\Alexharvey\Sweet - Starke Zeiten.wav

Peak level 99.9 %
Extraction speed 0.0 X
Range quality 100.0 %
Test CRC 93188F86
Copy CRC 93188F86
Copy OK

No errors occurred


AccurateRip summary

Track 1 accurately ripped (confidence 37) [C19949DA]
Track 2 accurately ripped (confidence 38) [F2070210]
Track 3 accurately ripped (confidence 38) [2565C8F5]
Track 4 accurately ripped (confidence 38) [FF0288CD]
Track 5 accurately ripped (confidence 37) [78F64AE2]
Track 6 accurately ripped (confidence 37) [626B9D0B]
Track 7 accurately ripped (confidence 37) [79EA839D]
Track 8 accurately ripped (confidence 38) [4B9A85C8]
Track 9 accurately ripped (confidence 38) [C655E28A]
Track 10 accurately ripped (confidence 38) [2D4DD16E]
Track 11 accurately ripped (confidence 37) [20C8DCF7]
Track 12 accurately ripped (confidence 36) [908BBF36]
Track 13 accurately ripped (confidence 37) [17CFB79F]
Track 14 accurately ripped (confidence 37) [64386FEE]
Track 15 accurately ripped (confidence 36) [F9C61D13]
Track 16 accurately ripped (confidence 37) [A1D368C5]

All tracks accurately ripped

End of status report

==== Log checksum 7AAAB601553C0727C74C3C4B07FD2AF5EEA429FC566D665EEF5FF0F61429E0C0 ====

[CUETools log; Date: 19.12.2015 23:18:03; Version: 2.1.5]
[CTDB TOCID: yWLapRqNvXiL4yLCMJODzE8beGY-] found.
Track | CTDB Status
1 | (66/66) Accurately ripped
2 | (63/66) Accurately ripped
3 | (63/66) Accurately ripped
4 | (64/66) Accurately ripped
5 | (64/66) Accurately ripped
6 | (64/66) Accurately ripped
7 | (64/66) Accurately ripped
8 | (64/66) Accurately ripped
9 | (64/66) Accurately ripped
10 | (64/66) Accurately ripped
11 | (64/66) Accurately ripped
12 | (63/66) Accurately ripped
13 | (64/66) Accurately ripped
14 | (64/66) Accurately ripped
15 | (64/66) Accurately ripped
16 | (64/66) Accurately ripped
[AccurateRip ID: 001fc30b-017ef02e-f40cc510] found.
Track [ CRC | V2 ] Status
01 [c19949da|eb4ee076] (38+37/75) Accurately ripped
02 [f2070210|6ec82a67] (39+38/77) Accurately ripped
03 [2565c8f5|19f953a2] (39+38/77) Accurately ripped
04 [ff0288cd|8bd491a0] (39+38/77) Accurately ripped
05 [78f64ae2|80be8c4f] (39+37/76) Accurately ripped
06 [626b9d0b|b1c8b100] (39+37/76) Accurately ripped
07 [79ea839d|340c2337] (39+37/76) Accurately ripped
08 [4b9a85c8|842488b9] (40+38/78) Accurately ripped
09 [c655e28a|818d39a7] (39+38/77) Accurately ripped
10 [2d4dd16e|6ea6a665] (39+38/77) Accurately ripped
11 [20c8dcf7|d9f98e39] (39+37/76) Accurately ripped
12 [908bbf36|09effff4] (39+36/75) Accurately ripped
13 [17cfb79f|31905cb6] (38+37/75) Accurately ripped
14 [64386fee|0586554e] (38+37/75) Accurately ripped
15 [f9c61d13|0194f5da] (39+36/75) Accurately ripped
16 [a1d368c5|1840c0e1] (38+37/75) Accurately ripped

Track Peak [ CRC32 ] [W/O NULL] [ LOG ]
– 99,9 [93188F86] [3430EFC9] CRC32
01 95,0 [57864AFF] [85B6604B]
02 91,4 [EA020D88] [9539FFE2]
03 92,8 [9A3DE075] [9D11024C]
04 85,6 [A7B8ABE7] [E7288B44]
05 88,3 [67E61894] [B943F555]
06 92,6 [CBAC905D] [F73460D0]
07 99,9 [61A75ED9] [FBBE0A3C]
08 90,7 [00AF3E6E] [CC50608E]
09 83,9 [17E9B11D] [D040AB10]
10 88,8 [380F3F9F] [ECAFB821]
11 94,2 [B6965B7D] [EE3B3A8E]
12 87,5 [98F28EBC] [4F2A71C8]
13 90,2 [4856B57A] [A89BF974]
14 91,9 [1CBDC5AB] [5FF84687]
15 90,1 [B02221AC] [57ACC718]
16 86,0 [CC73EBD5] [26E72806]

The Sweet - Starke Zeiten (1988)


All thanks go to Alexharvey

>>> Sweet in my Blog <<<

DOWNLOAD: