Tags
Language
Tags

VA - The Ultimate Music Collection (1995)

Posted By: Rtax
VA - The Ultimate Music Collection (1995)

VA - The Ultimate Music Collection (1995)
EAC Rip | FLAC (tracks, cue, log, scans) - 8.2 GB | MP3 CBR 320 kbps - 3.06 GB
22:50:14 | Electronic, Rock, Reggae, Funk, Soul, Disco, Blues, Pop | Label: BMG

20 CD Box Set. All Original Recordings from the 60s, 70s, 80s. Released by BMG in 1995.

Tracklist
Disc 1 - The Ultimate Music Collection 1 Pop
1. Eurythmics – Would I Lie To You (04:24)
2. Mink DeVille – Spanish Stroll (03:33)
3. A.J. Croce – He's Got A Way With Women (03:31)
4. Ultravox – Vienna (04:37)
5. Blondie – Call Me (03:30)
6. Fra Lippo Lippi – Shouldn't Have To Be Like That (03:49)
7. Dexys Midnight Runners – Geno (03:27)
8. De Jazzpolitie – Liefdesliedjes (04:42)
9. Bucks Fizz – The Land Of Make Believe (03:46)
10. Classix Nouveaux – Is It A Dream (03:37)
11. Peter Tosh – Johnny B. Goode (04:01)
12. David A. Stewart – Lily Was Here (feat. Candy Dulfer) (04:21)
13. Talking Heads – Wild Wild Life (03:40)
14. Dionne Warwick – Friends Can Be Lovers (05:26)
15. Cliff Richard – Some People (03:48)
16. Roxette – Joyride (04:21)

Disc 2 - The Ultimate Music Collection 2 Pop
1. Peter Tosh & Mick Jagger – (You Got To Walk And) Don't Look Back (03:43)
2. Talking Heads – Road To Nowhere (04:19)
3. Kajagoogoo – Too Shy (03:40)
4. Jennifer Brown – My Everything (04:28)
5. Gino Vannelli – Living Inside Myself (04:19)
6. China Crisis – Working With Fire And Steel (03:40)
7. Four Tops – Loco In Acapulco (04:33)
8. Proclaimers – Letter From America (04:01)
9. Vangelis – To The Unknown Man (09:03)
10. Rick Astley – The Ones Your Love (04:40)
11. Dolly Parton – 9 To 5 (02:44)
12. Madness – One Step Beyond (02:18)
13. KC & The Sunshine Band – Come To My Island (03:58)
14. Paolo Conte – Boogie (05:15)
15. Harold Faltermeyer – Axel F* (03:01)
16. Olivia Newton-John – Please Mr. Please (03:27)

Disc 3 - The Ultimate Music Collection 3 Pop
1. Vaya Con Dios – Nah Neh Nah (02:54)
2. Nik Kershaw – I Won't Let The Sun Go Down On Me (03:20)
3. Taco – Puttin' On The Ritz (04:35)
4. Sailor – La Cumbia (03:25)
5. Three Degrees – The Runner (03:41)
6. Modern Talking – You're My Heart, You're My Soul (05:27)
7. Kate Bush – Running Up That Hill (04:54)
8. Yanni – Song For Antarctica (04:20)
9. Fairground Attraction – Perfect (03:36)
10. Tom Browne – Funkin' For Jamaica (04:38)
11. Bobby McFerrin – Don't Worry, Be Happy (03:53)
12. The Special A.K.A. – Nelson Mandela (04:07)
13. Eruption – One Way Ticket (03:35)
14. Sparks – When Do I Get To Sing "My Way" (04:37)
15. The Specials – Rudi, A Message To You (02:53)
16. Bananarama & Fun Boy Three – It Aint What You Do, It's The Way That You Do It (02:48)

Disc 4 - The Ultimate Music Collection 4 Pop
1. Kim Wilde – Cambodia (03:56)
2. Talking Heads – Slippery People (Live) (04:12)
3. China Crisis – Wishful Thinking (04:38)
4. Bow Wow Wow – Do You Wanna Hold Me (03:11)
5. Thompson Twins – In The Name Of Love (05:19)
6. Eddy Grant – Gimme Hope Jo'Anna (03:58)
7. Ike And Tina Turner – Nutbush City Limits (02:58)
8. Kenny G – Songbird (03:59)
9. B.B. King – The Thrill Is Gone (05:07)
10. Eruption – I Can't Stand The Rain (03:06)
11. Frank Boeijen Groep – Zwart Wit (03:05)
12. Guru Josh – Infinity (04:02)
13. B.B. Queen – Blueshouse (05:07)
14. Alan Parsons Project – The Turn Of A Friendly Card (02:44)
15. Proclaimers – I'm Gonna Be (03:35)
16. Meat Loaf – Piece Of The Action (04:16)

Disc 5 - The Ultimate Music Collection 5 Dance
1. Haddaway – Life (04:16)
2. Michele – Love Is History (04:07)
3. Milli Vanilli – Girl You Know It's True (06:28)
4. Vicki Sue Robinson – Turn The Beat Around (04:05)
5. Candy Dulfer – Saxuality (04:18)
6. Brooklyn, Bronx & Queens Band – On The Beat (03:46)
7. Heavy D. & The Boyz – Now That We Found Love (04:17)
8. D.J. Jazzy Jeff & The Fresh Prince – Ring My Bell (04:45)
9. The Flavour – No Matter What U Do (I'm Gonna Get With U) (03:13)
10. Rob'N'Raz – Got To Get (feat. Leila K) (03:21)
11. Staxx – Joy (03:36)
12. Warp 9 – Whammer Slammer (05:22)
13. Freeez – I.O.U. (03:49)
14. Colonel Abrams – Trapped (03:42)
15. Black Baron – Girl, I Love You So (03:48)
16. Lindy Layton – Echo My Heart (04:25)

Disc 6 - The Ultimate Music Collection 6 Dance
1. Snap – Rhythm Is A Dancer (05:14)
2. Mel & Kim – Showing Out (05:11)
3. Bobby Brown – Humpin' Around (06:18)
4. Candy Dulfer – Sax-A-Go-Go (04:14)
5. Felix – Don't You Want Me (03:08)
6. Indee – Pomm Pomm (feat. Gigolo) (04:09)
7. Samantha Fox – I Only Wanna Be With You (02:43)
8. Billy Ocean – When The Going Gets Tough, The Tough Get Going (04:07)
9. Caron Wheeler – Livin' In The Light (05:44)
10. Mr. V – Give Me Life (04:08)
11. Zoo Inc. – Lay Down (04:15)
12. Anita Meyer – Why Tell Me Why (03:26)
13. Dr. Alban – One Love (04:14)
14. Grid – Swamp Thing (06:42)
15. Alison Limerick – Love Come Down (04:11)
16. Sub Sub – Ain't No Love (Ain't No Use) (feat. Melanie Williams) (05:13)

Disc 7 - The Ultimate Music Collection 7 Dance
1. Bobby Brown – My Prerogative (04:48)
2. Beckie Bell – Steppin' Out Tonight (04:16)
3. Tears N' Joy – I Will Always Love You (04:12)
4. Pebbles – Giving You The Benefit (05:40)
5. M People – How Can I Love You More? (05:15)
6. Mantronix – Got To Have Your Love (06:18)
7. Heavy D. & The Boyz – We Got Our Own Thang (03:48)
8. Rock Steady Crew – (Hey You) The Rock Steady Crew (03:46)
9. Three Degrees – Giving Up, Giving In (03:49)
10. R. Kelly – She's Got That Vibe (04:00)
11. Shawn Christopher – Don't Lose The Magic (04:01)
12. Dayton – The Sound Of Music (03:40)
13. Usura – Open Your Mind (05:17)
14. N Joi – Anthem (04:04)
15. Mr. Lee – Get Busy (03:47)
16. Snap – Ooops Up (06:41)

Disc 8 - The Ultimate Music Collection 8 Dance
1. Dr. Alban – No Coke (06:43)
2. Black Box – Ride On Time (Remix) (04:34)
3. Rick Astley – Never Gonna Give You Up (03:30)
4. Taylor Dayne – Can't Get Enough Of Your Love (04:26)
5. Level 42 – Guaranteed (04:51)
6. D.J. Jazzy Jeff & The Fresh Prince – Yo Home To Bel Air (03:27)
7. Samantha Fox – Nothing's Gonna Stop Me Now (03:44)
8. Village People – YMCA '93 Remix (03:42)
9. Boney M. – Megamix (03:51)
10. Tony Scott – Love Don't Live Here Anymore (04:43)
11. Adeva – Respect (04:04)
12. Wee Papa Girl Rappers – Get In The Groove (03:41)
13. Mel & Kim – Respectable (05:41)
14. Felix – It Will Make Me Crazy (03:49)
15. Nice Device – Cool Corona (02:54)
16. Worlds Apart – Everlasting Love (03:38)

Disc 9 - The Ultimate Music Collection 9 Ballads
1. Lisa Stansfield – So Natural (05:05)
2. Frank Boeijen Groep – Kronenburg Park (04:03)
3. Vaya Con Dios – What's A Woman? (03:54)
4. Bernie Lyon – The Love Of A Woman (03:56)
5. Marc Almond & Gene Pitney – Something's Gotten Hold Of My Heart (04:40)
6. Rupert Holmes – Escape (The Pinacolada Song) (04:34)
7. Talk Talk – Life's What You Make It (04:08)
8. Scott Fitzgerald & Yvonne Keeley – If I Had Words (03:48)
9. Margriet Eshuijs – Sometimes (05:46)
10. Ruby Turner – I'd Rather Go Blind (04:03)
11. Coldcut – Dreamer (06:22)
12. Flying Pickets – Only You (03:23)
13. Scorpions – Life's Like A River (03:49)
14. Jonathan Butler & Vanessa Bell Armstrong – True Love Never Fails (05:16)
15. Air Supply – All Out Of Love (04:00)
16. Worlds Apart – Beggin To Be Written (04:11)

Disc 10 - The Ultimate Music Collection 10 Ballads
1. Clannad – Something To Believe In (04:43)
2. Leo Sayer – Orchard Road (04:26)
3. Dionne Warwick – Heartbreaker (04:18)
4. Rick Astley – When I Fall In Love (03:02)
5. Coldcut – Autumn Leaves (05:49)
6. José Feliciano – Ponte A Cantar (03:55)
7. Carly Simon – Let The River Run (03:39)
8. Guy – Let's Stay Together (04:00)
9. Wilson Phillips – Hold On (04:23)
10. Climie Fisher – Love Changes Everything (04:28)
11. Pointer Sisters – Fire (03:27)
12. Tony Sherman & Julia Loko – Too Big For Words (03:51)
13. Band Of Gold – Love Songs Are Back Again (04:33)
14. Nils Lofgren – I Go To Pieces (02:54)
15. Tom Jones – Touch My Heart (06:26)
16. Anita Meyer – Worlds Apart (04:05)

Disc 11 - The Ultimate Music Collection 11 Ballads
1. Roxette – It Must Have Been Love (04:18)
2. Jeff Healey – While My Guitar Gently Weeps (05:14)
3. Eurythmics – Angel (04:47)
4. Christopher Cross – Is There Something (03:56)
5. Chanté Moore – Listen To My Song (05:31)
6. Jermaine Jackson – Do What You Do (04:46)
7. Jodeci – Lately (04:22)
8. Thomas Dolby – I Scare Myself (05:39)
9. Exposé – When I Looked At Him (05:31)
10. Climie Fisher – Rise To The Occasion (04:44)
11. The Stranglers – Golden Brown (03:28)
12. Nilsson – Without You (03:18)
13. Five Star – Whenever You're Ready (04:15)
14. Gerry Shearston – I Get A Kick Out Of You (03:38)
15. Rare Bird – Sympathy (02:44)
16. Dionne Warwick – All The Love In The World (03:29)

Disc 12 - The Ultimate Music Collection 12 Ballads
1. Lou Reed – Perfect Day (03:43)
2. Kenny Rogers & Sheena Easton – We've Got Tonight (03:47)
3. Curtis Stigers – I Wonder Why (04:26)
4. Bow Wow Wow – The Man Mountain (02:26)
5. Fairground Attraction – Find My Love (03:41)
6. Julia Fordham – Happy Ever After (03:43)
7. Johnny Hates Jazz – Turn Back The Clock (04:19)
8. Carly Simon – Coming Around Again/Itsy Bitsy Spider (07:05)
9. Aaliyah – (At Your Best) You Are Love (04:49)
10. Cockney Rebel – Sebastian (04:08)
11. Minnie Ripperton – Lovin' You (03:41)
12. Limahl – Never Ending Story (03:27)
13. Brendan Croker & The 5 O'Clock Shadows – This Kind Of Life (03:16)
14. Ruby Turner & The Temptations – Just My Imagination (04:33)
15. Margriet Eshuijs – God Is Asleep (04:32)
16. Spandau Ballet – Only When You Leave (05:02)

Disc 13 - The Ultimate Music Collection 13 Love
1. Vicki Brown – Stay With Me 'Til The Morning (03:47)
2. Lisa Stansfield – Live Together (06:08)
3. Take That – I Found Heaven (04:01)
4. Sheena Easton – Follow My Rainbow (04:47)
5. Rick Astley – Cry For Help (04:49)
6. Gladys Knight – Licence To Kill (05:12)
7. Tom Jones – At This Moment (03:50)
8. Clannad – Theme From Harry's Game (02:29)
9. Eurythmics – Love Is A Stranger (03:38)
10. Roxette – Listen To Your Heart (05:26)
11. Jon Secada – Angel (04:10)
12. Billy Ocean – Suddenly (03:49)
13. The Four Tops – Indestructible (04:28)
14. Londonbeat – A Better Love (03:58)
15. Aretha Franklin & Elton John – Through The Storm (04:22)
16. Haddaway – What Is Love (04:29)

Disc 14 - The Ultimate Music Collection 14 Love
1. Alan Parsons Project – Old And Wise (04:10)
2. Pointer Sisters – I'm So Excited (03:49)
3. Huey Lewis & The News – The Power Of Love (03:55)
4. Thompson Twins – Doctor Doctor (05:47)
5. Bell Biv Devoe – Please Come Back (04:31)
6. Ashford & Simpson – Solid (05:07)
7. Five Star – All Fall Down (03:33)
8. Heaven 17 – Temptation (03:32)
9. Mike Oldfield – To France (feat. Maggie Reilly) (04:32)
10. Eric Carmen – All By Myself (07:03)
11. George McCrae – Rock Your Baby (05:33)
12. The Funboy Three – The Tunnel Of Love (03:07)
13. Alison Limerick – Where Love Lives (Come On In) (03:33)
14. Delegation – Put A Little Love On Me (04:28)
15. Shawn Christopher – Make My Love (04:40)
16. The Specials – Too Much Too Young (02:05)

Disc 15 - The Ultimate Music Collection 15 Love
1. Ultravox – Dancing With Tears In My Eyes (04:03)
2. Blondie – Heart Of Glass (04:31)
3. Culture Club – Do You Really Want To Hurt Me (04:22)
4. Grayson Hugh – Talk It Over (04:14)
5. Lisa Stansfield – Change (05:37)
6. Jermaine Jackson & Pia Zadora – When The Rain Begins To Fall (04:04)
7. Bad Boys Blue – You're A Woman (03:56)
8. Clifford T. Ward – Gaye (03:33)
9. Tiffany – I Think We're Alone Now (03:45)
10. KC & The Sunshine Band – Please Don't Go (03:48)
11. Chesney Hawkes – The One And Only (03:41)
12. Anita Meyer & Lee Towers – Run To Me (04:42)
13. Talk Talk – Such A Shame (05:42)
14. Modern Talking – Atlantis Is Calling (S.O.S. For Love) (03:47)
15. Wilson Phillips – A Reason To Believe (04:03)
16. Pat Benatar – We Belong (03:39)

Disc 16 - The Ultimate Music Collection 16 Love
1. Diana Ross – Why Do Fools Fall In Love (02:53)
2. Mr. Mister – Kyrie (04:24)
3. Carly Simon – Have You Seen Me Lately? (04:13)
4. Worlds Apart – Could It Be I'm Falling In Love (03:43)
5. Julian Lennon – Saltwater (04:07)
6. Boy George – Everything I Own (03:53)
7. Hot Chocolate – You Sexy Thing (03:43)
8. David Grant & Jaki Graham – Mated (03:50)
9. The Pale Fountains – Thank You (03:05)
10. Clannad – In A Lifetime (03:09)
11. A Flock Of Seagulls – Wishing (If I Had A Photograph Of You) (05:31)
12. Grant & Forsyth – Anything For You (04:08)
13. T'Pau – China In Your Hand (05:06)
14. The Blow Monkeys – It Doesn't Have To Be This Way (04:02)
15. June Lodge – Someone Loves You Honey (03:51)
16. Sydney Youngblood – If Only I Could (03:29)

Disc 17 - The Ultimate Music Collection 17 Rock
1. Mr. Mister – Broken Wings (05:46)
2. Pat Benatar – Love Is A Battlefield (05:21)
3. John Farnham – You're The Voice (05:00)
4. Marillion – Kayleigh (03:33)
5. Dan Hartman – I Can Dream About You (04:07)
6. Vaya Con Dios – Heading For A Fall (03:40)
7. Herman Brood – Saturday Night (03:42)
8. Starship – We Built This City (04:37)
9. J. Geils Band – Centerfold (03:36)
10. Lou Reed – Walk On The Wild Side (04:13)
11. Alan Parsons Project – Don't Answer Me (04:10)
12. Glenn Frey – The Heat Is On (03:45)
13. Meat Loaf – Paradise By The Dash Board Light (Live) (10:03)
14. Stray Cats – Rock This Town (02:38)
15. Wax – Bridge To Your Heart (04:13)
16. Tom Robinson – Listen To The Radio (03:29)

Disc 18 - The Ultimate Music Collection 18 Rock
1. Gary Moore – Parisienne Walkways (03:19)
2. Starship – Sara (04:51)
3. Ellis Beggs & Howard – Big Bubbles No Troubles (03:30)
4. The Motels – Suddenly Last Summer (03:31)
5. Lou Reed – Vicious (02:55)
6. Herman Brood – Never Be Clever (03:03)
7. Trixter – Surrender (05:48)
8. Huey Lewis & The News – Stuck With You (04:26)
9. Jethro Tull – Locomotive Breath (04:30)
10. Kansas – Stand Beside Me (03:28)
11. Aretha Franklin – Who's Zoomin' Who (04:41)
12. Dave Edmunds – Slipping Away (04:21)
13. Saxon – I Can't Wait Anymore (04:30)
14. The Stranglers – Strange Little Girl (02:41)
15. Jefferson Airplane – Somebody To Love (02:58)
16. Deep Purple – Black Night (03:26)

Disc 19 - The Ultimate Music Collection 19 Rock
1. Stray Cats – Runaway Boys (02:59)
2. The Babys – Isn't It Time (04:02)
3. Fischer Z – Masquerade (04:49)
4. Starship – Nothing's Gonna Stop Us Now (04:27)
5. Mama's Boys – In Over My Head (04:31)
6. Steppenwolf – Born To Be Wild (03:28)
7. Stephen Bishop – On And On (03:02)
8. Taylor Dayne – Tell It To My Heart (03:39)
9. The Waterboys – The Whole Of The Moon (04:59)
10. John Farnham – Age Of Reason (05:05)
11. Romeo's Daughter – I Cry Myself To Sleep At Night (04:47)
12. Ike And Tina Turner – Proud Mary (04:56)
13. Cutting Crew – (I Just) Died In Your Arms (04:30)
14. E.L.O. – Roll Over Beethoven (04:32)
15. A Flock Of Seagulls – The More You Live, The More You Love (04:07)
16. Spandau Ballet – Gold (03:54)

Disc 20 - The Ultimate Music Collection 20 Rock
1. Aretha Franklin – Jumpin' Jack Flash (05:01)
2. The Stone Roses – Fools Gold (04:16)
3. Procol Harum – The Truth Won't Fade Away (04:15)
4. The Motors – Airport (04:35)
5. Saxon – Ride Like The Wind (04:26)
6. The Pilgrims – I Can't Resist (03:46)
7. Level 42 – Love In A Peaceful World (04:27)
8. The Silencers – I Can Feel It (05:18)
9. Ten Years After – Love Like A Man (07:35)
10. The Guess Who – American Woman (03:48)
11. Suzi Quatro – Can The Can (03:34)
12. Deep Purple – Smoke On The Water (03:45)
13. Canned Heat – On The Road Again (03:23)
14. Little River Band – Home On Monday (03:49)
15. Herman Brood – Still Believe (Live) (03:12)
16. Meat Loaf – Bat Out Of Hell (Live) (10:30)
Exact Audio Copy V1.6 from 23. October 2020

EAC extraction logfile from 5. November 2021, 21:54

Various / The Ultimate Music Collection

Used drive : TSSTcorpCD/DVDW SH-S182D Adapter: 1 ID: 0

Read mode : Secure
Utilize accurate stream : Yes
Defeat audio cache : Yes
Make use of C2 pointers : No

Read offset correction : 6
Overread into Lead-In and Lead-Out : No
Fill up missing offset samples with silence : Yes
Delete leading and trailing silent blocks : No
Null samples used in CRC calculations : Yes
Used interface : Native Win32 interface for Win NT & 2000
Gap handling : Appended to previous track

Used output format : User Defined Encoder
Selected bitrate : 896 kBit/s
Quality : High
Add ID3 tag : No
Command line compressor : C:\Program Files (x86)\Exact Audio Copy\FLAC\FLAC.EXE
Additional command line options : -6 -V -T "ARTIST=%artist%" -T "TITLE=%title%" -T "ALBUM=%albumtitle%" -T "DATE=%year%" -T "TRACKNUMBER=%tracknr%" -T "GENRE=%genre%" -T "COMMENT=%comment%" -T "BAND=%albuminterpret%" -T "ALBUMARTIST=%albuminterpret%" -T "COMPOSER=%composer%" %haslyrics%–tag-from-file=LYRICS="%lyricsfile%"%haslyrics% -T "DISCNUMBER=%cdnumber%" -T "TOTALDISCS=%totalcds%" -T "TOTALTRACKS=%numtracks%" %hascover%–picture="%coverfile%"%hascover% %source% -o %dest%


TOC of the extracted CD

Track | Start | Length | Start sector | End sector
––––––––––––––––––––––––––––-
1 | 0:00.32 | 5:15.50 | 32 | 23706
2 | 5:16.07 | 5:13.38 | 23707 | 47219
3 | 10:29.45 | 6:20.37 | 47220 | 75756
4 | 16:50.07 | 4:15.50 | 75757 | 94931
5 | 21:05.57 | 3:10.13 | 94932 | 109194
6 | 24:15.70 | 4:10.47 | 109195 | 127991
7 | 28:26.42 | 2:45.45 | 127992 | 140411
8 | 31:12.12 | 4:08.63 | 140412 | 159074
9 | 35:21.00 | 5:45.52 | 159075 | 185001
10 | 41:06.52 | 4:10.28 | 185002 | 203779
11 | 45:17.05 | 4:16.67 | 203780 | 223046
12 | 49:33.72 | 3:28.28 | 223047 | 238674
13 | 53:02.25 | 4:15.40 | 238675 | 257839
14 | 57:17.65 | 6:44.00 | 257840 | 288139
15 | 64:01.65 | 4:12.27 | 288140 | 307066
16 | 68:14.17 | 5:13.58 | 307067 | 330599


Track 1

Filename F:\Losless\New Rips\VA - The Ultimate Music Collection (1995, BMG Special Products - SP 6305-6324, CD)\CD06 - Dance (SP 6310)\01. Snap - Rhythm Is A Dancer.wav

Pre-gap length 0:00:02.42

Peak level 97.7 %
Extraction speed 5.0 X
Track quality 100.0 %
Test CRC F63EA933
Copy CRC F63EA933
Accurately ripped (confidence 5) [38D476FC] (AR v2)
Copy OK

Track 2

Filename F:\Losless\New Rips\VA - The Ultimate Music Collection (1995, BMG Special Products - SP 6305-6324, CD)\CD06 - Dance (SP 6310)\02. Mel & Kim - Showing Out.wav

Pre-gap length 0:00:01.49

Peak level 97.9 %
Extraction speed 5.5 X
Track quality 100.0 %
Test CRC F20FAF47
Copy CRC F20FAF47
Accurately ripped (confidence 5) [BAD20B2D] (AR v2)
Copy OK

Track 3

Filename F:\Losless\New Rips\VA - The Ultimate Music Collection (1995, BMG Special Products - SP 6305-6324, CD)\CD06 - Dance (SP 6310)\03. Bobby Brown - Humpin' Around.wav

Pre-gap length 0:00:01.60

Peak level 82.6 %
Extraction speed 6.2 X
Track quality 100.0 %
Test CRC 1B9A6F3D
Copy CRC 1B9A6F3D
Accurately ripped (confidence 5) [50A3B55A] (AR v2)
Copy OK

Track 4

Filename F:\Losless\New Rips\VA - The Ultimate Music Collection (1995, BMG Special Products - SP 6305-6324, CD)\CD06 - Dance (SP 6310)\04. Candy Dulfer - Sax-A-Go-Go.wav

Pre-gap length 0:00:01.56

Peak level 98.4 %
Extraction speed 6.4 X
Track quality 100.0 %
Test CRC 40A8F9C2
Copy CRC 40A8F9C2
Accurately ripped (confidence 5) [E9408615] (AR v2)
Copy OK

Track 5

Filename F:\Losless\New Rips\VA - The Ultimate Music Collection (1995, BMG Special Products - SP 6305-6324, CD)\CD06 - Dance (SP 6310)\05. Felix - Don't You Want Me.wav

Pre-gap length 0:00:01.58

Peak level 98.1 %
Extraction speed 6.4 X
Track quality 100.0 %
Test CRC 9D1C1044
Copy CRC 9D1C1044
Accurately ripped (confidence 5) [21FF4EEA] (AR v2)
Copy OK

Track 6

Filename F:\Losless\New Rips\VA - The Ultimate Music Collection (1995, BMG Special Products - SP 6305-6324, CD)\CD06 - Dance (SP 6310)\06. Indee (2) Featuring Gigolo (3) - Pomm Pomm.wav

Pre-gap length 0:00:01.46

Peak level 78.0 %
Extraction speed 6.1 X
Track quality 99.9 %
Test CRC D0C67398
Copy CRC D0C67398
Accurately ripped (confidence 5) [BF02C713] (AR v2)
Copy OK

Track 7

Filename F:\Losless\New Rips\VA - The Ultimate Music Collection (1995, BMG Special Products - SP 6305-6324, CD)\CD06 - Dance (SP 6310)\07. Samantha Fox - I Only Wanna Be With You.wav

Pre-gap length 0:00:01.02

Peak level 87.1 %
Extraction speed 6.7 X
Track quality 100.0 %
Test CRC FBD0772E
Copy CRC FBD0772E
Accurately ripped (confidence 5) [BE9C7120] (AR v2)
Copy OK

Track 8

Filename F:\Losless\New Rips\VA - The Ultimate Music Collection (1995, BMG Special Products - SP 6305-6324, CD)\CD06 - Dance (SP 6310)\08. Billy Ocean - When The Going Gets Tough, The Tough Get Going.wav

Pre-gap length 0:00:01.85

Peak level 98.4 %
Extraction speed 7.4 X
Track quality 100.0 %
Test CRC 461F9C86
Copy CRC 461F9C86
Accurately ripped (confidence 5) [46ADDAD0] (AR v2)
Copy OK

Track 9

Filename F:\Losless\New Rips\VA - The Ultimate Music Collection (1995, BMG Special Products - SP 6305-6324, CD)\CD06 - Dance (SP 6310)\09. Caron Wheeler - Livin' In The Light.wav

Pre-gap length 0:00:01.13

Peak level 97.6 %
Extraction speed 7.8 X
Track quality 100.0 %
Test CRC E2E22358
Copy CRC E2E22358
Accurately ripped (confidence 5) [39887A31] (AR v2)
Copy OK

Track 10

Filename F:\Losless\New Rips\VA - The Ultimate Music Collection (1995, BMG Special Products - SP 6305-6324, CD)\CD06 - Dance (SP 6310)\10. Mr. V - Give Me Life.wav

Pre-gap length 0:00:01.52

Peak level 86.9 %
Extraction speed 8.0 X
Track quality 100.0 %
Test CRC F222E26E
Copy CRC F222E26E
Accurately ripped (confidence 5) [11E3B3F7] (AR v2)
Copy OK

Track 11

Filename F:\Losless\New Rips\VA - The Ultimate Music Collection (1995, BMG Special Products - SP 6305-6324, CD)\CD06 - Dance (SP 6310)\11. Zoo Inc. - Lay Down.wav

Pre-gap length 0:00:01.57

Peak level 63.3 %
Extraction speed 8.2 X
Track quality 100.0 %
Test CRC 25C09A29
Copy CRC 25C09A29
Accurately ripped (confidence 5) [C4DACC55] (AR v2)
Copy OK

Track 12

Filename F:\Losless\New Rips\VA - The Ultimate Music Collection (1995, BMG Special Products - SP 6305-6324, CD)\CD06 - Dance (SP 6310)\12. Anita Meyer - Why Tell Me Why.wav

Pre-gap length 0:00:01.32

Peak level 98.4 %
Extraction speed 8.2 X
Track quality 100.0 %
Test CRC 54240913
Copy CRC 54240913
Accurately ripped (confidence 5) [D3A4D591] (AR v2)
Copy OK

Track 13

Filename F:\Losless\New Rips\VA - The Ultimate Music Collection (1995, BMG Special Products - SP 6305-6324, CD)\CD06 - Dance (SP 6310)\13. Dr. Alban - One Love.wav

Pre-gap length 0:00:02.02

Peak level 61.8 %
Extraction speed 8.6 X
Track quality 100.0 %
Test CRC 8510B08B
Copy CRC 8510B08B
Accurately ripped (confidence 5) [D2DDB77B] (AR v2)
Copy OK

Track 14

Filename F:\Losless\New Rips\VA - The Ultimate Music Collection (1995, BMG Special Products - SP 6305-6324, CD)\CD06 - Dance (SP 6310)\14. Grid - Swamp Thing.wav

Pre-gap length 0:00:01.09

Peak level 55.4 %
Extraction speed 9.3 X
Track quality 100.0 %
Test CRC E7A2148D
Copy CRC E7A2148D
Accurately ripped (confidence 4) [3DC4966B] (AR v2)
Copy OK

Track 15

Filename F:\Losless\New Rips\VA - The Ultimate Music Collection (1995, BMG Special Products - SP 6305-6324, CD)\CD06 - Dance (SP 6310)\15. Alison Limerick - Love Come Down.wav

Pre-gap length 0:00:02.02

Peak level 76.7 %
Extraction speed 9.2 X
Track quality 100.0 %
Test CRC A3606DA4
Copy CRC A3606DA4
Accurately ripped (confidence 5) [570C3D96] (AR v2)
Copy OK

Track 16

Filename F:\Losless\New Rips\VA - The Ultimate Music Collection (1995, BMG Special Products - SP 6305-6324, CD)\CD06 - Dance (SP 6310)\16. Sub Sub Featuring Melanie Williams - Ain't No Love (Ain't No Use).wav

Pre-gap length 0:00:01.02

Peak level 82.0 %
Extraction speed 9.4 X
Track quality 100.0 %
Test CRC 454F9EFD
Copy CRC 454F9EFD
Accurately ripped (confidence 5) [89F8069F] (AR v2)
Copy OK


All tracks accurately ripped

No errors occurred

End of status report

–– AcoustID Plugin V1.2.0

Total fingerprints: 16


–– CUETools DB Plugin V2.1.6

[CTDB TOCID: BW.mfQAMHsifibYgAZIOrdpK4UU-] found
Submit result: BW.mfQAMHsifibYgAZIOrdpK4UU- has been confirmed
Track | CTDB Status
1 | (11/11) Accurately ripped
2 | (11/11) Accurately ripped
3 | (11/11) Accurately ripped
4 | (11/11) Accurately ripped
5 | (11/11) Accurately ripped
6 | (11/11) Accurately ripped
7 | (11/11) Accurately ripped
8 | (11/11) Accurately ripped
9 | ( 8/11) Accurately ripped, or (1/11) differs in 60 samples @04:05:29-04:05:30
10 | (11/11) Accurately ripped
11 | (11/11) Accurately ripped
12 | (11/11) Accurately ripped
13 | (11/11) Accurately ripped
14 | (10/11) Accurately ripped
15 | (11/11) Accurately ripped
16 | (11/11) Accurately ripped


==== Log checksum 2A49D084B0E2C36D7CF643287316AA1B725AFA51EA812C640B4BFE0B01BA647C ====


Exact Audio Copy V1.6 from 23. October 2020

EAC extraction logfile from 6. November 2021, 16:06

Various / The Ultimate Music Collection

Used drive : TSSTcorpCD/DVDW SH-S182D Adapter: 1 ID: 0

Read mode : Secure
Utilize accurate stream : Yes
Defeat audio cache : Yes
Make use of C2 pointers : No

Read offset correction : 6
Overread into Lead-In and Lead-Out : No
Fill up missing offset samples with silence : Yes
Delete leading and trailing silent blocks : No
Null samples used in CRC calculations : Yes
Used interface : Native Win32 interface for Win NT & 2000
Gap handling : Appended to previous track

Used output format : User Defined Encoder
Selected bitrate : 896 kBit/s
Quality : High
Add ID3 tag : No
Command line compressor : C:\Program Files (x86)\Exact Audio Copy\FLAC\FLAC.EXE
Additional command line options : -6 -V -T "ARTIST=%artist%" -T "TITLE=%title%" -T "ALBUM=%albumtitle%" -T "DATE=%year%" -T "TRACKNUMBER=%tracknr%" -T "GENRE=%genre%" -T "COMMENT=%comment%" -T "BAND=%albuminterpret%" -T "ALBUMARTIST=%albuminterpret%" -T "COMPOSER=%composer%" %haslyrics%–tag-from-file=LYRICS="%lyricsfile%"%haslyrics% -T "DISCNUMBER=%cdnumber%" -T "TOTALDISCS=%totalcds%" -T "TOTALTRACKS=%numtracks%" %hascover%–picture="%coverfile%"%hascover% %source% -o %dest%


TOC of the extracted CD

Track | Start | Length | Start sector | End sector
––––––––––––––––––––––––––––-
1 | 0:00.33 | 3:48.62 | 33 | 17194
2 | 3:49.20 | 6:09.38 | 17195 | 44907
3 | 9:58.58 | 4:02.50 | 44908 | 63107
4 | 14:01.33 | 4:49.37 | 63108 | 84819
5 | 18:50.70 | 4:50.38 | 84820 | 106607
6 | 23:41.33 | 5:14.25 | 106608 | 130182
7 | 28:55.58 | 3:51.50 | 130183 | 147557
8 | 32:47.33 | 2:30.50 | 147558 | 158857
9 | 35:18.08 | 3:40.37 | 158858 | 175394
10 | 38:58.45 | 5:28.08 | 175395 | 200002
11 | 44:26.53 | 4:11.55 | 200003 | 218882
12 | 48:38.33 | 3:51.25 | 218883 | 236232
13 | 52:29.58 | 4:29.37 | 236233 | 256444
14 | 56:59.20 | 3:59.63 | 256445 | 274432
15 | 60:59.08 | 4:23.62 | 274433 | 294219
16 | 65:22.70 | 4:29.05 | 294220 | 314399


Track 1

Filename F:\Losless\New Rips\VA - The Ultimate Music Collection (1995, BMG Special Products - SP 6305-6324, CD)\CD13 - Love (SP 6317)\01. Vicki Brown - Stay With Me 'Til The Morning.wav

Pre-gap length 0:00:02.44

Peak level 89.2 %
Extraction speed 4.8 X
Track quality 100.0 %
Test CRC 18412EDE
Copy CRC 18412EDE
Accurately ripped (confidence 5) [CBCE1C28] (AR v2)
Copy OK

Track 2

Filename F:\Losless\New Rips\VA - The Ultimate Music Collection (1995, BMG Special Products - SP 6305-6324, CD)\CD13 - Love (SP 6317)\02. Lisa Stansfield - Live Together.wav

Pre-gap length 0:00:01.49

Peak level 98.4 %
Extraction speed 5.1 X
Track quality 99.9 %
Test CRC BB3A31C2
Copy CRC BB3A31C2
Accurately ripped (confidence 5) [33205801] (AR v2)
Copy OK

Track 3

Filename F:\Losless\New Rips\VA - The Ultimate Music Collection (1995, BMG Special Products - SP 6305-6324, CD)\CD13 - Love (SP 6317)\03. Take That - I Found Heaven.wav

Pre-gap length 0:00:01.46

Peak level 98.4 %
Extraction speed 4.5 X
Track quality 99.9 %
Test CRC 195D54E5
Copy CRC 195D54E5
Accurately ripped (confidence 5) [1B28713F] (AR v2)
Copy OK

Track 4

Filename F:\Losless\New Rips\VA - The Ultimate Music Collection (1995, BMG Special Products - SP 6305-6324, CD)\CD13 - Love (SP 6317)\04. Sheena Easton - Follow My Rainbow.wav

Pre-gap length 0:00:01.57

Peak level 96.4 %
Extraction speed 5.7 X
Track quality 99.9 %
Test CRC 8AE8D257
Copy CRC 8AE8D257
Accurately ripped (confidence 5) [B66AEF2D] (AR v2)
Copy OK

Track 5

Filename F:\Losless\New Rips\VA - The Ultimate Music Collection (1995, BMG Special Products - SP 6305-6324, CD)\CD13 - Love (SP 6317)\05. Rick Astley - Cry For Help.wav

Pre-gap length 0:00:01.53

Peak level 96.2 %
Extraction speed 6.0 X
Track quality 99.9 %
Test CRC 143CF912
Copy CRC 143CF912
Accurately ripped (confidence 5) [EA76670B] (AR v2)
Copy OK

Track 6

Filename F:\Losless\New Rips\VA - The Ultimate Music Collection (1995, BMG Special Products - SP 6305-6324, CD)\CD13 - Love (SP 6317)\06. Gladys Knight - Licence To Kill.wav

Pre-gap length 0:00:01.44

Peak level 74.7 %
Extraction speed 7.1 X
Track quality 100.0 %
Test CRC F590C3B8
Copy CRC F590C3B8
Accurately ripped (confidence 5) [5B53989D] (AR v2)
Copy OK

Track 7

Filename F:\Losless\New Rips\VA - The Ultimate Music Collection (1995, BMG Special Products - SP 6305-6324, CD)\CD13 - Love (SP 6317)\07. Tom Jones - At This Moment.wav

Pre-gap length 0:00:01.53

Peak level 96.0 %
Extraction speed 7.2 X
Track quality 100.0 %
Test CRC 8E880450
Copy CRC 8E880450
Accurately ripped (confidence 5) [8A3FF37A] (AR v2)
Copy OK

Track 8

Filename F:\Losless\New Rips\VA - The Ultimate Music Collection (1995, BMG Special Products - SP 6305-6324, CD)\CD13 - Love (SP 6317)\08. Clannad - Theme From Harry's Game.wav

Pre-gap length 0:00:01.57

Peak level 54.8 %
Extraction speed 6.9 X
Track quality 100.0 %
Test CRC 5618150A
Copy CRC 5618150A
Accurately ripped (confidence 5) [BFFA71B6] (AR v2)
Copy OK

Track 9

Filename F:\Losless\New Rips\VA - The Ultimate Music Collection (1995, BMG Special Products - SP 6305-6324, CD)\CD13 - Love (SP 6317)\09. Eurythmics - Love Is A Stranger.wav

Pre-gap length 0:00:01.57

Peak level 81.7 %
Extraction speed 7.5 X
Track quality 100.0 %
Test CRC 886C89F4
Copy CRC 886C89F4
Accurately ripped (confidence 5) [07DBB7A2] (AR v2)
Copy OK

Track 10

Filename F:\Losless\New Rips\VA - The Ultimate Music Collection (1995, BMG Special Products - SP 6305-6324, CD)\CD13 - Love (SP 6317)\10. Roxette - Listen To Your Heart.wav

Pre-gap length 0:00:01.56

Peak level 98.4 %
Extraction speed 8.2 X
Track quality 100.0 %
Test CRC 5C4A7F5D
Copy CRC 5C4A7F5D
Accurately ripped (confidence 5) [B4219BE2] (AR v2)
Copy OK

Track 11

Filename F:\Losless\New Rips\VA - The Ultimate Music Collection (1995, BMG Special Products - SP 6305-6324, CD)\CD13 - Love (SP 6317)\11. Jon Secada - Angel.wav

Pre-gap length 0:00:01.90

Peak level 90.3 %
Extraction speed 8.3 X
Track quality 100.0 %
Test CRC 8CC8F113
Copy CRC 8CC8F113
Accurately ripped (confidence 5) [AF208DFA] (AR v2)
Copy OK

Track 12

Filename F:\Losless\New Rips\VA - The Ultimate Music Collection (1995, BMG Special Products - SP 6305-6324, CD)\CD13 - Love (SP 6317)\12. Billy Ocean - Suddenly.wav

Pre-gap length 0:00:01.53

Peak level 85.6 %
Extraction speed 8.4 X
Track quality 100.0 %
Test CRC 6FE39E11
Copy CRC 6FE39E11
Accurately ripped (confidence 5) [F2569909] (AR v2)
Copy OK

Track 13

Filename F:\Losless\New Rips\VA - The Ultimate Music Collection (1995, BMG Special Products - SP 6305-6324, CD)\CD13 - Love (SP 6317)\13. The Four Tops - Indestructible.wav

Pre-gap length 0:00:01.46

Peak level 95.5 %
Extraction speed 8.7 X
Track quality 100.0 %
Test CRC 83EE45F4
Copy CRC 83EE45F4
Accurately ripped (confidence 4) [91198C4B] (AR v2)
Copy OK

Track 14

Filename F:\Losless\New Rips\VA - The Ultimate Music Collection (1995, BMG Special Products - SP 6305-6324, CD)\CD13 - Love (SP 6317)\14. Londonbeat - A Better Love.wav

Pre-gap length 0:00:01.46

Peak level 98.1 %
Extraction speed 8.8 X
Track quality 100.0 %
Test CRC 71E676A9
Copy CRC 71E676A9
Accurately ripped (confidence 5) [A38B9351] (AR v2)
Copy OK

Track 15

Filename F:\Losless\New Rips\VA - The Ultimate Music Collection (1995, BMG Special Products - SP 6305-6324, CD)\CD13 - Love (SP 6317)\15. Aretha Franklin And Elton John - Through The Storm.wav

Pre-gap length 0:00:01.57

Peak level 93.0 %
Extraction speed 9.1 X
Track quality 100.0 %
Test CRC 5ED11387
Copy CRC 5ED11387
Accurately ripped (confidence 5) [665C2F3E] (AR v2)
Copy OK

Track 16

Filename F:\Losless\New Rips\VA - The Ultimate Music Collection (1995, BMG Special Products - SP 6305-6324, CD)\CD13 - Love (SP 6317)\16. Haddaway - What Is Love.wav

Pre-gap length 0:00:01.56

Peak level 72.6 %
Extraction speed 9.4 X
Track quality 100.0 %
Test CRC 625772F2
Copy CRC 625772F2
Accurately ripped (confidence 4) [50ED17D1] (AR v2)
Copy OK


All tracks accurately ripped

No errors occurred

End of status report

–– AcoustID Plugin V1.2.0

Total fingerprints: 16


–– CUETools DB Plugin V2.1.6

[CTDB TOCID: tml0hYK2NOxnMYFGUbkSmvqhAb4-] found
Submit result: tml0hYK2NOxnMYFGUbkSmvqhAb4- has been confirmed
Track | CTDB Status
1 | (11/11) Accurately ripped
2 | (11/11) Accurately ripped
3 | (11/11) Accurately ripped
4 | (10/11) Accurately ripped
5 | (11/11) Accurately ripped
6 | (11/11) Accurately ripped
7 | (11/11) Accurately ripped
8 | (11/11) Accurately ripped
9 | (11/11) Accurately ripped
10 | (11/11) Accurately ripped
11 | (11/11) Accurately ripped
12 | (11/11) Accurately ripped
13 | (10/11) Accurately ripped
14 | (11/11) Accurately ripped
15 | (10/11) Accurately ripped
16 | (10/11) Accurately ripped


==== Log checksum 0ED61121FF68B91D7A38AA48DA0F75CB81C072131AB094B2AAEB1A5F12BDA648 ====


Exact Audio Copy V1.6 from 23. October 2020

EAC extraction logfile from 6. November 2021, 19:41

Various / The Ultimate Music Collection

Used drive : TSSTcorpCD/DVDW SH-S182D Adapter: 1 ID: 0

Read mode : Secure
Utilize accurate stream : Yes
Defeat audio cache : Yes
Make use of C2 pointers : No

Read offset correction : 6
Overread into Lead-In and Lead-Out : No
Fill up missing offset samples with silence : Yes
Delete leading and trailing silent blocks : No
Null samples used in CRC calculations : Yes
Used interface : Native Win32 interface for Win NT & 2000
Gap handling : Appended to previous track

Used output format : User Defined Encoder
Selected bitrate : 896 kBit/s
Quality : High
Add ID3 tag : No
Command line compressor : C:\Program Files (x86)\Exact Audio Copy\FLAC\FLAC.EXE
Additional command line options : -6 -V -T "ARTIST=%artist%" -T "TITLE=%title%" -T "ALBUM=%albumtitle%" -T "DATE=%year%" -T "TRACKNUMBER=%tracknr%" -T "GENRE=%genre%" -T "COMMENT=%comment%" -T "BAND=%albuminterpret%" -T "ALBUMARTIST=%albuminterpret%" -T "COMPOSER=%composer%" %haslyrics%–tag-from-file=LYRICS="%lyricsfile%"%haslyrics% -T "DISCNUMBER=%cdnumber%" -T "TOTALDISCS=%totalcds%" -T "TOTALTRACKS=%numtracks%" %hascover%–picture="%coverfile%"%hascover% %source% -o %dest%


TOC of the extracted CD

Track | Start | Length | Start sector | End sector
––––––––––––––––––––––––––––-
1 | 0:00.32 | 3:21.13 | 32 | 15119
2 | 3:21.45 | 4:52.40 | 15120 | 37059
3 | 8:14.10 | 3:32.30 | 37060 | 52989
4 | 11:46.40 | 3:32.25 | 52990 | 68914
5 | 15:18.65 | 2:56.45 | 68915 | 82159
6 | 18:15.35 | 3:04.35 | 82160 | 95994
7 | 21:19.70 | 5:50.22 | 95995 | 122266
8 | 27:10.17 | 4:27.58 | 122267 | 142349
9 | 31:38.00 | 4:31.10 | 142350 | 162684
10 | 36:09.10 | 3:29.40 | 162685 | 178399
11 | 39:38.50 | 4:42.57 | 178400 | 199606
12 | 44:21.32 | 4:22.63 | 199607 | 219319
13 | 48:44.20 | 4:31.30 | 219320 | 239674
14 | 53:15.50 | 2:43.20 | 239675 | 251919
15 | 55:58.70 | 2:59.27 | 251920 | 265371
16 | 58:58.22 | 3:26.53 | 265372 | 280874


Track 1

Filename F:\Losless\New Rips\VA - The Ultimate Music Collection (1995, BMG Special Products - SP 6305-6324, CD)\CD18 - Rock (SP 6322)\01. Gary Moore - Parisienne Walkways.wav

Pre-gap length 0:00:02.42

Peak level 71.5 %
Extraction speed 4.0 X
Track quality 99.9 %
Test CRC 3E238719
Copy CRC 3E238719
Accurately ripped (confidence 5) [58DA774A] (AR v2)
Copy OK

Track 2

Filename F:\Losless\New Rips\VA - The Ultimate Music Collection (1995, BMG Special Products - SP 6305-6324, CD)\CD18 - Rock (SP 6322)\02. Starship - Sara.wav

Pre-gap length 0:00:01.26

Peak level 69.8 %
Extraction speed 5.3 X
Track quality 100.0 %
Test CRC B2769400
Copy CRC B2769400
Accurately ripped (confidence 5) [A4CD795B] (AR v2)
Copy OK

Track 3

Filename F:\Losless\New Rips\VA - The Ultimate Music Collection (1995, BMG Special Products - SP 6305-6324, CD)\CD18 - Rock (SP 6322)\03. Ellis Beggs & Howard - Big Bubbles No Troubles.wav

Pre-gap length 0:00:01.40

Peak level 84.1 %
Extraction speed 5.6 X
Track quality 100.0 %
Test CRC 65E549DF
Copy CRC 65E549DF
Accurately ripped (confidence 5) [03C17739] (AR v2)
Copy OK

Track 4

Filename F:\Losless\New Rips\VA - The Ultimate Music Collection (1995, BMG Special Products - SP 6305-6324, CD)\CD18 - Rock (SP 6322)\04. The Motels - Suddenly Last Summer.wav

Pre-gap length 0:00:01.49

Peak level 77.6 %
Extraction speed 5.9 X
Track quality 100.0 %
Test CRC 789802FE
Copy CRC 789802FE
Accurately ripped (confidence 5) [CC7BDF6B] (AR v2)
Copy OK

Track 5

Filename F:\Losless\New Rips\VA - The Ultimate Music Collection (1995, BMG Special Products - SP 6305-6324, CD)\CD18 - Rock (SP 6322)\05. Lou Reed - Vicious.wav

Pre-gap length 0:00:01.22

Peak level 90.5 %
Extraction speed 5.0 X
Track quality 99.9 %
Test CRC 6659EADE
Copy CRC 6659EADE
Accurately ripped (confidence 5) [7E8E1933] (AR v2)
Copy OK

Track 6

Filename F:\Losless\New Rips\VA - The Ultimate Music Collection (1995, BMG Special Products - SP 6305-6324, CD)\CD18 - Rock (SP 6322)\06. Herman Brood - Never Be Clever.wav

Pre-gap length 0:00:01.02

Peak level 70.7 %
Extraction speed 6.2 X
Track quality 100.0 %
Test CRC 9233F0DE
Copy CRC 9233F0DE
Accurately ripped (confidence 5) [330A8E27] (AR v2)
Copy OK

Track 7

Filename F:\Losless\New Rips\VA - The Ultimate Music Collection (1995, BMG Special Products - SP 6305-6324, CD)\CD18 - Rock (SP 6322)\07. Trixter - Surrender.wav

Pre-gap length 0:00:01.22

Peak level 65.5 %
Extraction speed 7.0 X
Track quality 100.0 %
Test CRC CC9033D1
Copy CRC CC9033D1
Accurately ripped (confidence 5) [8742D7C4] (AR v2)
Copy OK

Track 8

Filename F:\Losless\New Rips\VA - The Ultimate Music Collection (1995, BMG Special Products - SP 6305-6324, CD)\CD18 - Rock (SP 6322)\08. Huey Lewis & The News - Stuck With You.wav

Pre-gap length 0:00:01.85

Peak level 70.7 %
Extraction speed 7.2 X
Track quality 100.0 %
Test CRC 7A5E131A
Copy CRC 7A5E131A
Accurately ripped (confidence 5) [6E642ABA] (AR v2)
Copy OK

Track 9

Filename F:\Losless\New Rips\VA - The Ultimate Music Collection (1995, BMG Special Products - SP 6305-6324, CD)\CD18 - Rock (SP 6322)\09. Jethro Tull - Locomotive Breath.wav

Pre-gap length 0:00:01.02

Peak level 78.1 %
Extraction speed 7.5 X
Track quality 100.0 %
Test CRC AFEA7C09
Copy CRC AFEA7C09
Accurately ripped (confidence 5) [D1C95CE2] (AR v2)
Copy OK

Track 10

Filename F:\Losless\New Rips\VA - The Ultimate Music Collection (1995, BMG Special Products - SP 6305-6324, CD)\CD18 - Rock (SP 6322)\10. Kansas - Stand Beside Me.wav

Pre-gap length 0:00:01.02

Peak level 64.3 %
Extraction speed 7.5 X
Track quality 100.0 %
Test CRC BBC88F79
Copy CRC BBC88F79
Accurately ripped (confidence 5) [BDBA5356] (AR v2)
Copy OK

Track 11

Filename F:\Losless\New Rips\VA - The Ultimate Music Collection (1995, BMG Special Products - SP 6305-6324, CD)\CD18 - Rock (SP 6322)\11. Aretha Franklin - Who's Zoomin' Who.wav

Pre-gap length 0:00:01.02

Peak level 59.0 %
Extraction speed 8.0 X
Track quality 100.0 %
Test CRC FFBB34B5
Copy CRC FFBB34B5
Accurately ripped (confidence 5) [A1F1405E] (AR v2)
Copy OK

Track 12

Filename F:\Losless\New Rips\VA - The Ultimate Music Collection (1995, BMG Special Products - SP 6305-6324, CD)\CD18 - Rock (SP 6322)\12. Dave Edmunds - Slipping Away.wav

Pre-gap length 0:00:01.02

Peak level 73.1 %
Extraction speed 8.3 X
Track quality 100.0 %
Test CRC 20F3A7F5
Copy CRC 20F3A7F5
Accurately ripped (confidence 5) [E3517F0F] (AR v2)
Copy OK

Track 13

Filename F:\Losless\New Rips\VA - The Ultimate Music Collection (1995, BMG Special Products - SP 6305-6324, CD)\CD18 - Rock (SP 6322)\13. Saxon - I Can't Wait Anymore.wav

Pre-gap length 0:00:01.02

Peak level 70.7 %
Extraction speed 8.5 X
Track quality 100.0 %
Test CRC E3FAD778
Copy CRC E3FAD778
Accurately ripped (confidence 5) [6C665D5B] (AR v2)
Copy OK

Track 14

Filename F:\Losless\New Rips\VA - The Ultimate Music Collection (1995, BMG Special Products - SP 6305-6324, CD)\CD18 - Rock (SP 6322)\14. The Stranglers - Strange Little Girl.wav

Pre-gap length 0:00:01.02

Peak level 76.3 %
Extraction speed 8.0 X
Track quality 100.0 %
Test CRC 820335A2
Copy CRC 820335A2
Accurately ripped (confidence 5) [7EDEA8E0] (AR v2)
Copy OK

Track 15

Filename F:\Losless\New Rips\VA - The Ultimate Music Collection (1995, BMG Special Products - SP 6305-6324, CD)\CD18 - Rock (SP 6322)\15. Jefferson Airplane - Somebody To Love.wav

Pre-gap length 0:00:01.40

Peak level 45.2 %
Extraction speed 8.4 X
Track quality 100.0 %
Test CRC BE447658
Copy CRC BE447658
Accurately ripped (confidence 5) [B37BE343] (AR v2)
Copy OK

Track 16

Filename F:\Losless\New Rips\VA - The Ultimate Music Collection (1995, BMG Special Products - SP 6305-6324, CD)\CD18 - Rock (SP 6322)\16. Deep Purple - Black Night.wav

Pre-gap length 0:00:01.29

Peak level 73.8 %
Extraction speed 8.7 X
Track quality 100.0 %
Test CRC F024BF1C
Copy CRC F024BF1C
Accurately ripped (confidence 4) [8CC5663D] (AR v2)
Copy OK


All tracks accurately ripped

No errors occurred

End of status report

–– AcoustID Plugin V1.2.0

Total fingerprints: 16


–– CUETools DB Plugin V2.1.6

[CTDB TOCID: ekaGhIhDArozHUUFA92Bt6gkYC8-] found
Submit result: ekaGhIhDArozHUUFA92Bt6gkYC8- has been confirmed
Track | CTDB Status
1 | (12/12) Accurately ripped
2 | (12/12) Accurately ripped
3 | (12/12) Accurately ripped
4 | (12/12) Accurately ripped
5 | (12/12) Accurately ripped
6 | (12/12) Accurately ripped
7 | (12/12) Accurately ripped
8 | (12/12) Accurately ripped
9 | (12/12) Accurately ripped
10 | (12/12) Accurately ripped
11 | (12/12) Accurately ripped
12 | (11/12) Accurately ripped
13 | (12/12) Accurately ripped
14 | (12/12) Accurately ripped
15 | (12/12) Accurately ripped
16 | (12/12) Accurately ripped


==== Log checksum 92B66A3E5CFA5553B93E682C1F2FB9B7F7415CDC39890EBFF2FB6B02ACE24499 ====