Subcategories
Tags
Language
Tags

The Union - Siren's Song (2011) {Japanese Edition}

Posted By: popsakov
The Union - Siren's Song (2011) {Japanese Edition}

The Union - Siren's Song (2011) {Japanese Edition}
EAC Rip | FLAC (Img) + Cue + Log ~ 367 Mb | MP3 CBR320 ~ 134 Mb
Scans Included | 00:52:10 | RAR 5% Recovery
Classic Rock, Hard Rock, Blues Rock | Hydrant Music #QIHC 10021

Siren's Song is the second studio album by The Union, the English rock band formed by ex-Thunder guitarist Luke Morley and Peter Shoulder (formerly of Winterville). It was released on 3 October 2011.

The Union was formed by guitarist Luke Morley and vocalist/guitarist Peter Shoulder after Luke’s twenty-year career with Thunder came to an end in 2009. Peter Shoulder was the vocalist, songwriter and musical rudder of Winterville. In 2006 he won The W.C Handy Blues Foundation award, presented to him in Memphis for co-writing the American Blues Song of the Year, ‘Think of Me’. The song was performed by blues legend Little Milton. At the time of winning there were only two other British artists to have received that particular award, the others being Eric Clapton and Peter Green.

The Union’s eponymous debut album was released in August 2010 to acclaim from both fans and the critics, and saw the band end the year on a high when they were voted ‘Best New Band’ at the Classic Rock Roll of Honour Awards, where they celebrated in style by performing live to a hall packed with rock royalty.

2011 saw the band tour with Whitesnake and the recently reformed Thin Lizzy on their respective UK tours, as well as a successful first foray into Europe as the special guests of Belgian rockers Triggerfinger,

Second album ‘Siren’s Song’ was released in October 2011 to coincide with the band’s second headlining UK tour of the year.

Such was The Union’s burgeoning pulling power that the band were invited to go straight back out on the road in March 2012 on a co-headline UK & Ireland tour with The Answer. Shortly afterwards ‘Siren’s Song’ was nominated for ‘Album Of The Year’ at Classic Rock Magazine’s 2012 ‘Roll of Honour’.

Summer 2012 saw the band playing various festival dates across Europe, most notably Download in the UK, Azkena in Northern Spain and Bospop in Holland and in July 2012 Luke and Pete also found time to join Childline Rocks’ fundraising Harley Davidson ride through the spectacular scenery of British Columbia and the north-western States of the USA. This was the second such trip the boys had undertaken in just under a year and both enjoyed the process so much that it inspired new material that would come to be recorded later in the year.

The songwriting process had continued at a considerable pace throughout the year and recording sessions for what would become The Union’s third album began on October 1st at the band’s second home, Walton Castle in North Somerset.

The new album entitled ‘The World Is Yours’ was completed at the end of November and is set for release on February 11th 2013 through Payola Music. A ten date UK tour begins two days later on February 13th and 2013 promises to be yet another busy year…

***************

Track List:

01. Siren's Song [4:42]
02. Blame It On Tupelo [4:55]
03. Orion [3:22]
04. Obsession [4:44]
05. Make Up Your Mind [4:54]
06. The Remedy [3:47]
07. Cut The Line [4:53]
08. Burning Daylight [4:21]
09. Black Gold [4:08]
10. Time [4:19]
11. If I Could Make You Mine [3:24]
12. Easy Street (Live In Holland 2011) [4:47]

Exact Audio Copy V1.3 from 2. September 2016

Отчёт EAC об извлечении, выполненном 16. июня 2021, 9:48

The Union / Siren's Song (QIHC 10021)

Дисковод: TSSTcorpCDDVDW SH-S222A Adapter: 1 ID: 0

Режим чтения : Достоверность
Использование точного потока : Да
Отключение кэша аудио : Да
Использование указателей C2 : Нет

Коррекция смещения при чтении : 6
Способность читать области Lead-in и Lead-out : Нет
Заполнение пропущенных сэмплов тишиной : Да
Удаление блоков с тишиной в начале и конце : Нет
При вычислениях CRC использовались нулевые сэмплы : Да
Интерфейс : Встроенный Win32-интерфейс для Win NT/2000

Выходной формат : Пользовательский кодировщик
Выбранный битрейт : 896 kBit/s
Качество : Высокий
Добавление ID3-тега : Нет
Утилита сжатия : C:\Program Files\Exact Audio Copy\FLAC\FLAC.EXE
Дополнительные параметры : -6 -V -T "ARTIST=%artist%" -T "TITLE=%title%" -T "ALBUM=%albumtitle%" -T "DATE=%year%" -T "TRACKNUMBER=%tracknr%" -T "GENRE=%genre%" -T "COMMENT=%comment%" -T "BAND=%albuminterpret%" -T "ALBUMARTIST=%albuminterpret%" -T "COMPOSER=%composer%" %haslyrics%–tag-from-file=LYRICS="%lyricsfile%"%haslyrics% -T "DISCNUMBER=%cdnumber%" -T "TOTALDISCS=%totalcds%" -T "TOTALTRACKS=%numtracks%" %hascover%–picture="%coverfile%"%hascover% %source% -o %dest%


TOC извлечённого CD

Трек | Старт | Длительность | Начальный сектор | Конечный сектор
––––––––––––––––––––––––––––––––––-
1 | 0:00.00 | 4:41.46 | 0 | 21120
2 | 4:41.46 | 4:54.45 | 21121 | 43215
3 | 9:36.16 | 3:21.40 | 43216 | 58330
4 | 12:57.56 | 4:43.16 | 58331 | 79571
5 | 17:40.72 | 4:53.02 | 79572 | 101548
6 | 22:33.74 | 3:46.51 | 101549 | 118549
7 | 26:20.50 | 4:52.23 | 118550 | 140472
8 | 31:12.73 | 4:20.54 | 140473 | 160026
9 | 35:33.52 | 4:07.68 | 160027 | 178619
10 | 39:41.45 | 4:18.40 | 178620 | 198009
11 | 44:00.10 | 3:23.25 | 198010 | 213259
12 | 47:23.35 | 4:46.39 | 213260 | 234748


Характеристики диапазона извлечения и сообщения об ошибках

Выбранный диапазон

Имя файла D:\Music\The Union - Siren's Song (QIHC 10021).wav

Пиковый уровень 100.0 %
Скорость извлечения 7.0 X
Качество диапазона 100.0 %
CRC теста 027AA731
CRC копии 027AA731
Копирование… OK

Ошибок не произошло


AccurateRip: сводка

Трек 1 точность не определена (достоверность 3) [F35F7225], AccurateRip вернул [337C1217] (AR v2)
Трек 2 точность не определена (достоверность 3) [0D320F7E], AccurateRip вернул [FB7B66F7] (AR v2)
Трек 3 точность не определена (достоверность 3) [9AD9F548], AccurateRip вернул [2F919FA0] (AR v2)
Трек 4 точность не определена (достоверность 3) [4CEB0FEE], AccurateRip вернул [33CA45B4] (AR v2)
Трек 5 точность не определена (достоверность 3) [02958BFD], AccurateRip вернул [4B7678EE] (AR v2)
Трек 6 точность не определена (достоверность 3) [000F783F], AccurateRip вернул [086301E4] (AR v2)
Трек 7 точность не определена (достоверность 3) [5D8C56D1], AccurateRip вернул [3832E0F8] (AR v2)
Трек 8 точность не определена (достоверность 3) [13FBE23E], AccurateRip вернул [F4F9CAAA] (AR v2)
Трек 9 точность не определена (достоверность 3) [262F247B], AccurateRip вернул [6117EC98] (AR v2)
Трек 10 точность не определена (достоверность 3) [2EFC0634], AccurateRip вернул [7B6ECA90] (AR v2)
Трек 11 точность не определена (достоверность 3) [4E82CCC5], AccurateRip вернул [EB398688] (AR v2)
Трек 12 точность не определена (достоверность 3) [08B88136], AccurateRip вернул [0F2E3ED6] (AR v2)

Ни один трек не прошёл проверки на точность
В вашей базе может быть иной вариант штамповки диска

Конец отчёта

–– CUETools DB Plugin V2.1.6

[CTDB TOCID: P48xXOTwiKhQ.3r35DLdXDnYsxs-] found
Submit result: P48xXOTwiKhQ.3r35DLdXDnYsxs- has been confirmed
Track | CTDB Status
1 | (4/4) Accurately ripped
2 | (4/4) Accurately ripped
3 | (4/4) Accurately ripped
4 | (4/4) Accurately ripped
5 | (4/4) Accurately ripped
6 | (4/4) Accurately ripped
7 | (4/4) Accurately ripped
8 | (4/4) Accurately ripped
9 | (4/4) Accurately ripped
10 | (4/4) Accurately ripped
11 | (4/4) Accurately ripped
12 | (4/4) Accurately ripped


==== Контрольная сумма отчёта 2CF717B2AD497572F7C201DF3DA8D57AEA6C002AECE58B335F062DEED601A95C ====

All thanks go to crossovernickk

>>> My Blog <<<

DOWNLOAD: