Subcategories

The Ventures - Colorful Ventures (1961) {2006, Remastered, Japan}

Posted By: popsakov
The Ventures - Colorful Ventures (1961) {2006, Remastered, Japan}

The Ventures - Colorful Ventures (2006)
EAC Rip | FLAC (Img) + Cue + Log ~ 359 Mb | MP3 CBR320 ~ 138 Mb
Scans (PNG, 300 dpi) ~ 21 Mb | RAR 5% Recovery
Surf Rock, Instrumental | Liberty Records / Toshiba-EMI #TOCP 67948

The fourth studio album from the Ventures, 1961's Colorful Ventures was the first in a long line of releases the band built around album title themes. Here the theme is colors, and so listeners get such songs as "Blue Moon," "Yellow Jacket," "Cherry Pink and Apple Blossom White," and so on. Conceptual themes aside, the album featured more of the group's recognizable instrumental rock & roll, surf rock, and country twang.
~ All Music

***************

The Ventures - Colorful Ventures (1961) {2006, Remastered, Japan}

Tracks 2-12 mono album BLP 2008 Dolton (October 1961)
Tracks 14-24 stereo album BST 8008 Dolton (October 1961)


Track List:

01. Walk Don't Run [02:06]
02. Blue Moon [02:14]
03. Yellow Jacket [02:28]
04. Cherry Pink And Apple Blossom White [02:24]
05. Green Leaves Of Summer [02:08]
06. Blue Skies [02:05]
07. Greenfields [02:48]
08. Red Top [02:09]
09. White Silver Sands [02:05]
10. Yellow Bird [03:10]
11. Orange Fire [02:08]
12. Silver City [01:56]
13. Walk Don't Run (Stereo) [02:06]
14. Blue Moon (Stereo) [02:14]
15. Yellow Jacket (Stereo) [02:30]
16. Cherry Pink And Apple Blossom White (Stereo) [02:25]
17. Green Leaves Of Summer (Stereo) [02:08]
18. Blue Skies (Stereo) [02:05]
19. Greenfields (Stereo) [02:49]
20. Red Top (Stereo) [02:09]
21. White Silver Sands (Stereo) [02:06]
22. Yellow Bird (Stereo) [03:10]
23. Orange Fire (Stereo) [02:08]
24. Silver City (Stereo) [01:57]
25. Walk Don't Run (Stereo) [02:04]

Exact Audio Copy V0.99 prebeta 5 from 4. May 2009

Отчёт EAC об извлечении, выполненном 26. декабря 2009, 19:07

The Ventures / Colorful Ventures (Japan Remastered TOCP 67948)

Дисковод: PLEXTOR DVDR PX-716A Adapter: 2 ID: 0

Режим чтения : Достоверность
Использование точного потока : Да
Отключение кэша аудио : Да
Использование указателей C2 : Нет

Коррекция смещения при чтении : 30
Способность читать области Lead-in и Lead-out : Да
Заполнение пропущенных сэмплов тишиной : Да
Удаление блоков с тишиной в начале и конце : Нет
При вычислениях CRC использовались нулевые сэмплы : Да
Интерфейс : Встроенный Win32-интерфейс для Win NT/2000

Выходной формат : Monkey's Audio (без потерь)
Выбранный битрейт : Normal Lossless Compression
Качество : Высокий
Добавление ID3-тэга : Нет
Утилита сжатия : C:\Program Files\Exact Audio Copy\MAC.exe


TOC извлечённого CD

Трек | Старт | Длительность | Начальный сектор | Конечный сектор
––––––––––––––––––––––––––––––––––-
1 | 0:00.00 | 2:05.74 | 0 | 9448
2 | 2:05.74 | 2:13.66 | 9449 | 19489
3 | 4:19.65 | 2:27.60 | 19490 | 30574
4 | 6:47.50 | 2:23.51 | 30575 | 41350
5 | 9:11.26 | 2:07.07 | 41351 | 50882
6 | 11:18.33 | 2:04.36 | 50883 | 60218
7 | 13:22.69 | 2:47.55 | 60219 | 72798
8 | 16:10.49 | 2:08.12 | 72799 | 82410
9 | 18:18.61 | 2:04.38 | 82411 | 91748
10 | 20:23.24 | 3:09.14 | 91749 | 105937
11 | 23:32.38 | 2:07.41 | 105938 | 115503
12 | 25:40.04 | 1:55.27 | 115504 | 124155
13 | 27:35.31 | 2:05.27 | 124156 | 133557
14 | 29:40.58 | 2:13.52 | 133558 | 143584
15 | 31:54.35 | 2:29.16 | 143585 | 154775
16 | 34:23.51 | 2:24.22 | 154776 | 165597
17 | 36:47.73 | 2:07.44 | 165598 | 175166
18 | 38:55.42 | 2:04.24 | 175167 | 184490
19 | 40:59.66 | 2:48.37 | 184491 | 197127
20 | 43:48.28 | 2:08.30 | 197128 | 206757
21 | 45:56.58 | 2:05.58 | 206758 | 216190
22 | 48:02.41 | 3:09.42 | 216191 | 230407
23 | 51:12.08 | 2:07.59 | 230408 | 239991
24 | 53:19.67 | 1:56.47 | 239992 | 248738
25 | 55:16.39 | 2:03.53 | 248739 | 258016


Характеристики диапазона извлечения и сообщения об ошибках

Выбранный диапазон

Имя файла D:\The Ventures - Colorful Ventures (Japan Remastered TOCP 67948)\The Ventures - Colorful Ventures (Japan Remastered TOCP 67948).wav

Пиковый уровень 99.8 %
Качество диапазона 100.0 %
CRC теста AD8691C6
CRC копии AD8691C6
Копирование… OK

Ошибок не произошло


AccurateRip: сводка

Трек 1 нет в базе данных
Трек 2 нет в базе данных
Трек 3 нет в базе данных
Трек 4 нет в базе данных
Трек 5 нет в базе данных
Трек 6 нет в базе данных
Трек 7 нет в базе данных
Трек 8 нет в базе данных
Трек 9 нет в базе данных
Трек 10 нет в базе данных
Трек 11 нет в базе данных
Трек 12 нет в базе данных
Трек 13 нет в базе данных
Трек 14 нет в базе данных
Трек 15 нет в базе данных
Трек 16 нет в базе данных
Трек 17 нет в базе данных
Трек 18 нет в базе данных
Трек 19 нет в базе данных
Трек 20 нет в базе данных
Трек 21 нет в базе данных
Трек 22 нет в базе данных
Трек 23 нет в базе данных
Трек 24 нет в базе данных
Трек 25 нет в базе данных

Ни одного трека нет в базе AccurateRip

Конец отчёта

foobar2000 1.2.6 / Dynamic Range Meter 1.1.1
log date: 2016-07-26 11:47:05

––––––––––––––––––––––––––––––––––––––––
Analyzed: The Ventures / Colorful Ventures (Japan Remastered TOCP 67948)
––––––––––––––––––––––––––––––––––––––––

DR Peak RMS Duration Track
––––––––––––––––––––––––––––––––––––––––
DR9 -0.01 dB -10.06 dB 2:06 01-Walk Don't Run
DR8 -0.20 dB -9.56 dB 2:14 02-Blue Moon
DR8 -0.22 dB -9.01 dB 2:28 03-Yellow Jacket
DR9 -0.28 dB -10.18 dB 2:24 04-Cherry Pink And Apple Blossom White
DR10 -0.30 dB -11.40 dB 2:07 05-Green Leaves Of Summer
DR9 -0.24 dB -10.34 dB 2:04 06-Blue Skies
DR10 -0.30 dB -12.16 dB 2:48 07-Greenfields
DR9 -0.18 dB -9.75 dB 2:08 08-Red Top
DR9 -0.24 dB -10.04 dB 2:05 09-White Silver Sands
DR11 -0.31 dB -12.70 dB 3:09 10-Yellow Bird
DR9 -0.25 dB -10.49 dB 2:08 11-Orange Fire
DR9 -0.29 dB -10.51 dB 1:55 12-Silver City
DR8 -0.01 dB -9.54 dB 2:05 13-Walk Don't Run (Stereo)
DR9 -0.01 dB -10.65 dB 2:14 14-Blue Moon (Stereo)
DR10 -0.01 dB -10.97 dB 2:29 15-Yellow Jacket (Stereo)
DR10 -0.19 dB -11.51 dB 2:24 16-Cherry Pink And Apple Blossom White (Stereo)
DR10 -0.72 dB -12.08 dB 2:08 17-Green Leaves Of Summer (Stereo)
DR8 -0.19 dB -9.83 dB 2:04 18-Blue Skies (Stereo)
DR10 -0.07 dB -11.22 dB 2:48 19-Greenfields (Stereo)
DR8 -0.26 dB -9.85 dB 2:08 20-Red Top (Stereo)
DR9 -0.08 dB -9.84 dB 2:06 21-White Silver Sands (Stereo)
DR10 -0.42 dB -13.26 dB 3:10 22-Yellow Bird (Stereo)
DR9 -0.01 dB -10.49 dB 2:08 23-Orange Fire (Stereo)
DR9 -0.01 dB -10.86 dB 1:57 24-Silver City (Stereo)
DR10 -0.01 dB -10.65 dB 2:04 25-Walk Don't Run (Stereo)
––––––––––––––––––––––––––––––––––––––––

Number of tracks: 25
Official DR value: DR9

Samplerate: 44100 Hz
Channels: 2
Bits per sample: 16
Bitrate: 834 kbps
Codec: FLAC
================================================================================

[CUETools log; Date: 26.07.2016 11:47:09; Version: 2.1.5]
[CTDB TOCID: YZAoqk6XaDe_pkuv.7L5z7ETmj8-] found.
Track | CTDB Status
1 | (1/1) Accurately ripped
2 | (1/1) Accurately ripped
3 | (1/1) Accurately ripped
4 | (1/1) Accurately ripped
5 | (1/1) Accurately ripped
6 | (1/1) Accurately ripped
7 | (1/1) Accurately ripped
8 | (1/1) Accurately ripped
9 | (1/1) Accurately ripped
10 | (1/1) Accurately ripped
11 | (1/1) Accurately ripped
12 | (1/1) Accurately ripped
13 | (1/1) Accurately ripped
14 | (1/1) Accurately ripped
15 | (1/1) Accurately ripped
16 | (1/1) Accurately ripped
17 | (1/1) Accurately ripped
18 | (1/1) Accurately ripped
19 | (1/1) Accurately ripped
20 | (1/1) Accurately ripped
21 | (1/1) Accurately ripped
22 | (1/1) Accurately ripped
23 | (1/1) Accurately ripped
24 | (1/1) Accurately ripped
25 | (1/1) Accurately ripped
[AccurateRip ID: 003340d4-039bc66b-440d7019] found.
Track [ CRC | V2 ] Status
01 [0f4a03f3|286ce328] (1+1/2) Accurately ripped
02 [06dd3480|908551c5] (1+1/2) Accurately ripped
03 [85d5a0ef|a4c74470] (1+1/2) Accurately ripped
04 [feb15379|bfa1173b] (1+1/2) Accurately ripped
05 [4f7013bb|e9ae3f86] (1+1/2) Accurately ripped
06 [475e4dd4|5b20ad40] (1+1/2) Accurately ripped
07 [c03a667f|7c2b958c] (1+1/2) Accurately ripped
08 [33d55223|f7ba1acf] (1+1/2) Accurately ripped
09 [c72c6774|101ac751] (1+1/2) Accurately ripped
10 [2f38ead0|2e8fb594] (1+1/2) Accurately ripped
11 [d93fe38e|e26aaf04] (1+1/2) Accurately ripped
12 [8a108e80|d72c4906] (1+1/2) Accurately ripped
13 [84fa39c5|ec00bf72] (1+1/2) Accurately ripped
14 [db8adde0|6350bb4a] (1+1/2) Accurately ripped
15 [b6ce7790|7188ec18] (1+1/2) Accurately ripped
16 [10f8a408|68ab922c] (1+1/2) Accurately ripped
17 [4bc73b0e|75ff00de] (1+1/2) Accurately ripped
18 [51c84a5c|7fce0dfc] (1+1/2) Accurately ripped
19 [6a463f6e|96ce3683] (1+1/2) Accurately ripped
20 [b34cf44a|31d3b684] (1+1/2) Accurately ripped
21 [83dc650c|ab0d33a5] (1+1/2) Accurately ripped
22 [9cb0b7b7|55b72454] (1+1/2) Accurately ripped
23 [bf1722a0|4c36bb35] (1+1/2) Accurately ripped
24 [44447ac7|d7bd982b] (1+1/2) Accurately ripped
25 [c59d1ba5|42e5caf2] (1+1/2) Accurately ripped

Track Peak [ CRC32 ] [W/O NULL] [ LOG ]
– 99,8 [AD8691C6] [D6D77808] CRC32
01 99,8 [36513253] [76FC1C56]
02 97,6 [E018D606] [036D4B95]
03 97,4 [AFDCE924] [20DC0086]
04 96,8 [A48D28F1] [96A7640D]
05 96,5 [92EAB029] [C72B99DE]
06 97,3 [9C0F0997] [BB2D861D]
07 96,6 [DF37B75D] [9BD0BDF2]
08 97,9 [4B2BF51F] [1520A1D8]
09 97,3 [8FFC9FD3] [7413CD0C]
10 96,5 [73FA1044] [28124D2B]
11 97,1 [9F6BF16E] [9AA1D364]
12 96,7 [CFE6C596] [4AB036BA]
13 99,8 [F41C9AEB] [AF3E7DE1]
14 99,8 [44B7C20D] [B82872A2]
15 99,8 [3CBCABDB] [9AB0F7CA]
16 97,8 [C82938A0] [C3BD6F8E]
17 92,0 [477861FA] [7CB05BCA]
18 97,8 [056B41FC] [A3DA1B3F]
19 99,2 [88289EA8] [61FB18C6]
20 97,0 [070FE29E] [B4C5E1C0]
21 99,1 [5DFBCC73] [E9BC5E27]
22 95,3 [E504C63B] [9956A41A]
23 99,8 [D2FD58E3] [70C704D6]
24 99,8 [0A76170D] [91E47705]
25 99,8 [29C3ACC7] [D2947A46]

The Ventures - Colorful Ventures (1961) {2006, Remastered, Japan}

The Ventures - Colorful Ventures (1961) {2006, Remastered, Japan}

All thanks go to wwphil

Visit my blog!

Download: