Subcategories

The Ventures - Play Southern All Stars (2009) [EMI TOCP-70736, Japan]

Posted By: v3122
The Ventures - Play Southern All Stars (2009) [EMI TOCP-70736, Japan]

The Ventures - Play Southern All Stars (2009)
EAC | Flac(Image) + Cue + Log & MP3 CBR 320Kbps
EMI TOCP-70736 | ~ 548 or 276 Mb | Scans(jpg) -> 7.73 Mb
Instrumental, Rock & Roll, Surf

The Ventures are an American instrumental rock band formed in 1958 in Tacoma, Washington. Founded by Don Wilson and Bob Bogle, the group in its various incarnations has had an enduring impact on the development of music worldwide. With over 100 million records sold,[1] the group is the best-selling instrumental band of all time. In 2008, the Ventures were inducted into the Rock and Roll Hall of Fame…

~ wiki
The Ventures - Play Southern All Stars (2009):

The Ventures - Play Southern All Stars (2009) [EMI TOCP-70736, Japan]

Tracklist:

Tsunami
Namida No Kiss (真夏の果実 )
Manatsu No Kajitsu (ミス・ブランニュー・デI)
Miss Brand-New Day (ミス・ブランニュー・デI)
Itoshi No Ellie (いとしのエリー )
Hotel Pacific
C-Chou Kotoba Ni Goyoujin (C調言葉に御用心 )
Omoi Sugoshi Mo Koi No Uchi (思い過ごしも恋のうち)
Katte Ni Sindbad (勝手にシンドバッド)
Erotica Seven (エロティカ・セヴン)
Spiritual Message (愛の言霊)
Chako No Kaigan Monogatari (チャコの海岸物語)
Furi Furi '65 (フリフリ’65)
The Night Club (匂艶)
Shiori No Theme (栞のテーマ )
Kibun Shidai De Semenaide (気分しだいで責めないで )

Exact Audio Copy V0.99 prebeta 4 from 23. January 2008

Отчёт EAC об извлечении, выполненном 10. июля 2009, 19:55

The Ventures / Play Southern All Stars

Дисковод: Optiarc DVD RW AD-7200A Adapter: 0 ID: 0

Режим чтения : Достоверность
Использование точного потока : Да
Отключение кэша аудио : Да
Использование указателей C2 : Нет

Коррекция смещения при чтении : 48
Способность читать области Lead-in и Lead-out : Нет
Заполнение пропущенных сэмплов тишиной : Да
Удаление блоков с тишиной в начале и конце : Нет
При вычислениях CRC использовались нулевые сэмплы : Да
Интерфейс : Установленный внешний ASPI-интерфейс

Выходной формат : Внутренние WAV-операции
Формат сэмплов : 44.100 Гц; 16 бит; стерео


TOC извлечённого CD

Трек | Старт | Длительность | Начальный сектор | Конечный сектор
––––––––––––––––––––––––––––––––––-
1 | 0:00.00 | 4:58.25 | 0 | 22374
2 | 4:58.25 | 4:35.45 | 22375 | 43044
3 | 9:33.70 | 4:32.65 | 43045 | 63509
4 | 14:06.60 | 4:48.11 | 63510 | 85120
5 | 18:54.71 | 4:28.74 | 85121 | 105294
6 | 23:23.70 | 4:43.45 | 105295 | 126564
7 | 28:07.40 | 4:41.08 | 126565 | 147647
8 | 32:48.48 | 4:44.17 | 147648 | 168964
9 | 37:32.65 | 4:27.40 | 168965 | 189029
10 | 42:00.30 | 4:01.06 | 189030 | 207110
11 | 46:01.36 | 4:18.17 | 207111 | 226477
12 | 50:19.53 | 4:16.04 | 226478 | 245681
13 | 54:35.57 | 4:28.32 | 245682 | 265813
14 | 59:04.14 | 5:10.48 | 265814 | 289111
15 | 64:14.62 | 4:44.32 | 289112 | 310443
16 | 68:59.19 | 4:04.49 | 310444 | 328792


Характеристики диапазона извлечения и сообщения об ошибках

Выбранный диапазон

Имя файла C:\Wav\The Ventures - Play Southern All Stars.wav

Пиковый уровень 100.0 %
Качество диапазона 99.9 %
CRC копии 6A36DCB2
Копирование… OK

Ошибок не произошло


AccurateRip: сводка

Трек 1 нет в базе данных
Трек 2 нет в базе данных
Трек 3 нет в базе данных
Трек 4 нет в базе данных
Трек 5 нет в базе данных
Трек 6 нет в базе данных
Трек 7 нет в базе данных
Трек 8 нет в базе данных
Трек 9 нет в базе данных
Трек 10 нет в базе данных
Трек 11 нет в базе данных
Трек 12 нет в базе данных
Трек 13 нет в базе данных
Трек 14 нет в базе данных
Трек 15 нет в базе данных
Трек 16 нет в базе данных

Ни одного трека нет в базе AccurateRip

Конец отчёта


[CUETools log; Date: 04.04.2018 12:27:02; Version: 2.1.5]
[AccurateRip ID: 002b1b1c-020341e5-dd111f10] found.
Track [ CRC | V2 ] Status
01 [002311ae|76a321cd] (1+1/3) Accurately ripped
02 [8b5b1548|0e1590ee] (1+1/3) Accurately ripped
03 [c84c5858|c180768c] (1+1/3) Accurately ripped
04 [7bdde3dd|33507d4c] (1+1/3) Accurately ripped
05 [1fd86c25|7440a729] (1+1/3) Accurately ripped
06 [c9786fa1|fb414f85] (1+1/3) Accurately ripped
07 [68e015a9|7ca93bbb] (1+1/3) Accurately ripped
08 [b282a285|60c6ab24] (1+1/3) Accurately ripped
09 [5744b43e|274c599d] (1+1/3) Accurately ripped
10 [3b3f4c1b|266e054d] (1+1/3) Accurately ripped
11 [7b07ec52|188b81b5] (1+1/3) Accurately ripped
12 [84e56de2|decfca6c] (1+1/3) Accurately ripped
13 [ceaa4dda|a52a7bef] (1+1/3) Accurately ripped
14 [f0039f28|44d69097] (1+1/3) Accurately ripped
15 [113b76ba|1be78626] (1+1/3) Accurately ripped
16 [f3025f40|4abd43b9] (1+1/3) Accurately ripped
Offsetted by -18:
01 [10bcad16] (1/3) Accurately ripped
02 [81fcb340] (1/3) Accurately ripped
03 [9b27b05c] (1/3) Accurately ripped
04 [347c0f43] (1/3) Accurately ripped
05 [9502bded] (1/3) Accurately ripped
06 [e345bce9] (1/3) Accurately ripped
07 [7a30e4f5] (1/3) Accurately ripped
08 [462bccd1] (1/3) Accurately ripped
09 [3fe50316] (1/3) Accurately ripped
10 [3a4a3a05] (1/3) Accurately ripped
11 [cea9855e] (1/3) Accurately ripped
12 [3e38085c] (1/3) Accurately ripped
13 [8ecefbaa] (1/3) Accurately ripped
14 [3da4ff4a] (1/3) Accurately ripped
15 [fe998192] (1/3) Accurately ripped
16 [2286bde5] (1/3) Accurately ripped

Track Peak [ CRC32 ] [W/O NULL] [ LOG ]
– 100,0 [6A36DCB2] [8CD85EC1] CRC32
01 99,8 [403A9FBC] [9585FF06]
02 99,6 [5791148E] [4BBFD61D]
03 99,7 [D133CFE7] [6D30596B]
04 95,4 [B5332344] [C47E19C1]
05 99,7 [E16FBBC8] [38390C6A]
06 99,8 [B8D26253] [EC170238]
07 100,0 [17590F36] [FBB9AE95]
08 96,5 [35E3C430] [ABDF7D1A]
09 100,0 [2E896C02] [F8C1659F]
10 100,0 [1C4722CF] [40715F69]
11 100,0 [AEB46A90] [3AFD2122]
12 97,5 [A77F1BDE] [E4890702]
13 100,0 [044B5C1F] [9CEEC69C]
14 100,0 [6F17930A] [2BF4D5E4]
15 100,0 [4AA91016] [DDA42C42]
16 100,0 [95BAC29D] [69089086]


The Ventures - Play Southern All Stars (2009) [EMI TOCP-70736, Japan]

All thanks go to the original releaser

The Ventures or The Ventures in my Blog

Download The Ventures - Play Southern All Stars (2009):