Subcategories
Tags
Language
Tags

The Who - A Quick One (1966) {1995, Remastered} Re-Up

Posted By: popsakov
The Who - A Quick One (1966) {1995, Remastered} Re-Up

The Who - A Quick One (1966) {1995, Remastered}
EAC Rip | FLAC (Img) + Cue + Log ~ 270 Mb | MP3 CBR320 ~ 136 Mb
Full Scans ~ 114 Mb | 00:56:27 | RAR 5% Recovery
Psychedelic Rock, Classic Rock | MCA Records #MCAD-11267

The Who's second album is a less impressive outing than their debut, primarily because, at the urging of their managers, all four members penned original material (though Pete Townshend wrote more than anyone else). The pure adrenaline of My Generation also subsided somewhat as the band began to grapple with more complex melodic and lyrical themes, especially on the erratic mini-opera "A Quick One While He's Away." Still, there's some great madness on Keith Moon's instrumental "Cobwebs and Strange," and Townshend delivered some solid mod pop with "Run Run Run" and "So Sad About Us." John Entwistle was also revealed to be a writer of considerable talent (and a morbid bent) on "Whiskey Man" and "Boris the Spider." The CD reissue adds bonus tracks: some 1966-1967 B-sides, their U.K.-only 1966 Ready Steady Who EP, an acoustic version of "Happy Jack," and a previously unreleased cover of the Everly Brothers' "Man with Money."

~ Richie Unterberger, All Music

***************

The Who - A Quick One (1966) {1995, Remastered} Re-Up

Track List:

01. Run Run Run [02:44]
02. Boris The Spider [02:30]
03. I Need You [02:26]
04. Whiskey Man [02:58]
05. Heatwave [01:58]
06. Cobwebs And Strange [02:32]
07. Don't Look Away [02:55]
08. See My Way [01:54]
09. So Sad About Us [03:05]
10. A Quick One, While He's Away [09:12]
11. Batman [01:38]
12. Bucket T [02:13]
13. Barbara Ann [02:00]
14. Disguises [03:12]
15. Doctor, Doctor [03:00]
16. I've Been Away [02:09]
17. In The City [02:22]
18. Happy Jack (Acoustic Version) [02:56]
19. Man With The Money [02:46]
20. My Generation / Land Of Hope And Glory [02:06]

Exact Audio Copy V1.0 beta 3 from 29. August 2011

EAC extraction logfile from 28. December 2015, 13:52

The Who / A Quick One - 1995 Remaster

Used drive : PIONEER BD-RW BDR-TD03 Adapter: 0 ID: 1

Read mode : Secure
Utilize accurate stream : Yes
Defeat audio cache : Yes
Make use of C2 pointers : No

Read offset correction : 667
Overread into Lead-In and Lead-Out : No
Fill up missing offset samples with silence : Yes
Delete leading and trailing silent blocks : No
Null samples used in CRC calculations : Yes
Used interface : Native Win32 interface for Win NT & 2000

Used output format : User Defined Encoder
Selected bitrate : 768 kBit/s
Quality : High
Add ID3 tag : No
Command line compressor : C:\Program Files (x86)\Exact Audio Copy\FLAC\FLAC.EXE
Additional command line options : -6 -V -T "ARTIST=%artist%" -T "TITLE=%title%" -T "ALBUM=%albumtitle%" -T "DATE=%year%" -T "TRACKNUMBER=%tracknr%" -T "GENRE=%genre%" -T "COMMENT=%comment%" -T "BAND=%albuminterpret%" -T "ALBUMARTIST=%albuminterpret%" -T "COMPOSER=%composer%" %haslyrics%–tag-from-file=LYRICS="%lyricsfile%"%haslyrics% -T "DISCNUMBER=%cdnumber%" -T "TOTALDISCS=%totalcds%" -T "TOTALTRACKS=%numtracks%" %hascover%–picture="%coverfile%"%hascover% %source% -o %dest%


TOC of the extracted CD

Track | Start | Length | Start sector | End sector
––––––––––––––––––––––––––––-
1 | 0:00.00 | 2:43.57 | 0 | 12281
2 | 2:43.57 | 2:29.40 | 12282 | 23496
3 | 5:13.22 | 2:25.23 | 23497 | 34394
4 | 7:38.45 | 2:58.00 | 34395 | 47744
5 | 10:36.45 | 1:57.30 | 47745 | 56549
6 | 12:34.00 | 2:31.67 | 56550 | 67941
7 | 15:05.67 | 2:54.50 | 67942 | 81041
8 | 18:00.42 | 1:53.45 | 81042 | 89561
9 | 19:54.12 | 3:04.33 | 89562 | 103394
10 | 22:58.45 | 9:11.12 | 103395 | 144731
11 | 32:09.57 | 1:37.10 | 144732 | 152016
12 | 33:46.67 | 2:12.13 | 152017 | 161929
13 | 35:59.05 | 1:59.42 | 161930 | 170896
14 | 37:58.47 | 3:11.28 | 170897 | 185249
15 | 41:10.00 | 2:59.32 | 185250 | 198706
16 | 44:09.32 | 2:08.28 | 198707 | 208334
17 | 46:17.60 | 2:21.65 | 208335 | 218974
18 | 48:39.50 | 2:55.15 | 218975 | 232114
19 | 51:34.65 | 2:45.50 | 232115 | 244539
20 | 54:20.40 | 2:05.65 | 244540 | 253979


Range status and errors

Selected range

Filename C:\Users\Deris\Desktop\whoquick\The Who - A Quick One - 1995 Remaster.wav

Peak level 98.6 %
Extraction speed 4.7 X
Range quality 99.9 %
Test CRC 62F6A882
Copy CRC 62F6A882
Copy OK

No errors occurred


AccurateRip summary

Track 1 accurately ripped (confidence 31) [21BB412E] (AR v2)
Track 2 accurately ripped (confidence 30) [152A5743] (AR v2)
Track 3 accurately ripped (confidence 30) [76258FC4] (AR v2)
Track 4 accurately ripped (confidence 30) [19F5A863] (AR v2)
Track 5 accurately ripped (confidence 30) [604C07B4] (AR v2)
Track 6 accurately ripped (confidence 30) [5415E681] (AR v2)
Track 7 accurately ripped (confidence 30) [3D492162] (AR v2)
Track 8 accurately ripped (confidence 30) [9434DEBF] (AR v2)
Track 9 accurately ripped (confidence 30) [2F54FCFE] (AR v2)
Track 10 accurately ripped (confidence 30) [7E66D72F] (AR v2)
Track 11 accurately ripped (confidence 31) [1FC8461B] (AR v2)
Track 12 accurately ripped (confidence 31) [8FFB8E9E] (AR v2)
Track 13 accurately ripped (confidence 31) [B8E066E3] (AR v2)
Track 14 accurately ripped (confidence 30) [B3B520E4] (AR v2)
Track 15 accurately ripped (confidence 30) [545D8891] (AR v2)
Track 16 accurately ripped (confidence 31) [750ACCF6] (AR v2)
Track 17 accurately ripped (confidence 31) [A049EB80] (AR v2)
Track 18 accurately ripped (confidence 31) [CA943332] (AR v2)
Track 19 accurately ripped (confidence 30) [CC5FEBE4] (AR v2)
Track 20 accurately ripped (confidence 31) [80279644] (AR v2)

All tracks accurately ripped

End of status report

–– CUETools DB Plugin V2.1.3

[CTDB TOCID: r.Y6brBMcX2R6m0LMr1xDmeun5Q-] found, Submit result: r.Y6brBMcX2R6m0LMr1xDmeun5Q- has been confirmed
[e5414f45] (22/22) Accurately ripped


==== Log checksum D67D0AAD5D2FCCAAA1E8764D094E55543327B815B2BBEB9E875DC9F11A72816F ====

foobar2000 1.4 / Dynamic Range Meter 1.1.1
log date: 2019-07-14 08:36:42

––––––––––––––––––––––––––––––––––––––––
Analyzed: The Who / A Quick One - 1995 Remaster
––––––––––––––––––––––––––––––––––––––––

DR Peak RMS Duration Track
––––––––––––––––––––––––––––––––––––––––
DR6 -0.41 dB -8.02 dB 2:44 01-Run Run Run
DR6 -1.15 dB -8.71 dB 2:30 02-Boris The Spider
DR4 -0.65 dB -8.19 dB 2:25 03-I Need You
DR6 -0.41 dB -8.23 dB 2:58 04-Whiskey Man
DR6 -0.48 dB -8.09 dB 1:57 05-Heatwave
DR6 -2.22 dB -11.23 dB 2:32 06-Cobwebs And Strange
DR8 -0.43 dB -10.82 dB 2:55 07-Don't Look Away
DR7 -0.61 dB -8.98 dB 1:54 08-See My Way
DR6 -0.83 dB -7.57 dB 3:04 09-So Sad About Us
DR8 -0.62 dB -10.70 dB 9:11 10-A Quick One, While He's Away
DR9 -0.65 dB -10.78 dB 1:37 11-Batman
DR6 -2.22 dB -10.65 dB 2:12 12-Bucket T
DR7 -0.48 dB -9.19 dB 2:00 13-Barbara Ann
DR4 -2.22 dB -8.35 dB 3:11 14-Disguises
DR8 -0.84 dB -9.40 dB 2:59 15-Doctor, Doctor
DR9 -0.43 dB -11.53 dB 2:08 16-I've Been Away
DR9 -0.43 dB -10.89 dB 2:22 17-In The City
DR7 -0.61 dB -12.27 dB 2:55 18-Happy Jack (Acoustic Version)
DR8 -0.64 dB -10.56 dB 2:46 19-Man With The Money
DR7 -0.12 dB -8.67 dB 2:06 20-My Generation / Land Of Hope And Glory
––––––––––––––––––––––––––––––––––––––––

Number of tracks: 20
Official DR value: DR7

Samplerate: 44100 Hz
Channels: 2
Bits per sample: 16
Bitrate: 634 kbps
Codec: FLAC
================================================================================

[CUETools log; Date: 14.07.2019 8:37:14; Version: 2.1.6]
[CTDB TOCID: r.Y6brBMcX2R6m0LMr1xDmeun5Q-] found.
Track | CTDB Status
1 | (51/51) Accurately ripped
2 | (51/51) Accurately ripped
3 | (51/51) Accurately ripped
4 | (51/51) Accurately ripped
5 | (51/51) Accurately ripped
6 | (51/51) Accurately ripped
7 | (50/51) Accurately ripped
8 | (51/51) Accurately ripped
9 | (51/51) Accurately ripped
10 | (51/51) Accurately ripped
11 | (51/51) Accurately ripped
12 | (51/51) Accurately ripped
13 | (51/51) Accurately ripped
14 | (51/51) Accurately ripped
15 | (51/51) Accurately ripped
16 | (51/51) Accurately ripped
17 | (51/51) Accurately ripped
18 | (50/51) Accurately ripped
19 | (51/51) Accurately ripped
20 | (51/51) Accurately ripped
[AccurateRip ID: 00290390-025ec197-100d3a14] found.
Track [ CRC | V2 ] Status
01 [59b6af2c|21bb412e] (42+45/87) Accurately ripped
02 [ae3f8a38|152a5743] (42+44/86) Accurately ripped
03 [3295cac1|76258fc4] (42+44/86) Accurately ripped
04 [82eb1ebd|19f5a863] (42+44/86) Accurately ripped
05 [2ba6231b|604c07b4] (42+44/86) Accurately ripped
06 [f025243f|5415e681] (42+44/86) Accurately ripped
07 [df5bc011|3d492162] (42+44/86) Accurately ripped
08 [f7a4d9cd|9434debf] (42+44/86) Accurately ripped
09 [176790cb|2f54fcfe] (42+44/86) Accurately ripped
10 [93835d8a|7e66d72f] (42+43/85) Accurately ripped
11 [d8ead379|1fc8461b] (40+44/84) Accurately ripped
12 [bb39f5f2|8ffb8e9e] (40+44/84) Accurately ripped
13 [da7e9911|b8e066e3] (41+44/85) Accurately ripped
14 [59d11590|b3b520e4] (41+43/84) Accurately ripped
15 [bfc1fc1a|545d8891] (40+43/83) Accurately ripped
16 [f17c1354|750accf6] (41+44/85) Accurately ripped
17 [11d4325d|a049eb80] (41+44/85) Accurately ripped
18 [843693f9|ca943332] (41+43/84) Accurately ripped
19 [a178b65a|cc5febe4] (40+43/83) Accurately ripped
20 [4d7949d3|80279644] (41+44/85) Accurately ripped

Track Peak [ CRC32 ] [W/O NULL] [ LOG ]
– 98,6 [62F6A882] [C41591A2] CRC32
01 95,3 [E9493FC7] [1A602218]
02 87,5 [26F00637] [7A04AD51]
03 92,8 [F6E5C601] [D7E1D0EA]
04 95,3 [98059907] [8DD42E4B]
05 94,6 [5E46517C] [5A58A5CA]
06 77,4 [C48BE2A8] [DF20D574]
07 95,1 [37EED021] [0C155C42]
08 93,2 [1EF37951] [2364B376]
09 90,8 [3F56BB91] [54B4C189]
10 93,1 [D7883292] [44E02948]
11 92,8 [3889A4C9] [C0CEB109]
12 77,4 [EEF73177] [789F33BF]
13 94,6 [B0111BE2] [61DE764E]
14 77,4 [CA2124C3] [79A02254]
15 90,7 [6D702B1E] [4A7FD20E]
16 95,1 [66FB4194] [7A2C4F3B]
17 95,1 [2D73F7F2] [58698233]
18 93,2 [C646437D] [09CC0650]
19 92,8 [9DE7C6CD] [F3E6CE8C]
20 98,6 [E4A79365] [0B1AE1DE]

The Who - A Quick One (1966) {1995, Remastered} Re-Up


All thanks go to Boris1

>>> The Who in my Blog <<<

DOWNLOAD: