Subcategories

The Wishing Tree - Carnival Of Souls (1996) [Reissue 2000]

Posted By: Andi_Deris
The Wishing Tree - Carnival Of Souls (1996) [Reissue 2000]

The Wishing Tree - Carnival Of Souls (1996) [Reissue 2000]
EAC Rip | FLAC: Image+Cue+Log | 277 Mb | MP3 CBR 320 kbps | 111 Mb | Scans | Time: 43:46
Racket Records | Racket 14
Progressive Rock, Folk Rock

Carnival of Souls is the title of the first album by The Wishing Tree, a project by Marillion's guitarist Steve Rothery and singer Hannah Stobart. It was originally released in 1996 on Steve Rothery's short-lived label Dorian Music and was re-released in 2000 on Marillion's label Racket Records.



Track Listing

01. Evergreen (05:52)
02. Starfish (03:09)
03. Nightwater (04:24)
04. Hall Of Memories (04:11)
05. Midnight Snow (06:02)
06. Night Of The Hunter (03:58)
07. Fire-Bright (03:06)
08. Thunder In Tinsel Town (04:34)
09. Empire Of Lies (05:33)
10. The Dance (02:58)

Produced by Steve Rothery

The Band

• Hannah Stobart - vocals
Steve Rothery - guitars (all tracks), keyboards (tracks 1, 3, 5, 8, 9)
Pete Trewavas - bass (tracks 1, 3, 5, 6, 9)
• Paul Craddick - drums (tracks 1, 3, 5, 6, 9), keyboards (tracks 1, 8, 9)
• Jo Rothery - backing vocals (tracks 1, 8)

Exact Audio Copy V0.99 prebeta 5 from 4. May 2009

Отчёт EAC об извлечении, выполненном 17. января 2011, 23:44

The Wishing Tree / Carnival of Souls

Дисковод: PIONEER DVD-RW DVR-K17A Adapter: 1 ID: 0

Режим чтения : Достоверность
Использование точного потока : Да
Отключение кэша аудио : Да
Использование указателей C2 : Нет

Коррекция смещения при чтении : 48
Способность читать области Lead-in и Lead-out : Нет
Заполнение пропущенных сэмплов тишиной : Да
Удаление блоков с тишиной в начале и конце : Нет
При вычислениях CRC использовались нулевые сэмплы : Да
Интерфейс : Встроенный Win32-интерфейс для Win NT/2000

Выходной формат : Пользовательский кодировщик
Выбранный битрейт : 768 kBit/s
Качество : Высокий
Добавление ID3-тэга : Нет
Утилита сжатия : C:\Program Files\Exact Audio Copy\FLAC\FLAC.EXE
Дополнительные параметры : -6 -V -T "ARTIST=%a" -T "TITLE=%t" -T "ALBUM=%g" -T "DATE=%y" -T "TRACKNUMBER=%n" -T "GENRE=%m" -T "COMMENT=%e" %s -o %d


TOC извлечённого CD

Трек | Старт | Длительность | Начальный сектор | Конечный сектор
––––––––––––––––––––––––––––––––––-
1 | 0:00.00 | 5:52.02 | 0 | 26401
2 | 5:52.02 | 3:08.38 | 26402 | 40539
3 | 9:00.40 | 4:23.37 | 40540 | 60301
4 | 13:24.02 | 4:10.40 | 60302 | 79091
5 | 17:34.42 | 6:01.48 | 79092 | 106214
6 | 23:36.15 | 3:58.07 | 106215 | 124071
7 | 27:34.22 | 3:05.73 | 124072 | 138019
8 | 30:40.20 | 4:34.00 | 138020 | 158569
9 | 35:14.20 | 5:32.57 | 158570 | 183526
10 | 40:47.02 | 2:57.68 | 183527 | 196869
11 | 46:16.70 | 27:07.31 | 208270 | 330325


Характеристики диапазона извлечения и сообщения об ошибках

Выбранный диапазон

Имя файла C:\Documents and Settings\юрий\Рабочий стол\the wishing tree\The Wishing Tree - Carnival of Souls.wav

Пиковый уровень 100.0 %
Качество диапазона 100.0 %
CRC копии A516E6B9
Копирование… OK

Ошибок не произошло


AccurateRip: сводка

Трек 1 точность не определена (достоверность 1) [4CA54518], AccurateRip вернул [B5664DF0]
Трек 2 точность не определена (достоверность 1) [B845AA52], AccurateRip вернул [3DC3191A]
Трек 3 точность не определена (достоверность 1) [8FB781D9], AccurateRip вернул [3181FC71]
Трек 4 точность не определена (достоверность 1) [05CFDB39], AccurateRip вернул [410979C1]
Трек 5 точность не определена (достоверность 1) [B2D4B4A9], AccurateRip вернул [46FFEAC9]
Трек 6 точность не определена (достоверность 1) [AE9F9A5A], AccurateRip вернул [98CDED02]
Трек 7 точность не определена (достоверность 1) [1D1567BF], AccurateRip вернул [CAC01487]
Трек 8 точность не определена (достоверность 1) [29E55242], AccurateRip вернул [FE8137EA]
Трек 9 точность не определена (достоверность 1) [428F5FD8], AccurateRip вернул [58E0BFC0]
Трек 10 точность не определена (достоверность 1) [62EA0D6B], AccurateRip вернул [869FF923]

Ни один трек не прошёл проверки на точность
В вашей базе может быть иной вариант штамповки диска

Конец отчёта


Many thanks to the original uploader: gubal

SEE also:
Marillion 2003 From Stoke Row To Ipanema [2xDVD]

The Wishing Tree 2009 Ostara [Limited Ed.]



Password: pass