Subcategories

The Zombies - Greatest Hits (2002) {Hybrid SACD, Audio Fidelity AFZ 001}

Posted By: popsakov
The Zombies - Greatest Hits (2002) {Hybrid SACD, Audio Fidelity AFZ 001}

The Zombies - Greatest Hits (2002) {Hybrid SACD, Audio Fidelity AFZ 001}
EAC Rip | FLAC (Img) + Cue + Log ~ 253 Mb | MP3 CBR320 ~ 118 Mb
Scans (JPG, 600 dpi) ~ 34 Mb | RAR 5% Recovery
British Invasion, Classic Rock, Pop Rock, Beat, Psychedelic | Audio Fidelity #AFZ 001
Mastered by Steve Hoffman

The Zombies are a British pop group, first active in the 1960s. Following The Beatles in 1964 as part of "The British Invasion" of the USA, they were the second UK group to score an American #1 hit. The Zombies were uniquely different, with a subtler style, often jazzier and more inventive chord structures, the prominent keyboards of Rod Argent, and the distinctive voice of Colin Blunstone. She's Not There and Tell Her No were quick hits, but despite continually stunning musical output that has influenced other artists ever since, another hit record was more than four years away, after they'd broken up! Only in recent years has the richness of The Zombies' entire catalog been discovered by a whole new generation of fans.
The Zombies - Greatest Hits (2002) {Hybrid SACD, Audio Fidelity AFZ 001}

This collection, remastered for SACD, covers the Zombies' short and tasteful career, spanning their 1964-1967 years for Decca Records, and their single album, the classic Odessey & Oracle, for Epic Records in 1968. Two versions of "She's Not There" are included here, one the so-called "stereo underdub" version that lacks the snappy drum overdub that gives the superior single version its crisp, edgy feel. There are also two mixes of "Time of the Season," the familiar version and an alternate mix that features a little more organ in the verse sections.
~ Steve Leggett, All Music

***************

The Zombies - Greatest Hits (2002) {Hybrid SACD, Audio Fidelity AFZ 001}

Track List:

01. She's Not There (stereo underdub) [2:24]
02. I Can't Make Up My Mind (stereo) [2:38]
03. Tell Her No (stereo) [2:09]
04. You Make Me Feel Good (stereo) [2:39]
05. Kind Of Girl (stereo) [2:12]
06. Leave Me Be (stereo) [2:09]
07. Sometimes [2:05]
08. Don't Cry For Me [2:13]
09. It's Alright With Me [1:52]
10. I Don't Want To Know [2:08]
11. I Love You (stereo) [3:13]
12. Nothing's Changed (stereo) [2:32]
13. I Remember When I Loved Her (stereo) [2:01]
14. Indication (stereo) [3:03]
15. Just Out Of Reach (stereo) [2:10]
16. What More Can I Do [1:39]
17. She Does Everything For Me (stereo) [2:18]
18. Time Of The Season (stereo) [3:34]
19. She's Not There (hit single version) [2:25]
20. Time Of The Season (alternate mix) [3:33]

Personnel:

Hugh Grundy - drums
Colin Blunstone - lead vocals
Chris White - bass, vocals
Rod Argent - keyboards, vocals
Paul Atkinson - guitars

EAC extraction logfile from 23. October 2006, 18:27 for CD
The Zombies / Greatest Hits (Hybrid SACD Mastered by Steve Hoffman)

Used drive : PLEXTOR DVDR PX-716A Adapter: 1 ID: 0
Read mode : Secure with NO C2, accurate stream, disable cache
Read offset correction : 30
Overread into Lead-In and Lead-Out : No

Used output format : Internal WAV Routines
44.100 Hz; 16 Bit; Stereo

Other options :
Fill up missing offset samples with silence : Yes
Delete leading and trailing silent blocks : No
Installed external ASPI interface


Range status and errors
Selected range
Filename D:\TO COPY\TO SEND\Temp7\The Zombies - Greatest Hits (Hybrid SACD Mastered by Steve Hoffman).wav

Peak level 87.3 %
Range quality 99.9 %
CRC F8DAC1CA
Copy OK

No errors occured

End of status report

foobar2000 1.2.6 / Dynamic Range Meter 1.1.1
log date: 2016-12-10 00:01:44

––––––––––––––––––––––––––––––––––––––––
Analyzed: The Zombies / Greatest Hits (Hybrid SACD Mastered by Steve Hoffman)
––––––––––––––––––––––––––––––––––––––––

DR Peak RMS Duration Track
––––––––––––––––––––––––––––––––––––––––
DR11 -1.87 dB -15.14 dB 2:24 01-She's Not There (stereo underdub)
DR10 -3.64 dB -16.54 dB 2:38 02-I Can't Make Up My Mind (stereo)
DR11 -4.21 dB -16.93 dB 2:09 03-Tell Her No (stereo)
DR11 -2.90 dB -16.08 dB 2:39 04-You Make Me Feel Good (stereo)
DR12 -2.38 dB -17.41 dB 2:12 05-Kind Of Girl (stereo)
DR11 -1.26 dB -17.24 dB 2:09 06-Leave Me Be (stereo)
DR11 -4.45 dB -16.98 dB 2:05 07-Sometimes
DR10 -3.00 dB -15.46 dB 2:13 08-Don't Cry For Me
DR11 -2.04 dB -16.08 dB 1:52 09-It's Alright With Me
DR11 -4.02 dB -16.60 dB 2:08 10-I Don't Want To Know
DR12 -3.34 dB -17.11 dB 3:13 11-I Love You (stereo)
DR11 -3.57 dB -16.97 dB 2:32 12-Nothing's Changed (stereo)
DR10 -3.62 dB -18.01 dB 2:01 13-I Remember When I Loved Her (stereo)
DR11 -2.16 dB -15.53 dB 3:03 14-Indication (stereo)
DR10 -5.80 dB -17.94 dB 2:10 15-Just Out Of Reach (stereo)
DR10 -4.65 dB -17.31 dB 1:39 16-What More Can I Do
DR10 -2.39 dB -15.50 dB 2:18 17-She Does Everything For Me (stereo)
DR11 -1.17 dB -16.84 dB 3:34 18-Time Of The Season (stereo)
DR12 -1.76 dB -16.14 dB 2:25 19-She's Not There (hit single version)
DR12 -2.30 dB -16.96 dB 3:33 20-Time Of The Season (alternate mix)
––––––––––––––––––––––––––––––––––––––––

Number of tracks: 20
Official DR value: DR11

Samplerate: 44100 Hz
Channels: 2
Bits per sample: 16
Bitrate: 688 kbps
Codec: FLAC
================================================================================

[CUETools log; Date: 10.12.2016 0:01:45; Version: 2.1.5]
[CTDB TOCID: 9PFxaHvfNg1YeIU8IO4F4N8EhmQ-] found.
Track | CTDB Status
1 | (30/30) Accurately ripped
2 | (30/30) Accurately ripped
3 | (30/30) Accurately ripped
4 | (30/30) Accurately ripped
5 | (30/30) Accurately ripped
6 | (30/30) Accurately ripped
7 | (30/30) Accurately ripped
8 | (30/30) Accurately ripped
9 | (30/30) Accurately ripped
10 | (30/30) Accurately ripped
11 | (30/30) Accurately ripped
12 | (30/30) Accurately ripped
13 | (30/30) Accurately ripped
14 | (30/30) Accurately ripped
15 | (29/30) Accurately ripped
16 | (30/30) Accurately ripped
17 | (30/30) Accurately ripped
18 | (30/30) Accurately ripped
19 | (30/30) Accurately ripped
20 | (30/30) Accurately ripped
[AccurateRip ID: 0021fd07-01f37519-100b7714] found.
Track [ CRC | V2 ] Status
01 [43e6774e|54954c34] (27+24/61) Accurately ripped
02 [e09fb3b3|b5c37ad5] (26+21/57) Accurately ripped
03 [9b682dbc|4db36511] (27+23/60) Accurately ripped
04 [7a3a0fe8|5297b894] (27+21/58) Accurately ripped
05 [37a0d778|9575b7e0] (26+21/57) Accurately ripped
06 [90f57472|a82f013e] (27+21/58) Accurately ripped
07 [d475ec1d|1e486f19] (26+21/57) Accurately ripped
08 [41beb5dc|3ce2cf47] (26+21/57) Accurately ripped
09 [32658eb1|a95128df] (26+21/57) Accurately ripped
10 [8755c29e|bbc1e86f] (26+21/57) Accurately ripped
11 [86bce51a|745aabfc] (27+23/60) Accurately ripped
12 [ccc1a9a6|0f6b57e1] (26+21/57) Accurately ripped
13 [1d5013e4|24343aba] (27+21/58) Accurately ripped
14 [7efe42f5|61ae0734] (27+21/58) Accurately ripped
15 [a0c60146|bec0f64a] (26+21/57) Accurately ripped
16 [8a54e705|ba22c537] (26+22/58) Accurately ripped
17 [c8d29756|77e59752] (26+21/57) Accurately ripped
18 [12773a60|86645604] (27+23/60) Accurately ripped
19 [318bfaf0|583fdc5b] (27+22/59) Accurately ripped
20 [fdf4186a|4b84a210] (27+22/59) Accurately ripped
Offsetted by -3:
01 [c1c0bc74] (02/61) Accurately ripped
02 [7bd1c34e] (02/57) Accurately ripped
03 [4071ea12] (02/60) Accurately ripped
04 [fb617e0f] (02/58) Accurately ripped
05 [cbb8b043] (02/57) Accurately ripped
06 [8be225eb] (02/58) Accurately ripped
07 [576c16b9] (02/57) Accurately ripped
08 [f6510487] (02/57) Accurately ripped
09 [75375185] (02/57) Accurately ripped
10 [7db52f79] (02/57) Accurately ripped
11 [aed324d1] (02/60) Accurately ripped
12 [46e37efe] (02/57) Accurately ripped
13 [acd52354] (02/58) Accurately ripped
14 [7d9966ae] (02/58) Accurately ripped
15 [f71d1e72] (02/57) Accurately ripped
16 [659bee1b] (02/58) Accurately ripped
17 [5b39128a] (02/57) Accurately ripped
18 [5f0ea63a] (02/60) Accurately ripped
19 [6a8c4279] (02/59) Accurately ripped
20 [f5c0e520] (02/59) Accurately ripped
Offsetted by 646:
01 [67a2f802] (03/61) Accurately ripped
02 [55d93dfd] (03/57) Accurately ripped
03 [1e8d1810] (03/60) Accurately ripped
04 [81ba131a] (03/58) Accurately ripped
05 [50e72762] (03/57) Accurately ripped
06 [d5dd8200] (03/58) Accurately ripped
07 [016614e5] (03/57) Accurately ripped
08 [09588a06] (03/57) Accurately ripped
09 [fdf50309] (03/57) Accurately ripped
10 [f5bc3268] (03/57) Accurately ripped
11 [795b4d2c] (03/60) Accurately ripped
12 [11a18af6] (03/57) Accurately ripped
13 [ba0e6d04] (03/58) Accurately ripped
14 [007f8c03] (03/58) Accurately ripped
15 [00d4ccee] (03/57) Accurately ripped
16 [6deb9bd9] (03/58) Accurately ripped
17 [a3f44aee] (03/57) Accurately ripped
18 [a5c3d7ac] (03/60) Accurately ripped
19 [94a5245e] (03/59) Accurately ripped
20 [8e5a91fe] (03/59) Accurately ripped

Track Peak [ CRC32 ] [W/O NULL] [ LOG ]
– 87,3 [2FA03569] [F8DAC1CA] W/O NULL
01 80,6 [889FB0ED] [5A492D69]
02 65,7 [8D8028A1] [248CE220]
03 61,5 [114F1F71] [B377196B]
04 71,5 [54940CA0] [1691321C]
05 76,0 [C1E642D0] [D1767E8A]
06 86,5 [709CBF2D] [2570AE9C]
07 59,8 [F16655FA] [23B6AB1F]
08 70,8 [9BBD7C02] [48141C04]
09 79,0 [4C92BFC0] [4C60FD8E]
10 62,9 [820386A9] [F8360891]
11 68,0 [7E3C74CA] [2C02FAE1]
12 66,3 [A2968764] [38E34F7C]
13 65,9 [C0E6B9F0] [25FD8219]
14 77,9 [26029F8F] [C21C01C1]
15 51,2 [326454E2] [6369AC4C]
16 58,5 [332AFB99] [85CB5AFB]
17 75,9 [1C88BFFA] [F5929926]
18 87,3 [5C40C543] [87E80FF7]
19 81,6 [40851B0B] [312A279C]
20 76,7 [02023EAE] [00019960]

The Zombies - Greatest Hits (2002) {Hybrid SACD, Audio Fidelity AFZ 001}

The Zombies - Greatest Hits (2002) {Hybrid SACD, Audio Fidelity AFZ 001}

See also:
The Zombies - Odessey And Oracle (1968) [2004, Japan, TECI-21220]

All thanks go to the original ripper(s) …

> Visit my blog <

Download: