Subcategories

Kramer - The Brill Building, Book Two (feat. Bill Frisell) (2017)

Posted By: SERTiL
Kramer - The Brill Building, Book Two (feat. Bill Frisell) (2017)

Kramer - The Brill Building, Book Two (feat. Bill Frisell) (2017)
EAC Rip | FLAC (tracks)+cue, log, m3u, front cover | 274 MB
Label: Tzadik – TZ 4020 | Tracks: 10 | Time: 49:17 min
Rock

Everyone’s favorite guitarist and American Song aficionado Bill Frisell joins forces with producer/arranger Kramer for a brilliant and soulful exploration of the classic songwriting teams that were born and flourished in the legendary Brill Building. Picking up where 2012’s “The Brill Building, Book One” left off, this collection includes imaginative and creative arrangements of songs by Paul Simon, Burt Bacharach, Neil Diamond, Doc Pomus, Al Kooper, Carole King and more! Kramer’s idiosyncratic production values high- light Frisell’s distinctive guitar work, making this second installment a rare and vital gem in the Great American Songbook. Essential!

Tracklist:
1. America
2. Solitary Man
3. My Little Red Book
4. Needles and Pins
5. Crying in the Rain
6. Kicks
7. Can't Get Used To Losing You
8. This Diamond Ring
9. Here Comes the Night
10. Porpoise Song

Personnel:
Bill Frisell: Guitars
Kramer: Everything Else

Exact Audio Copy V1.3 from 2. September 2016

EAC extraction logfile from 11. January 2018, 20:46

Kramer / The Brill Building, Book Two Featuring Bill Frisell

Used drive : HL-DT-STBDDVDRW GBC-H20L Adapter: 1 ID: 0

Read mode : Secure
Utilize accurate stream : Yes
Defeat audio cache : Yes
Make use of C2 pointers : No

Read offset correction : 667
Overread into Lead-In and Lead-Out : No
Fill up missing offset samples with silence : Yes
Delete leading and trailing silent blocks : No
Null samples used in CRC calculations : Yes
Used interface : Native Win32 interface for Win NT & 2000
Gap handling : Appended to previous track

Used output format : User Defined Encoder
Selected bitrate : 768 kBit/s
Quality : High
Add ID3 tag : No
Command line compressor : C:\Program Files (x86)\Exact Audio Copy\FLAC\FLAC.EXE
Additional command line options : -8 -e -p -V -T "ARTIST=%artist%" -T "TITLE=%title%" -T "ALBUM=%albumtitle%" -T "DATE=%year%" -T "TRACKNUMBER=%tracknr%" -T "GENRE=%genre%" -T "PERFORMER=%albuminterpret%" -T "COMPOSER=%composer%" %haslyrics%–tag-from-file=LYRICS="%lyricsfile%"%haslyrics% -T "ALBUMARTIST=%albumartist%" -T "DISCNUMBER=%cdnumber%" -T "TOTALDISCS=%totalcds%" -T "TOTALTRACKS=%numtracks%" -T "COMMENT=%comment%" %source% -o %dest%


TOC of the extracted CD

Track | Start | Length | Start sector | End sector
––––––––––––––––––––––––––––-
1 | 0:00.00 | 5:16.21 | 0 | 23720
2 | 5:16.21 | 4:59.22 | 23721 | 46167
3 | 10:15.43 | 5:08.20 | 46168 | 69287
4 | 15:23.63 | 5:16.40 | 69288 | 93027
5 | 20:40.28 | 5:02.14 | 93028 | 115691
6 | 25:42.42 | 4:32.42 | 115692 | 136133
7 | 30:15.09 | 4:01.37 | 136134 | 154245
8 | 34:16.46 | 4:57.61 | 154246 | 176581
9 | 39:14.32 | 4:47.45 | 176582 | 198151
10 | 44:02.02 | 5:19.68 | 198152 | 222144


Track 1

Filename Z:\media\rips\Kramer - The Brill Building, Book Two Featuring Bill Frisell\01 America.wav

Pre-gap length 0:00:02.00

Peak level 92.1 %
Extraction speed 4.7 X
Track quality 100.0 %
Test CRC 13D75DB7
Copy CRC 13D75DB7
Accurately ripped (confidence 1) [5A4A126A] (AR v2)
Copy OK

Track 2

Filename Z:\media\rips\Kramer - The Brill Building, Book Two Featuring Bill Frisell\02 Solitary Man.wav

Peak level 94.1 %
Extraction speed 5.1 X
Track quality 100.0 %
Test CRC BF450237
Copy CRC BF450237
Accurately ripped (confidence 1) [7EEA7357] (AR v2)
Copy OK

Track 3

Filename Z:\media\rips\Kramer - The Brill Building, Book Two Featuring Bill Frisell\03 My Little Red Book.wav

Peak level 96.9 %
Extraction speed 5.9 X
Track quality 100.0 %
Test CRC 2F25ADF6
Copy CRC 2F25ADF6
Accurately ripped (confidence 1) [15971E71] (AR v2)
Copy OK

Track 4

Filename Z:\media\rips\Kramer - The Brill Building, Book Two Featuring Bill Frisell\04 Needles and Pins.wav

Peak level 95.4 %
Extraction speed 6.6 X
Track quality 100.0 %
Test CRC F0F7C054
Copy CRC F0F7C054
Accurately ripped (confidence 1) [D64BE841] (AR v2)
Copy OK

Track 5

Filename Z:\media\rips\Kramer - The Brill Building, Book Two Featuring Bill Frisell\05 Crying in the Rain.wav

Peak level 93.5 %
Extraction speed 7.0 X
Track quality 100.0 %
Test CRC 1561ABD1
Copy CRC 1561ABD1
Accurately ripped (confidence 1) [64DCE626] (AR v2)
Copy OK

Track 6

Filename Z:\media\rips\Kramer - The Brill Building, Book Two Featuring Bill Frisell\06 Kicks.wav

Peak level 96.9 %
Extraction speed 6.5 X
Track quality 99.9 %
Test CRC 8A6997AF
Copy CRC 8A6997AF
Accurately ripped (confidence 1) [5513EC4E] (AR v2)
Copy OK

Track 7

Filename Z:\media\rips\Kramer - The Brill Building, Book Two Featuring Bill Frisell\07 Can't Get Used to Losing You.wav

Peak level 95.5 %
Extraction speed 7.5 X
Track quality 100.0 %
Test CRC FF054054
Copy CRC FF054054
Accurately ripped (confidence 1) [866A518B] (AR v2)
Copy OK

Track 8

Filename Z:\media\rips\Kramer - The Brill Building, Book Two Featuring Bill Frisell\08 This Diamond Ring.wav

Peak level 95.3 %
Extraction speed 7.2 X
Track quality 99.9 %
Test CRC F98A5CE9
Copy CRC F98A5CE9
Accurately ripped (confidence 1) [A31798C2] (AR v2)
Copy OK

Track 9

Filename Z:\media\rips\Kramer - The Brill Building, Book Two Featuring Bill Frisell\09 Here Comes the Night.wav

Peak level 95.4 %
Extraction speed 8.5 X
Track quality 100.0 %
Test CRC C482A6D7
Copy CRC C482A6D7
Accurately ripped (confidence 1) [0FD28E16] (AR v2)
Copy OK

Track 10

Filename Z:\media\rips\Kramer - The Brill Building, Book Two Featuring Bill Frisell\10 Porpoise Song.wav

Peak level 94.1 %
Extraction speed 8.9 X
Track quality 100.0 %
Test CRC DC44BB95
Copy CRC DC44BB95
Accurately ripped (confidence 1) [9528F1B7] (AR v2)
Copy OK


All tracks accurately ripped

No errors occurred

End of status report

==== Log checksum B4A00F538EA58D30401D20D53F807AE7E74B363AD0190F2B8B518515478A4722 ====


Thanks to the Original customer.