Subcategories

A Grand Concert of Musick - English Baroque Concertos -- The English Concert - Trevor Pinnock

Posted By: wdilbert
A Grand Concert of Musick - English Baroque Concertos  --  The English Concert - Trevor Pinnock

A Grand Concert of Musick - English Baroque Concertos – The English Concert - Trevor Pinnock
EAC | FLAC IMG+CUE+LOG | Complete HQ Scans | 1CD | 350 MB + 16,3 MB (scans)
Classical: Baroque | Archiv Produktion 437 088-2 | 1979-1985 (rec. 1979-1984)

This is a very nice recording dating from 1979 and 1985. Pinnock, Standage and the English Concert play with their usual energy that brings out the full potential of the works of these English composers. Of particular interest is the g-minor harpsichord concerto by Arne with definite influences of Bach's sons. Avison's concerto d'apres Scarlatti is naturally a highlight of this recording. As for the rest, they are fairly standard works, but are cheerful and lively music as interpeted by the English Concert.
Amazon's costumer review
Exact Audio Copy V1.0 beta 3 from 29. August 2011

EAC extraction logfile from 7. March 2012, 20:33

The English Concert - Trevor Pinnock / A Grand Concert of Musick - English Baroque Concertos

Used drive : ATAPI iHAS624 B Adapter: 4 ID: 1

Read mode : Secure
Utilize accurate stream : Yes
Defeat audio cache : No
Make use of C2 pointers : No

Read offset correction : 6
Overread into Lead-In and Lead-Out : No
Fill up missing offset samples with silence : Yes
Delete leading and trailing silent blocks : No
Null samples used in CRC calculations : Yes
Used interface : Native Win32 interface for Win NT & 2000

Used output format : User Defined Encoder
Selected bitrate : 768 kBit/s
Quality : High
Add ID3 tag : No
Command line compressor : C:\Program Files (x86)\Exact Audio Copy\FLAC\FLAC.EXE
Additional command line options : -8 -V -T "ARTIST=%artist%" -T "TITLE=%title%" -T "ALBUM=%albumtitle%" -T "DATE=%year%" -T "TRACKNUMBER=%tracknr%" -T "GENRE=%genre%" -T "COMMENT=%comment%" -T "BAND=%albuminterpret%" -T "ALBUMARTIST=%albuminterpret%" -T "COMPOSER=%composer%" %haslyrics%–tag-from-file=LYRICS="%lyricsfile%"%haslyrics% -T "DISCNUMBER=%cdnumber%" -T "TOTALDISCS=%totalcds%" -T "TOTALTRACKS=%numtracks%" %hascover%–picture="%coverfile%"%hascover% %source% -o %dest%


TOC of the extracted CD

Track | Start | Length | Start sector | End sector
––––––––––––––––––––––––––––-
1 | 0:00.33 | 4:05.00 | 33 | 18407
2 | 4:05.33 | 1:43.62 | 18408 | 26194
3 | 5:49.20 | 2:58.13 | 26195 | 39557
4 | 8:47.33 | 5:39.25 | 39558 | 65007
5 | 14:26.58 | 1:20.50 | 65008 | 71057
6 | 15:47.33 | 4:35.00 | 71058 | 91682
7 | 20:22.33 | 2:37.37 | 91683 | 103494
8 | 22:59.70 | 2:21.38 | 103495 | 114107
9 | 25:21.33 | 2:03.00 | 114108 | 123332
10 | 27:24.33 | 12:24.00 | 123333 | 179132
11 | 39:48.33 | 3:58.00 | 179133 | 196982
12 | 43:46.33 | 1:41.00 | 196983 | 204557
13 | 45:27.33 | 1:34.00 | 204558 | 211607
14 | 47:01.33 | 1:34.25 | 211608 | 218682
15 | 48:35.58 | 3:01.50 | 218683 | 232307
16 | 51:37.33 | 2:11.00 | 232308 | 242132
17 | 53:48.33 | 3:09.00 | 242133 | 256307
18 | 56:57.33 | 3:18.00 | 256308 | 271157
19 | 60:15.33 | 3:43.50 | 271158 | 287932


Range status and errors

Selected range

Filename D:\EAC\The English Concert - Trevor Pinnock - A Grand Concert of Musick - English Baroque Concertos.wav

Peak level 93.6 %
Extraction speed 5.2 X
Range quality 100.0 %
Copy CRC E61F53EA
Copy OK

No errors occurred


AccurateRip summary

Track 1 accurately ripped (confidence 6) [360316B1] (AR v1)
Track 2 accurately ripped (confidence 6) [CD0F0BF7] (AR v1)
Track 3 accurately ripped (confidence 6) [66519E9A] (AR v1)
Track 4 accurately ripped (confidence 6) [839024DA] (AR v1)
Track 5 accurately ripped (confidence 6) [CF0F9047] (AR v1)
Track 6 accurately ripped (confidence 6) [C12653DB] (AR v1)
Track 7 accurately ripped (confidence 6) [70946F71] (AR v1)
Track 8 accurately ripped (confidence 6) [B533F171] (AR v1)
Track 9 accurately ripped (confidence 6) [3DC6B614] (AR v1)
Track 10 accurately ripped (confidence 5) [EB0AC6FD] (AR v1)
Track 11 accurately ripped (confidence 5) [3C3C1FDD] (AR v1)
Track 12 accurately ripped (confidence 5) [96FEBB89] (AR v1)
Track 13 accurately ripped (confidence 5) [0EDC69D6] (AR v1)
Track 14 accurately ripped (confidence 5) [BA3C9ABC] (AR v1)
Track 15 accurately ripped (confidence 5) [FBDE2DC6] (AR v1)
Track 16 accurately ripped (confidence 5) [755B603F] (AR v1)
Track 17 accurately ripped (confidence 5) [2072D436] (AR v1)
Track 18 accurately ripped (confidence 6) [7D365FA2] (AR v1)
Track 19 accurately ripped (confidence 6) [87A7B628] (AR v1)

All tracks accurately ripped

End of status report

–– CUETools DB Plugin V2.1.3

[CTDB TOCID: h61EHc35ywniCjG_LFimvR6QIb8-] disk not present in database, Submit result: discs with pregaps not supported in this protocol version


==== Log checksum A2EF90B9F06BE6EC67180583CA25AA28D97F75A058CC40018F7AC1180F0C6860 ====



_<span style="color:#ffffff">TRACKS</span>_


John Stanley (1712-1786)
1 - 3. Concerto in G major op. 2 no. 3

Thomas Arne (1710-1778)
4 - 6. Concerto in G minor for Keyboard and Orchestra

William Boyce (1711-1779)
7 - 9. Symphony in B flat major

Francesco Geminiani (1687-1762)
10. Concerto grosso in D minor
(after Corelli: "La Follia" Variations, op. 5 no. 12)

Pieter Hellendaal (1721-1799)
11 - 15. Concerto in E flat major op. 3 no. 4

Charles Avison (1709-1770)
16 - 19. Concerto grosso no.9 in C major/A minor
(after Domenico Scarlatti: "Lessons for the Harpsichord")


The English Concert

Leader violon solo:
Simon Standage

Direction from the harpsichord:
Trevor Pinnock


=========================
Cover of the original LP edition
(without Avison's concerto)
A Grand Concert of Musick - English Baroque Concertos  --  The English Concert - Trevor Pinnock

=========================



<span style="color:#cc0000">_</span><span style="color:#ffffff">DOWNLOAD</span><span style="color:#cc0000">_</span>

>>> Please, NO MIRRORS <<<
Filepost:
Part 1 - Part 2
Scans


or

EmbedUpload:
Part 1 - Part 2
Scans


or

Mirrorcreator:
Part 1 - Part 2
Scans



(Password: wdilbert)