Subcategories

The Rosebuds - Albums Collection 2003-2011 (6CD)

Posted By: Designol
The Rosebuds - Albums Collection 2003-2011 (6CD)

The Rosebuds - Albums Collection 2003-2011 (6CD)
EAC | FLAC | Tracks (Cue&Log) ~ 1.54 Gb | Mp3 (CBR320) ~ 689 Mb | Scans included
Genre: Indie Rock, Alternative Rock | Label: Merge | Time: 03:28:25

North Carolina indie-rock duo with a cavernous, rocking sound. Collection includes: The Rosebuds Make Out (2003); The Rosebuds Unwind (2005) EP; Birds Make Good Neighbors (2005); Night Of The Furies (2007); Life Like (2008); Louds Planes Fly Low (2011).

Indie rock trio the Rosebuds formed in May 2001, the same month that Ivan Howard (vocals/guitars) and Kelly Crisp (keyboards) were married. The two had met while in college in Wilmington, North Carolina, and upon forming the Rosebuds moved to Raleigh in the fall of 2001 and enlisted drummer Billy Alphin (of Ashley Stove). After a split 7", nearby Merge Records discovered their demo in early 2003 and released Make Out, their debut full-length, in October of that year. Following that recording, Alphin left the group and was replaced by Jonathan Bass, who himself was replaced by Lee Waters for the recording of the band's second album, 2005's Birds Make Good Neighbors. By the release of their third album for Merge, 2007's Night of the Furies, the Rosebuds were down to the duo of Howard and Crisp. On the record they were joined by numerous friends, including Matt McCaughan on drums and the Shout Out Louds on backing vocals. The duo returned to the studio in 2008 and released Life Like in October. In the time between Life Like and the duo's 2011 album, Loud Planes Fly Low, two important things happened: Howard joined the band Gayngs, whose soft rock-meets-soul sound influenced the Rosebuds; and more importantly, the duo's marriage ended. They dedicated themselves to keeping the band going, and with the production help of Chris Stamey and BJ Burton, made an album with all the emotional power you'd expect considering the circumstances behind its creation. Howard relocated to Portland, Oregon and Crisp settled in New York City, but the two maintained their working relationship and continued to write songs together. In 2014, the Rosebuds released Sand + Silence, which was recorded in Wisconsin with BJ Burton and Justin Vernon (of Bon Iver and Howard's bandmate in Gayngs) serving as producers. The album, a sunnier affair than Loud Planes Fly Low, was also the Rosebuds' first release for Western Vinyl Records after severing ties with Merge.

Kenyon Hopkin, Allmusic.com
The Rosebuds - Albums Collection 2003-2011 (6CD)

Wikipedia
Website



––––––––––––––––––––––––––––––––––––––––-


The Rosebuds - Albums Collection 2003-2011 (6CD)

The Rosebuds - The Rosebuds Make Out (2003)
EAC | FLAC | Tracks (Cue&Log) ~ 279 Mb | Mp3 (CBR320/Stereo) ~ 126 Mb
Label: Merge | # MRG235 | Time: 00:36:32 | Scans included

The Rosebuds are a hook-laden, energetic indie group from North Carolina plucked right out of Merge's backyard. Their debut long-player, The Rosebuds Make Out, is a strong and memorable record that sounds fresh on repeated listens. The disc is split between up-tempo rockers and weepy ballads. The rockers are what reach out and grab you on initial listens. Tracks like the goofy "My Downtown Friends," "What Can I Do?," and the buoyant "Kicks in the Schoolyard" are pop songs with sharp-as-roses hooks. Ivan Howard has a perfect rock voice, elastic and sharp, able to carry the tunes easily and with verve. For the most part the instrumentation on the record is spare, with guitars leading the way, but the occasional use of big, clunky, unironic synths make ballads like "Wishes for Kisses" and "Back to Boston" sound like a cross between the Cure and the Anniversary. Which is not a sound too many bands have these days. You can also hear bits of the Pixies, Yo La Tengo, and an old-school Merge band, Spent, in there too; all bands that combine energy with melody and end up right square in classic indie rockville. The only track that lets the side down a bit is the last track on the record, the overly long and repetitive "Make Out Song." Despite that minor hiccup, Merge has really picked a winner here; The Rosebuds Make Out is a sweet smelling bunch of songs by a very promising new band.

Tim Sendra, Allmusic.com

Tracklist:

01. Back to Boston (02:27)
02. Kicks in the Schoolyard (02:27)
03. My Downtown Friends (02:16)
04. Wishes for Kisses (03:15)
05. Boys Who Love Girls (02:20)
06. Drunkards Worst Nightmare (03:43)
07. Big Heartbreak (03:34)
08. Waiting for the Carnival (03:53)
09. What Can I Do? (02:08)
10. Signature Drinks (04:36)
11. Make Out Song (05:49)


Exact Audio Copy V1.0 beta 3 from 29. August 2011

EAC extraction logfile from 4. September 2014, 14:11

The Rosebuds / The Rosebuds Make Out

Used drive : PIONEER DVD-RW DVR-118L Adapter: 2 ID: 0

Read mode : Secure
Utilize accurate stream : Yes
Defeat audio cache : Yes
Make use of C2 pointers : No

Read offset correction : 6
Overread into Lead-In and Lead-Out : No
Fill up missing offset samples with silence : Yes
Delete leading and trailing silent blocks : No
Null samples used in CRC calculations : Yes
Used interface : Native Win32 interface for Win NT & 2000
Gap handling : Appended to previous track

Used output format : User Defined Encoder
Selected bitrate : 1024 kBit/s
Quality : High
Add ID3 tag : No
Command line compressor : C:\Program Files (x86)\Exact Audio Copy\Flac\flac.exe
Additional command line options : -8 -V -T "ARTIST=%artist%" -T "TITLE=%title%" -T "ALBUM=%albumtitle%" -T "DATE=%year%" -T "TRACKNUMBER=%tracknr%" -T "GENRE=%genre%" -T "PERFORMER=%albuminterpret%" -T "COMPOSER=%composer%" %haslyrics%–tag-from-file=LYRICS="%lyricsfile%"%haslyrics% -T "ALBUMARTIST=%albumartist%" -T "DISCNUMBER=%cdnumber%" -T "TOTALDISCS=%totalcds%" -T "TOTALTRACKS=%numtracks%" -T "COMMENT=%comment%" %source% -o %dest%


TOC of the extracted CD

Track | Start | Length | Start sector | End sector
––––––––––––––––––––––––––––-
1 | 0:00.00 | 2:27.58 | 0 | 11082
2 | 2:27.58 | 2:27.38 | 11083 | 22145
3 | 4:55.21 | 2:16.33 | 22146 | 32378
4 | 7:11.54 | 3:15.04 | 32379 | 47007
5 | 10:26.58 | 2:20.21 | 47008 | 57528
6 | 12:47.04 | 3:43.38 | 57529 | 74291
7 | 16:30.42 | 3:34.21 | 74292 | 90362
8 | 20:04.63 | 3:53.70 | 90363 | 107907
9 | 23:58.58 | 2:08.20 | 107908 | 117527
10 | 26:07.03 | 4:36.32 | 117528 | 138259
11 | 30:43.35 | 5:49.24 | 138260 | 164458


Track 1

Filename D:\CDRip\01 - Back to Boston.wav

Pre-gap length 0:00:02.00

Peak level 99.8 %
Extraction speed 0.9 X
Track quality 100.0 %
Test CRC 75C5E2AC
Copy CRC 75C5E2AC
Accurately ripped (confidence 7) [D314CAF0] (AR v1)
Copy OK

Track 2

Filename D:\CDRip\02 - Kicks in the Schoolyard.wav

Peak level 99.8 %
Extraction speed 1.0 X
Track quality 100.0 %
Test CRC B6712A2E
Copy CRC B6712A2E
Accurately ripped (confidence 7) [47610CFA] (AR v1)
Copy OK

Track 3

Filename D:\CDRip\03 - My Downtown Friends.wav

Peak level 99.8 %
Extraction speed 0.9 X
Track quality 99.9 %
Test CRC E4AC3840
Copy CRC E4AC3840
Accurately ripped (confidence 7) [DB4AC720] (AR v1)
Copy OK

Track 4

Filename D:\CDRip\04 - Wishes for Kisses.wav

Peak level 99.8 %
Extraction speed 1.2 X
Track quality 100.0 %
Test CRC 13B9364D
Copy CRC 13B9364D
Accurately ripped (confidence 7) [883019F0] (AR v1)
Copy OK

Track 5

Filename D:\CDRip\05 - Boys Who Love Girls.wav

Peak level 99.8 %
Extraction speed 1.2 X
Track quality 100.0 %
Test CRC 523097B5
Copy CRC 523097B5
Accurately ripped (confidence 7) [2DEB300C] (AR v1)
Copy OK

Track 6

Filename D:\CDRip\06 - Drunkards Worst Nightmare.wav

Peak level 99.8 %
Extraction speed 1.4 X
Track quality 100.0 %
Test CRC 856F2F60
Copy CRC 856F2F60
Accurately ripped (confidence 7) [22D15C81] (AR v1)
Copy OK

Track 7

Filename D:\CDRip\07 - Big Heartbreak.wav

Peak level 99.8 %
Extraction speed 1.4 X
Track quality 100.0 %
Test CRC DAD013DD
Copy CRC DAD013DD
Accurately ripped (confidence 7) [6CD1B601] (AR v1)
Copy OK

Track 8

Filename D:\CDRip\08 - Waiting for the Carnival.wav

Peak level 99.8 %
Extraction speed 1.5 X
Track quality 100.0 %
Test CRC 7663EDAA
Copy CRC 7663EDAA
Accurately ripped (confidence 7) [4A7C8F34] (AR v1)
Copy OK

Track 9

Filename D:\CDRip\09 - What Can I Do.wav

Peak level 99.8 %
Extraction speed 1.4 X
Track quality 100.0 %
Test CRC 65232AFE
Copy CRC 65232AFE
Accurately ripped (confidence 6) [B90E29EE] (AR v1)
Copy OK

Track 10

Filename D:\CDRip\10 - Signature Drinks.wav

Peak level 99.8 %
Extraction speed 1.7 X
Track quality 100.0 %
Test CRC 2D00D92F
Copy CRC 2D00D92F
Accurately ripped (confidence 7) [93AC08A1] (AR v1)
Copy OK

Track 11

Filename D:\CDRip\11 - Make Out Song.wav

Peak level 99.8 %
Extraction speed 1.9 X
Track quality 100.0 %
Test CRC 4AB7CC39
Copy CRC 4AB7CC39
Accurately ripped (confidence 7) [6FE7CA05] (AR v1)
Copy OK


All tracks accurately ripped

No errors occurred

End of status report

–– CUETools DB Plugin V2.1.3

[CTDB TOCID: FA9vz_JcJwakr7sTTAJMsC_eQBg-] found, Submit result: FA9vz_JcJwakr7sTTAJMsC_eQBg- has been confirmed
[27fbc5d9] (1/1) Accurately ripped


==== Log checksum 83A65597BE375D406AB87484C3197E1930B28CE3C80C4F1C6A6CBA99211CD83C ====

foobar2000 1.2 / Dynamic Range Meter 1.1.1
log date: 2014-09-12 02:43:10

––––––––––––––––––––––––––––––––––––––––
Analyzed: The Rosebuds / The Rosebuds Make Out
––––––––––––––––––––––––––––––––––––––––

DR Peak RMS Duration Track
––––––––––––––––––––––––––––––––––––––––
DR6 -0.01 dB -7.63 dB 2:28 01-Back to Boston
DR6 -0.01 dB -7.24 dB 2:28 02-Kicks in the Schoolyard
DR6 -0.01 dB -6.95 dB 2:16 03-My Downtown Friends
DR6 -0.01 dB -8.34 dB 3:15 04-Wishes for Kisses
DR6 -0.01 dB -7.67 dB 2:20 05-Boys Who Love Girls
DR6 -0.01 dB -7.54 dB 3:44 06-Drunkards Worst Nightmare
DR5 -0.01 dB -7.51 dB 3:34 07-Big Heartbreak
DR6 -0.01 dB -6.95 dB 3:54 08-Waiting for the Carnival
DR6 -0.01 dB -7.86 dB 2:08 09-What Can I Do?
DR7 -0.01 dB -9.63 dB 4:36 10-Signature Drinks
DR10 -0.01 dB -11.24 dB 5:49 11-Make Out Song
––––––––––––––––––––––––––––––––––––––––

Number of tracks: 11
Official DR value: DR6

Samplerate: 44100 Hz
Channels: 2
Bits per sample: 16
Bitrate: 643 kbps
Codec: FLAC
================================================================================


––––––––––––––––––––––––––––––––––––––––-


The Rosebuds - Albums Collection 2003-2011 (6CD)

The Rosebuds - The Rosebuds Unwind (2005) EP
EAC | FLAC | Tracks (Cue&Log) ~ 159 Mb | Mp3 (CBR320/Stereo) ~ 65 Mb
Label: Merge | # MRG259 | Time: 00:21:50 | Scans included

The Rosebuds' Unwind EP is like a short version of their solidly exciting debut album from 2004, The Rosebuds Make Out. It mixes raucous rockers with dreamy midtempo ballads, both played with a minimum of fuss and a large dose of energy. The only difference on Unwind is that some of the songs have a heightened sense of drama, like the pocket epic "El Camino," which rides some very poignant chord changes to a powerful synth and distorted guitar climax, and "Unwind," which is a moody acoustic-based ballad that has a much deeper sense of emotion and feeling than anything on the first record. The flat-out rockers like "You Better Get Ready"(which has a humorous Sonny & Cher quote) and "I'd Feel Better" are really good, too, bursting with joyous energy, dancefloor-filling recklessness, and convincing vocals. Ivan Howard has the rare voice that sounds just as convincing on the ballads and the rockers; he is the duo's greatest asset. Even if the songs had been weak, which they most certainly are not, The Rosebuds would be worth hearing. The Unwind EP shows a band delivering more of what made it so promising in the first place, and adding some welcome sonic and emotional development, too.

Tim Sendra, Allmusic.com

Tracklist:

01. You Better Get Ready (02:06)
02. El Camino (04:23)
03. Is There Room? (03:57)
04. Unwind (04:07)
05. Edmund Street (04:47)
06. I'd Feel Better (02:27)


Exact Audio Copy V1.0 beta 3 from 29. August 2011

EAC extraction logfile from 4. September 2014, 15:28

The Rosebuds / The Rosebuds Unwind

Used drive : PIONEER DVD-RW DVR-118L Adapter: 2 ID: 0

Read mode : Secure
Utilize accurate stream : Yes
Defeat audio cache : Yes
Make use of C2 pointers : No

Read offset correction : 6
Overread into Lead-In and Lead-Out : No
Fill up missing offset samples with silence : Yes
Delete leading and trailing silent blocks : No
Null samples used in CRC calculations : Yes
Used interface : Native Win32 interface for Win NT & 2000
Gap handling : Appended to previous track

Used output format : User Defined Encoder
Selected bitrate : 1024 kBit/s
Quality : High
Add ID3 tag : No
Command line compressor : C:\Program Files (x86)\Exact Audio Copy\Flac\flac.exe
Additional command line options : -8 -V -T "ARTIST=%artist%" -T "TITLE=%title%" -T "ALBUM=%albumtitle%" -T "DATE=%year%" -T "TRACKNUMBER=%tracknr%" -T "GENRE=%genre%" -T "PERFORMER=%albuminterpret%" -T "COMPOSER=%composer%" %haslyrics%–tag-from-file=LYRICS="%lyricsfile%"%haslyrics% -T "ALBUMARTIST=%albumartist%" -T "DISCNUMBER=%cdnumber%" -T "TOTALDISCS=%totalcds%" -T "TOTALTRACKS=%numtracks%" -T "COMMENT=%comment%" %source% -o %dest%


TOC of the extracted CD

Track | Start | Length | Start sector | End sector
––––––––––––––––––––––––––––-
1 | 0:00.00 | 2:06.74 | 0 | 9523
2 | 2:06.74 | 4:23.34 | 9524 | 29282
3 | 6:30.33 | 3:57.57 | 29283 | 47114
4 | 10:28.15 | 4:07.64 | 47115 | 65703
5 | 14:36.04 | 4:47.28 | 65704 | 87256
6 | 19:23.32 | 2:27.01 | 87257 | 98282


Track 1

Filename D:\CDRip\01 - You Better Get Ready.wav

Pre-gap length 0:00:02.00

Peak level 98.8 %
Extraction speed 0.9 X
Track quality 100.0 %
Test CRC 7122E750
Copy CRC 7122E750
Accurately ripped (confidence 2) [0D3C32B6] (AR v2)
Copy OK

Track 2

Filename D:\CDRip\02 - El Camino.wav

Peak level 98.8 %
Extraction speed 1.1 X
Track quality 100.0 %
Test CRC 8F399043
Copy CRC 8F399043
Accurately ripped (confidence 2) [D1C5A62A] (AR v2)
Copy OK

Track 3

Filename D:\CDRip\03 - Is There Room.wav

Peak level 98.8 %
Extraction speed 1.2 X
Track quality 100.0 %
Test CRC 98C10737
Copy CRC 98C10737
Accurately ripped (confidence 2) [BCEDF2E1] (AR v2)
Copy OK

Track 4

Filename D:\CDRip\04 - Unwind.wav

Peak level 98.8 %
Extraction speed 1.3 X
Track quality 100.0 %
Test CRC 4AE92187
Copy CRC 4AE92187
Accurately ripped (confidence 2) [DC6382DF] (AR v2)
Copy OK

Track 5

Filename D:\CDRip\05 - Edmund Street.wav

Peak level 98.8 %
Extraction speed 1.5 X
Track quality 100.0 %
Test CRC 3E098CA8
Copy CRC 3E098CA8
Accurately ripped (confidence 2) [58DE1E93] (AR v2)
Copy OK

Track 6

Filename D:\CDRip\06 - I'd Feel Better.wav

Peak level 98.8 %
Extraction speed 1.4 X
Track quality 100.0 %
Test CRC 5C2C4E59
Copy CRC 5C2C4E59
Accurately ripped (confidence 2) [4C87930A] (AR v2)
Copy OK


All tracks accurately ripped

No errors occurred

End of status report

–– CUETools DB Plugin V2.1.3

[CTDB TOCID: iG3OdX6.RZtzgeQRusdDqDTGr2A-] disk not present in database, Submit result: iG3OdX6.RZtzgeQRusdDqDTGr2A- has been uploaded


==== Log checksum 041033B00779DFDF8B0680BE237A4D9CDC82C9D57A055AE1CC6D5F0C14879651 ====

foobar2000 1.2 / Dynamic Range Meter 1.1.1
log date: 2014-09-12 02:43:37

––––––––––––––––––––––––––––––––––––––––
Analyzed: The Rosebuds / The Rosebuds Unwind
––––––––––––––––––––––––––––––––––––––––

DR Peak RMS Duration Track
––––––––––––––––––––––––––––––––––––––––
DR6 -0.10 dB -8.78 dB 2:07 01-You Better Get Ready
DR6 -0.10 dB -8.97 dB 4:23 02-El Camino
DR9 -0.10 dB -10.78 dB 3:58 03-Is There Room?
DR7 -0.10 dB -9.37 dB 4:08 04-Unwind
DR6 -0.10 dB -7.82 dB 4:47 05-Edmund Street
DR6 -0.10 dB -7.05 dB 2:27 06-I'd Feel Better
––––––––––––––––––––––––––––––––––––––––

Number of tracks: 6
Official DR value: DR7

Samplerate: 44100 Hz
Channels: 2
Bits per sample: 16
Bitrate: 991 kbps
Codec: FLAC
================================================================================


––––––––––––––––––––––––––––––––––––––––-


The Rosebuds - Albums Collection 2003-2011 (6CD)

The Rosebuds - Birds Make Good Neighbors (2005)
EAC | FLAC | Tracks (Cue&Log) ~ 263 Mb | Mp3 (CBR320/Stereo) ~ 128 Mb
Label: Merge | # MRG264 | Time: 00:36:35 | Scans included

The Rosebuds' first album, 2003's The Rosebuds Make Out, was a fun album, indie rock at its most lighthearted and breezy. In the time since then, the duo of vocalist/guitarist Ivan Howard and keyboardist/vocalist Kelly Crisp have discovered subtlety and sadness, it seems. The songs are coated with a layer of almost gothic gloom and smeared with glossy acoustic guitars and clichéd arrangements, Howard's vocals (one of the bands' strong points) sound detached and morose for the most part, and the band seem to have sacrificed their freshness and spark for a misguided attempt at emotional heft. On Birds Make Good Neighbors, the unbridled punch of the first album is pretty much gone, as instead the band have opted for a layered and adult sound with loads of the aforementioned acoustic guitars, lounge-y electric pianos, and cottony reverb to match the arty and somewhat arch lyrics. Songs about birds, ancient promises, boxcars, and falling leaves may sound good in the hands of someone like Nick Cave, maybe, but in the Rosebuds' grip seem ill-fitting. The band sounded much more at ease on their first album and the more subdued yet still energetic and light EP (2004's The Rosebuds Unwind) that followed, much more energetic and focused. That's not to say that there aren't some fine songs here like the rollicking "Hold Hands and Fight," "The Lover's Rights," which bops along like an indie rock take on Motown, and the pounding and peppy "Shake Our Tree" to name a few. Unfortunately, the forced and false-sounding songs outnumber these bright spots by a wide margin. In a sad trade-off, the band's desire to make a more emotionally powerful and thoughtful record has sapped their strengths and partially ruined what was good about them (their high energy sound, their gleeful innocence, and their knack for sharp and catchy hooks) to begin with.

Tim Sendra, Allmusic.com

Tracklist:

01. Hold Hands and Fight (02:47)
02. Boxcar (03:39)
03. Leaves Do Fall (03:53)
04. Wildcat (02:39)
05. The Lovers' Rights (02:22)
06. Blue Bird (04:26)
07. Outnumbered (02:57)
08. Shake Our Tree (02:43)
09. Let Us Go (03:54)
10. Warm Where You Lay (02:53)
11. 4-Track Love Song (04:16)


Exact Audio Copy V1.0 beta 3 from 29. August 2011

EAC extraction logfile from 4. September 2014, 16:39

The Rosebuds / Birds Make Good Neighbors

Used drive : PIONEER DVD-RW DVR-118L Adapter: 2 ID: 0

Read mode : Secure
Utilize accurate stream : Yes
Defeat audio cache : Yes
Make use of C2 pointers : No

Read offset correction : 6
Overread into Lead-In and Lead-Out : No
Fill up missing offset samples with silence : Yes
Delete leading and trailing silent blocks : No
Null samples used in CRC calculations : Yes
Used interface : Native Win32 interface for Win NT & 2000
Gap handling : Appended to previous track

Used output format : User Defined Encoder
Selected bitrate : 1024 kBit/s
Quality : High
Add ID3 tag : No
Command line compressor : C:\Program Files (x86)\Exact Audio Copy\Flac\flac.exe
Additional command line options : -8 -V -T "ARTIST=%artist%" -T "TITLE=%title%" -T "ALBUM=%albumtitle%" -T "DATE=%year%" -T "TRACKNUMBER=%tracknr%" -T "GENRE=%genre%" -T "PERFORMER=%albuminterpret%" -T "COMPOSER=%composer%" %haslyrics%–tag-from-file=LYRICS="%lyricsfile%"%haslyrics% -T "ALBUMARTIST=%albumartist%" -T "DISCNUMBER=%cdnumber%" -T "TOTALDISCS=%totalcds%" -T "TOTALTRACKS=%numtracks%" -T "COMMENT=%comment%" %source% -o %dest%


TOC of the extracted CD

Track | Start | Length | Start sector | End sector
––––––––––––––––––––––––––––-
1 | 0:00.00 | 2:47.05 | 0 | 12529
2 | 2:47.05 | 3:39.66 | 12530 | 29020
3 | 6:26.71 | 3:53.59 | 29021 | 46554
4 | 10:20.55 | 2:39.40 | 46555 | 58519
5 | 13:00.20 | 2:22.71 | 58520 | 69240
6 | 15:23.16 | 4:26.58 | 69241 | 89248
7 | 19:49.74 | 2:57.05 | 89249 | 102528
8 | 22:47.04 | 2:43.27 | 102529 | 114780
9 | 25:30.31 | 3:54.69 | 114781 | 132399
10 | 29:25.25 | 2:53.67 | 132400 | 145441
11 | 32:19.17 | 4:16.49 | 145442 | 164690


Track 1

Filename D:\CDRip\01 - Hold Hands and Fight.wav

Pre-gap length 0:00:02.00

Peak level 96.6 %
Extraction speed 1.0 X
Track quality 100.0 %
Test CRC 7E09E3C9
Copy CRC 7E09E3C9
Accurately ripped (confidence 2) [7460E2C5] (AR v2)
Copy OK

Track 2

Filename D:\CDRip\02 - Boxcar.wav

Pre-gap length 0:00:02.05

Peak level 96.6 %
Extraction speed 1.1 X
Track quality 100.0 %
Test CRC EAA32C15
Copy CRC EAA32C15
Accurately ripped (confidence 2) [A02E8ACE] (AR v2)
Copy OK

Track 3

Filename D:\CDRip\03 - Leaves Do Fall.wav

Peak level 96.6 %
Extraction speed 1.2 X
Track quality 100.0 %
Test CRC 024676D7
Copy CRC 024676D7
Accurately ripped (confidence 2) [5B277BB0] (AR v2)
Copy OK

Track 4

Filename D:\CDRip\04 - Wildcat.wav

Pre-gap length 0:00:01.04

Peak level 96.6 %
Extraction speed 1.2 X
Track quality 100.0 %
Test CRC 0DE1AC00
Copy CRC 0DE1AC00
Accurately ripped (confidence 2) [25766AA0] (AR v2)
Copy OK

Track 5

Filename D:\CDRip\05 - The Lovers' Rights.wav

Peak level 96.6 %
Extraction speed 1.3 X
Track quality 100.0 %
Test CRC 840C707C
Copy CRC 840C707C
Accurately ripped (confidence 2) [696C4D7C] (AR v2)
Copy OK

Track 6

Filename D:\CDRip\06 - Blue Bird.wav

Pre-gap length 0:00:01.18

Peak level 96.6 %
Extraction speed 1.5 X
Track quality 100.0 %
Test CRC ED6B2864
Copy CRC ED6B2864
Accurately ripped (confidence 2) [F30E0089] (AR v2)
Copy OK

Track 7

Filename D:\CDRip\07 - Outnumbered.wav

Peak level 96.6 %
Extraction speed 1.5 X
Track quality 100.0 %
Test CRC 8B04664A
Copy CRC 8B04664A
Accurately ripped (confidence 2) [7FA7138C] (AR v2)
Copy OK

Track 8

Filename D:\CDRip\08 - Shake Our Tree.wav

Pre-gap length 0:00:02.62

Peak level 96.6 %
Extraction speed 1.2 X
Track quality 99.9 %
Test CRC 4B244658
Copy CRC 4B244658
Accurately ripped (confidence 2) [CC783576] (AR v2)
Copy OK

Track 9

Filename D:\CDRip\09 - Let Us Go.wav

Pre-gap length 0:00:01.90

Peak level 96.6 %
Extraction speed 1.7 X
Track quality 100.0 %
Test CRC 8AAB9841
Copy CRC 8AAB9841
Accurately ripped (confidence 2) [D1CD9CB2] (AR v2)
Copy OK

Track 10

Filename D:\CDRip\10 - Warm Where You Lay.wav

Pre-gap length 0:00:01.05

Peak level 96.6 %
Extraction speed 1.6 X
Track quality 100.0 %
Test CRC 4D5DDD2D
Copy CRC 4D5DDD2D
Accurately ripped (confidence 2) [5143A478] (AR v2)
Copy OK

Track 11

Filename D:\CDRip\11 - 4-Track Love Song.wav

Pre-gap length 0:00:03.00

Peak level 96.6 %
Extraction speed 1.6 X
Track quality 99.9 %
Test CRC 44A71AEB
Copy CRC 44A71AEB
Accurately ripped (confidence 2) [2DA0F24F] (AR v2)
Copy OK


All tracks accurately ripped

No errors occurred

End of status report

–– CUETools DB Plugin V2.1.3

[CTDB TOCID: Aspu6ZNX.w6UTWx4FvXm8caWQZ0-] found, Submit result: Aspu6ZNX.w6UTWx4FvXm8caWQZ0- has been confirmed
[60af0414] (12/12) Accurately ripped


==== Log checksum 3C658FA2C5D6F89C11406E65E2728BAFA29329CE89B5F8326AA94F6603488B1B ====

foobar2000 1.2 / Dynamic Range Meter 1.1.1
log date: 2014-09-12 02:43:28

––––––––––––––––––––––––––––––––––––––––
Analyzed: The Rosebuds / Birds Make Good Neighbors
––––––––––––––––––––––––––––––––––––––––

DR Peak RMS Duration Track
––––––––––––––––––––––––––––––––––––––––
DR8 -0.30 dB -10.22 dB 2:47 01-Hold Hands and Fight
DR7 -0.30 dB -8.35 dB 3:40 02-Boxcar
DR8 -0.30 dB -9.03 dB 3:54 03-Leaves Do Fall
DR9 -0.30 dB -11.59 dB 2:40 04-Wildcat
DR8 -0.30 dB -8.87 dB 2:23 05-The Lovers' Rights
DR9 -0.30 dB -10.00 dB 4:27 06-Blue Bird
DR7 -0.30 dB -8.66 dB 2:57 07-Outnumbered
DR8 -0.30 dB -9.06 dB 2:43 08-Shake Our Tree
DR8 -0.30 dB -9.17 dB 3:55 09-Let Us Go
DR11 -0.30 dB -12.44 dB 2:54 10-Warm Where You Lay
DR9 -0.30 dB -10.32 dB 4:17 11-4-Track Love Song
––––––––––––––––––––––––––––––––––––––––

Number of tracks: 11
Official DR value: DR8

Samplerate: 44100 Hz
Channels: 2
Bits per sample: 16
Bitrate: 581 kbps
Codec: FLAC
================================================================================


––––––––––––––––––––––––––––––––––––––––-


The Rosebuds - Albums Collection 2003-2011 (6CD)

The Rosebuds - Night Of The Furies (2007)
EAC | FLAC | Tracks (Cue&Log) ~ 288 Mb | Mp3 (CBR320/Stereo) ~ 111 Mb
Label: Merge | # MRG294 | Time: 00:38:35 | Scans included

The Rosebuds' third album isn't a return to the cheerful pop of their debut, Rosebuds Make Out. Those days are seemingly gone forever for the duo. Thankfully, it isn't another offering as flat and almost willfully hook-free as the follow-up, Birds Make Good Neighbors. Instead, Night of the Furies is a well-structured, dramatic, and entertaining album that replaces the atmospheric gloom of the last record with a slick and shiny synth pop coating that suits the poetic and often heartbreaking lyrics perfectly. Without all the gloomy reverb and overcooked arranging, the words and emotions are given some room to breath. The same holds true for the excellent vocals delivered throughout by Ivan Howard and Kelly Crisp. The production and performances are a perfect illustration of how less can be more, and it makes for a huge leap forward for The Rosebuds. The restraint and subtly create a very nocturnal mood that nothing can break, not even the tracks that ride disco-pop ("Get Up Get Out," "Night of the Furies") or house-y ("Hold on to This Coat") rhythm tracks or bust out in handclaps and raucous chorus vocals ("Silja Line," with voices courtesy of the Shout Out Louds). The lyrics also cast a spell with references to Viking blood, tombstones, spooky attics, lonely cottages, and of course, the Furies. Even when you can't quite break the ornate code and figure out just what they're talking about, the feeling of sepia-toned melancholy and gentle creepiness is hard to shake. In the age of the song, Night of the Furies is a true album that has to be heard from beginning to end in order to enjoy it fully. Anyone who likes their indie pop with a full order of mystery and drama, hold the pretension, will treasure this dark and enchanting album.

Tim Sendra, Allmusic.com

Tracklist:

01. My Punishment for Fighting (05:11)
02. Cemetry Lawn (03:31)
03. I Better Run (03:49)
04. Get Up Get Out (04:07)
05. Silence By The Lakeside (04:49)
06. Hold On To This Coat (04:14)
07. Silja Line (03:38)
08. When The Lights Went Dim (02:51)
09. Night of The Furies (06:20)


Exact Audio Copy V1.0 beta 3 from 29. August 2011

EAC extraction logfile from 4. September 2014, 17:51

The Rosebuds / Night of The Furies

Used drive : PIONEER DVD-RW DVR-118L Adapter: 2 ID: 0

Read mode : Secure
Utilize accurate stream : Yes
Defeat audio cache : Yes
Make use of C2 pointers : No

Read offset correction : 6
Overread into Lead-In and Lead-Out : No
Fill up missing offset samples with silence : Yes
Delete leading and trailing silent blocks : No
Null samples used in CRC calculations : Yes
Used interface : Native Win32 interface for Win NT & 2000
Gap handling : Appended to previous track

Used output format : User Defined Encoder
Selected bitrate : 1024 kBit/s
Quality : High
Add ID3 tag : No
Command line compressor : C:\Program Files (x86)\Exact Audio Copy\Flac\flac.exe
Additional command line options : -8 -V -T "ARTIST=%artist%" -T "TITLE=%title%" -T "ALBUM=%albumtitle%" -T "DATE=%year%" -T "TRACKNUMBER=%tracknr%" -T "GENRE=%genre%" -T "PERFORMER=%albuminterpret%" -T "COMPOSER=%composer%" %haslyrics%–tag-from-file=LYRICS="%lyricsfile%"%haslyrics% -T "ALBUMARTIST=%albumartist%" -T "DISCNUMBER=%cdnumber%" -T "TOTALDISCS=%totalcds%" -T "TOTALTRACKS=%numtracks%" -T "COMMENT=%comment%" %source% -o %dest%


TOC of the extracted CD

Track | Start | Length | Start sector | End sector
––––––––––––––––––––––––––––-
1 | 0:00.00 | 5:11.54 | 0 | 23378
2 | 5:11.54 | 3:31.27 | 23379 | 39230
3 | 8:43.06 | 3:49.56 | 39231 | 56461
4 | 12:32.62 | 4:07.06 | 56462 | 74992
5 | 16:39.68 | 4:49.70 | 74993 | 96737
6 | 21:29.63 | 4:14.58 | 96738 | 115845
7 | 25:44.46 | 3:38.47 | 115846 | 132242
8 | 29:23.18 | 2:51.46 | 132243 | 145113
9 | 32:14.64 | 6:20.62 | 145114 | 173675


Track 1

Filename D:\CDRip\01 - My Punishment for Fighting.wav

Pre-gap length 0:00:02.00

Peak level 96.6 %
Extraction speed 1.0 X
Track quality 99.9 %
Test CRC 2D758745
Copy CRC 2D758745
Accurately ripped (confidence 9) [455E9B21] (AR v1)
Copy OK

Track 2

Filename D:\CDRip\02 - Cemetry Lawn.wav

Peak level 96.6 %
Extraction speed 1.2 X
Track quality 100.0 %
Test CRC 68DB220E
Copy CRC 68DB220E
Accurately ripped (confidence 2) [C4D738AB] (AR v2)
Copy OK

Track 3

Filename D:\CDRip\03 - I Better Run.wav

Peak level 96.6 %
Extraction speed 1.1 X
Track quality 99.9 %
Test CRC 9CCC1569
Copy CRC 9CCC1569
Accurately ripped (confidence 2) [B827EA59] (AR v2)
Copy OK

Track 4

Filename D:\CDRip\04 - Get Up Get Out.wav

Peak level 96.6 %
Extraction speed 1.4 X
Track quality 100.0 %
Test CRC 3F9A4398
Copy CRC 3F9A4398
Accurately ripped (confidence 2) [4C4462F6] (AR v2)
Copy OK

Track 5

Filename D:\CDRip\05 - Silence By The Lakeside.wav

Peak level 96.6 %
Extraction speed 1.5 X
Track quality 100.0 %
Test CRC 8FF8F4F1
Copy CRC 8FF8F4F1
Accurately ripped (confidence 2) [B3544891] (AR v2)
Copy OK

Track 6

Filename D:\CDRip\06 - Hold On To This Coat.wav

Peak level 96.6 %
Extraction speed 1.6 X
Track quality 100.0 %
Test CRC 3E03040E
Copy CRC 3E03040E
Accurately ripped (confidence 9) [89E6F8F6] (AR v1)
Copy OK

Track 7

Filename D:\CDRip\07 - Silja Line.wav

Peak level 96.6 %
Extraction speed 1.6 X
Track quality 100.0 %
Test CRC 1A189AAD
Copy CRC 1A189AAD
Accurately ripped (confidence 9) [5B24F004] (AR v1)
Copy OK

Track 8

Filename D:\CDRip\08 - When The Lights Went Dim.wav

Peak level 96.6 %
Extraction speed 1.4 X
Track quality 99.9 %
Test CRC EF25852B
Copy CRC EF25852B
Accurately ripped (confidence 9) [CFF114AF] (AR v1)
Copy OK

Track 9

Filename D:\CDRip\09 - Night of The Furies.wav

Pre-gap length 0:00:01.02

Peak level 96.6 %
Extraction speed 1.7 X
Track quality 99.9 %
Test CRC FF188314
Copy CRC FF188314
Accurately ripped (confidence 9) [44DF4085] (AR v1)
Copy OK


All tracks accurately ripped

No errors occurred

End of status report

–– CUETools DB Plugin V2.1.3

[CTDB TOCID: qlA5MAbwRkLds2HKFlDvNUkzTCU-] found, Submit result: qlA5MAbwRkLds2HKFlDvNUkzTCU- has been confirmed
[44a17a3a] (11/11) Accurately ripped


==== Log checksum 457B155318CDC9BC08E2ABD03D8B0AA884474B87F45AC1EDFA1368459C9276D9 ====

foobar2000 1.2 / Dynamic Range Meter 1.1.1
log date: 2014-09-12 02:43:55

––––––––––––––––––––––––––––––––––––––––
Analyzed: The Rosebuds / Night of The Furies
––––––––––––––––––––––––––––––––––––––––

DR Peak RMS Duration Track
––––––––––––––––––––––––––––––––––––––––
DR7 -0.30 dB -9.10 dB 5:12 01-My Punishment for Fighting
DR8 -0.30 dB -8.84 dB 3:31 02-Cemetry Lawn
DR8 -0.30 dB -9.43 dB 3:50 03-I Better Run
DR8 -0.30 dB -9.30 dB 4:07 04-Get Up Get Out
DR8 -0.30 dB -10.06 dB 4:50 05-Silence By The Lakeside
DR9 -0.30 dB -10.60 dB 4:15 06-Hold On To This Coat
DR9 -0.30 dB -13.71 dB 3:39 07-Silja Line
DR7 -0.30 dB -10.03 dB 2:52 08-When The Lights Went Dim
DR8 -0.30 dB -9.67 dB 6:21 09-Night of The Furies
––––––––––––––––––––––––––––––––––––––––

Number of tracks: 9
Official DR value: DR8

Samplerate: 44100 Hz
Channels: 2
Bits per sample: 16
Bitrate: 943 kbps
Codec: FLAC
================================================================================


––––––––––––––––––––––––––––––––––––––––-


The Rosebuds - Albums Collection 2003-2011 (6CD)

The Rosebuds - Life Like (2008)
EAC | FLAC | Tracks (Cue&Log) ~ 287 Mb | Mp3 (CBR320/Stereo) ~ 130 Mb
Label: Merge | # MRG334 | Time: 00:33:26 | Scans included

On their fourth full-length album, Life Like, the Rosebuds take a step back from the nearly overwhelming gothic darkness of Night of the Furies and return to a sound and feel reminiscent of their first album and EP. Not that the lyrics suddenly became all sweetness and light, they are still delving into gloomy matters and tackling murky emotions with abstract and poetic language. The fact that the musical backing is less synthetic and heavy than that of Furies makes Life Like an easier listen though, some of the tracks even have hit potential. "Cape Fear"'s hooky melody and Kelly Crisp's snappy vocals make a tale of man-eating catfish and third-degree burns palatable, "Bow to the Middle"'s bouncy beats and singalong chorus are tailor-made for indie rock dance clubs, and "Another Way In"'s somber Cure-ish atmosphere would fit well on late-night rotation. The glimmers of sunlight that break through the clouds intermittently on Life Like don't make the record any less of an emotionally charged affair, as Ivan Howard still sounds like every word he sings means the world to him, the arrangements still have plenty of drama, and the album has impact, both lyrically and musically. The subtlety with which they handle a song like the lyrically powerful "Nice Fox" is commendable, another band might have piled on the dramatics and instruments and made a pretentious mess of things but the Rosebuds don't. They show restraint and the album succeeds because of it. Indeed, their light touch and unfailing ability to deliver un-telegraphed emotional punches on Life Like make the album a strong addition to the Rosebuds already impressive catalog.

Tim Sendra, Allmusic.com

Tracklist:

01. Life Like (03:14)
02. Cape Fear (02:27)
03. Border Guards (03:38)
04. Bow to the Middle (02:30)
05. Nice Fox (03:28)
06. Another Way In (03:10)
07. Concordia Military Club (05:01)
08. Hello Darlin (02:13)
09. Black Hole (03:49)
10. In the Backyard (03:51)


Exact Audio Copy V1.0 beta 3 from 29. August 2011

EAC extraction logfile from 4. September 2014, 19:45

The Rosebuds / Life Like

Used drive : PIONEER DVD-RW DVR-118L Adapter: 2 ID: 0

Read mode : Secure
Utilize accurate stream : Yes
Defeat audio cache : Yes
Make use of C2 pointers : No

Read offset correction : 6
Overread into Lead-In and Lead-Out : No
Fill up missing offset samples with silence : Yes
Delete leading and trailing silent blocks : No
Null samples used in CRC calculations : Yes
Used interface : Native Win32 interface for Win NT & 2000
Gap handling : Appended to previous track

Used output format : User Defined Encoder
Selected bitrate : 1024 kBit/s
Quality : High
Add ID3 tag : No
Command line compressor : C:\Program Files (x86)\Exact Audio Copy\Flac\flac.exe
Additional command line options : -8 -V -T "ARTIST=%artist%" -T "TITLE=%title%" -T "ALBUM=%albumtitle%" -T "DATE=%year%" -T "TRACKNUMBER=%tracknr%" -T "GENRE=%genre%" -T "PERFORMER=%albuminterpret%" -T "COMPOSER=%composer%" %haslyrics%–tag-from-file=LYRICS="%lyricsfile%"%haslyrics% -T "ALBUMARTIST=%albumartist%" -T "DISCNUMBER=%cdnumber%" -T "TOTALDISCS=%totalcds%" -T "TOTALTRACKS=%numtracks%" -T "COMMENT=%comment%" %source% -o %dest%


TOC of the extracted CD

Track | Start | Length | Start sector | End sector
––––––––––––––––––––––––––––-
1 | 0:00.00 | 3:14.02 | 0 | 14551
2 | 3:14.02 | 2:27.16 | 14552 | 25592
3 | 5:41.18 | 3:38.51 | 25593 | 41993
4 | 9:19.69 | 2:30.21 | 41994 | 53264
5 | 11:50.15 | 3:28.14 | 53265 | 68878
6 | 15:18.29 | 3:10.61 | 68879 | 83189
7 | 18:29.15 | 5:01.69 | 83190 | 105833
8 | 23:31.09 | 2:13.73 | 105834 | 115881
9 | 25:45.07 | 3:49.55 | 115882 | 133111
10 | 29:34.62 | 3:51.34 | 133112 | 150470


Track 1

Filename D:\CDRip\01 - Life Like.wav

Pre-gap length 0:00:02.00

Peak level 100.0 %
Extraction speed 1.0 X
Track quality 100.0 %
Test CRC 995FD398
Copy CRC 995FD398
Accurately ripped (confidence 3) [AB84DBDB] (AR v2)
Copy OK

Track 2

Filename D:\CDRip\02 - Cape Fear.wav

Peak level 93.9 %
Extraction speed 1.0 X
Track quality 100.0 %
Test CRC 91AFAF29
Copy CRC 91AFAF29
Accurately ripped (confidence 3) [3F00A653] (AR v2)
Copy OK

Track 3

Filename D:\CDRip\03 - Border Guards.wav

Peak level 99.8 %
Extraction speed 1.2 X
Track quality 100.0 %
Test CRC 7EA4C9BF
Copy CRC 7EA4C9BF
Accurately ripped (confidence 3) [05BA1768] (AR v2)
Copy OK

Track 4

Filename D:\CDRip\04 - Bow to the Middle.wav

Peak level 100.0 %
Extraction speed 1.2 X
Track quality 100.0 %
Test CRC 987D28FF
Copy CRC 987D28FF
Accurately ripped (confidence 3) [6F9BA207] (AR v2)
Copy OK

Track 5

Filename D:\CDRip\05 - Nice Fox.wav

Peak level 99.5 %
Extraction speed 1.3 X
Track quality 100.0 %
Test CRC 96E972EC
Copy CRC 96E972EC
Accurately ripped (confidence 3) [947FC658] (AR v2)
Copy OK

Track 6

Filename D:\CDRip\06 - Another Way In.wav

Peak level 100.0 %
Extraction speed 1.4 X
Track quality 100.0 %
Test CRC 9CE87060
Copy CRC 9CE87060
Accurately ripped (confidence 3) [846D2A9D] (AR v2)
Copy OK

Track 7

Filename D:\CDRip\07 - Concordia Military Club.wav

Peak level 100.0 %
Extraction speed 1.6 X
Track quality 100.0 %
Test CRC 356F48DB
Copy CRC 356F48DB
Accurately ripped (confidence 3) [610B35C2] (AR v2)
Copy OK

Track 8

Filename D:\CDRip\08 - Hello Darlin.wav

Peak level 99.9 %
Extraction speed 1.4 X
Track quality 100.0 %
Test CRC 2367786F
Copy CRC 2367786F
Accurately ripped (confidence 3) [C9B59481] (AR v2)
Copy OK

Track 9

Filename D:\CDRip\09 - Black Hole.wav

Peak level 99.8 %
Extraction speed 1.4 X
Track quality 99.9 %
Test CRC 9461E070
Copy CRC 9461E070
Accurately ripped (confidence 3) [DDEAC338] (AR v2)
Copy OK

Track 10

Filename D:\CDRip\10 - In the Backyard.wav

Peak level 99.5 %
Extraction speed 1.7 X
Track quality 100.0 %
Test CRC 4663C667
Copy CRC 4663C667
Accurately ripped (confidence 3) [F755D080] (AR v2)
Copy OK


All tracks accurately ripped

No errors occurred

End of status report

–– CUETools DB Plugin V2.1.3

[CTDB TOCID: GPhRJqraRU0y.VGvnbL.RPWF7fo-] found, Submit result: GPhRJqraRU0y.VGvnbL.RPWF7fo- has been confirmed
[fd45e0c7] (3/3) Accurately ripped


==== Log checksum E7CA993927B4D3C5A411FA287C552DB1BD67EC658BCD02B4B8096B304CB212C4 ====

foobar2000 1.2 / Dynamic Range Meter 1.1.1
log date: 2014-09-12 02:44:13

––––––––––––––––––––––––––––––––––––––––
Analyzed: The Rosebuds / Life Like
––––––––––––––––––––––––––––––––––––––––

DR Peak RMS Duration Track
––––––––––––––––––––––––––––––––––––––––
DR5 0.00 dB -6.68 dB 3:14 01-Life Like
DR5 -0.55 dB -6.58 dB 2:27 02-Cape Fear
DR5 -0.02 dB -7.41 dB 3:39 03-Border Guards
DR6 0.00 dB -7.59 dB 2:30 04-Bow to the Middle
DR10 -0.04 dB -11.86 dB 3:28 05-Nice Fox
DR7 0.00 dB -9.51 dB 3:11 06-Another Way In
DR6 0.00 dB -7.03 dB 5:02 07-Concordia Military Club
DR7 0.00 dB -9.82 dB 2:14 08-Hello Darlin
DR7 -0.01 dB -8.73 dB 3:50 09-Black Hole
DR7 -0.04 dB -8.89 dB 3:51 10-In the Backyard
––––––––––––––––––––––––––––––––––––––––

Number of tracks: 10
Official DR value: DR6

Samplerate: 44100 Hz
Channels: 2
Bits per sample: 16
Bitrate: 957 kbps
Codec: FLAC
================================================================================


––––––––––––––––––––––––––––––––––––––––-


The Rosebuds - Albums Collection 2003-2011 (6CD)

The Rosebuds - Louds Planes Fly Low (2011)
EAC | FLAC | Tracks (Cue&Log) ~ 307 Mb | Mp3 (CBR320/Stereo) ~ 125 Mb
Label: Merge | # MRG384 | Time: 00:41:24 | Scans included

On their fifth album, the duo of Ivan Howard and Kelly Crisp find a kind of balance between sonic texture and thoughtful contemplation that makes for a rare achievement, especially given the unavoidable context of their broken marriage before its recording. The swathes of reverb throughout, not to mention the gently glazed keyboards and soft blends of harmony singing and individual crooning, is something that seems both backward-glancing and of its intentionally imperfect time. But Loud Planes Fly Low captures fragmented moments instead of formless dreams and random wishes: the melancholia that lingers throughout feels like one of experience rather than self-conscious ennui. "Go Ahead" starts the album beautifully on this front, the slow build into a cymbal-heavy conclusion achieving both drama and resolution on a musical front, all while Howard's voice singles out details from a fractured past with a calm, cutting intensity. With that as a strong starting point, the album flows through its ten songs touching on familiar enough touchstones; blissed-out dream pop gentility, early Slumberland-style indie pop, a kind of swooning catchiness that many bands from Scandinavia seem to easily make their own. The best summary of this all might be "A Story," a lengthy, driving number that hints tangentially at the Cure's majestic mood piece "A Forest" not only in title. There are other twists as well – "Without a Focus," with its rough acoustic introduction and Howard's quavering croon, suggests both T. Rex and David Garza in its gentle passion, while the sentiments on the closing "Worthwhile" look back on a past and hope for a future memory in considered, often surprisingly concrete fashion. The embrace of understated dance-rock on "Come Visit Me," Crisp's first lead vocal on the album, is one of many points that keep things from simply being contemplative. There's a sense of energy kicking up and out, a kind of frustration bursting out (suggested in part by that song's chorus containing lines like "I need something happy now").

Ned Raggett, Allmusic.com

Tracklist:

01. Go Ahead (04:20)
02. Limitless Arms (05:12)
03. Second Bird of Paradise (03:29)
04. Come Visit Me (04:32)
05. Without a Focus (04:06)
06. Waiting for You (03:13)
07. Woods (04:42)
08. A Story (05:04)
09. Cover Ears (03:49)
10. Worthwhile (02:52)


Exact Audio Copy V1.0 beta 3 from 29. August 2011

EAC extraction logfile from 5. September 2014, 1:19

The Rosebuds / Loud Planes Fly Low

Used drive : PIONEER DVD-RW DVR-118L Adapter: 2 ID: 0

Read mode : Secure
Utilize accurate stream : Yes
Defeat audio cache : Yes
Make use of C2 pointers : No

Read offset correction : 6
Overread into Lead-In and Lead-Out : No
Fill up missing offset samples with silence : Yes
Delete leading and trailing silent blocks : No
Null samples used in CRC calculations : Yes
Used interface : Native Win32 interface for Win NT & 2000
Gap handling : Appended to previous track

Used output format : User Defined Encoder
Selected bitrate : 1024 kBit/s
Quality : High
Add ID3 tag : No
Command line compressor : C:\Program Files (x86)\Exact Audio Copy\Flac\flac.exe
Additional command line options : -8 -V -T "ARTIST=%artist%" -T "TITLE=%title%" -T "ALBUM=%albumtitle%" -T "DATE=%year%" -T "TRACKNUMBER=%tracknr%" -T "GENRE=%genre%" -T "PERFORMER=%albuminterpret%" -T "COMPOSER=%composer%" %haslyrics%–tag-from-file=LYRICS="%lyricsfile%"%haslyrics% -T "ALBUMARTIST=%albumartist%" -T "DISCNUMBER=%cdnumber%" -T "TOTALDISCS=%totalcds%" -T "TOTALTRACKS=%numtracks%" -T "COMMENT=%comment%" %source% -o %dest%


TOC of the extracted CD

Track | Start | Length | Start sector | End sector
––––––––––––––––––––––––––––-
1 | 0:00.00 | 4:20.17 | 0 | 19516
2 | 4:20.17 | 5:12.51 | 19517 | 42967
3 | 9:32.68 | 3:29.38 | 42968 | 58680
4 | 13:02.31 | 4:32.41 | 58681 | 79121
5 | 17:34.72 | 4:06.00 | 79122 | 97571
6 | 21:40.72 | 3:13.53 | 97572 | 112099
7 | 24:54.50 | 4:42.51 | 112100 | 133300
8 | 29:37.26 | 5:04.74 | 133301 | 156174
9 | 34:42.25 | 3:49.39 | 156175 | 173388
10 | 38:31.64 | 2:52.13 | 173389 | 186301


Track 1

Filename D:\CDRip\01 - Go Ahead.wav

Pre-gap length 0:00:02.00

Peak level 98.9 %
Extraction speed 1.1 X
Track quality 100.0 %
Test CRC B70317B8
Copy CRC B70317B8
Accurately ripped (confidence 6) [67B017F2] (AR v2)
Copy OK

Track 2

Filename D:\CDRip\02 - Limitless Arms.wav

Pre-gap length 0:00:00.21

Peak level 100.0 %
Extraction speed 1.3 X
Track quality 100.0 %
Test CRC BC7BD382
Copy CRC BC7BD382
Accurately ripped (confidence 5) [D2B6A648] (AR v2)
Copy OK

Track 3

Filename D:\CDRip\03 - Second Bird of Paradise.wav

Pre-gap length 0:00:00.38

Peak level 98.9 %
Extraction speed 1.2 X
Track quality 99.9 %
Test CRC FD1435C8
Copy CRC FD1435C8
Accurately ripped (confidence 5) [679427BE] (AR v2)
Copy OK

Track 4

Filename D:\CDRip\04 - Come Visit Me.wav

Pre-gap length 0:00:01.54

Peak level 99.1 %
Extraction speed 1.3 X
Track quality 99.9 %
Test CRC B73B6930
Copy CRC B73B6930
Accurately ripped (confidence 5) [7F01FFFD] (AR v2)
Copy OK

Track 5

Filename D:\CDRip\05 - Without a Focus.wav

Pre-gap length 0:00:02.18

Peak level 99.8 %
Extraction speed 1.4 X
Track quality 99.9 %
Test CRC 42B77C85
Copy CRC 42B77C85
Accurately ripped (confidence 5) [9B4FACD3] (AR v2)
Copy OK

Track 6

Filename D:\CDRip\06 - Waiting for You.wav

Pre-gap length 0:00:06.58

Peak level 98.9 %
Extraction speed 1.6 X
Track quality 100.0 %
Test CRC 8103F469
Copy CRC 8103F469
Accurately ripped (confidence 5) [3F9FD16C] (AR v2)
Copy OK

Track 7

Filename D:\CDRip\07 - Woods.wav

Pre-gap length 0:00:02.37

Peak level 98.9 %
Extraction speed 1.8 X
Track quality 100.0 %
Test CRC DD51797D
Copy CRC DD51797D
Accurately ripped (confidence 5) [85937107] (AR v2)
Copy OK

Track 8

Filename D:\CDRip\08 - A Story.wav

Pre-gap length 0:00:03.04

Peak level 99.9 %
Extraction speed 1.9 X
Track quality 100.0 %
Test CRC D62E28FC
Copy CRC D62E28FC
Accurately ripped (confidence 5) [0176E0E1] (AR v2)
Copy OK

Track 9

Filename D:\CDRip\09 - Cover Ears.wav

Peak level 99.1 %
Extraction speed 1.9 X
Track quality 100.0 %
Test CRC 6C5621CF
Copy CRC 6C5621CF
Accurately ripped (confidence 5) [A4FEFED0] (AR v2)
Copy OK

Track 10

Filename D:\CDRip\10 - Worthwhile.wav

Pre-gap length 0:00:02.14

Peak level 98.8 %
Extraction speed 1.9 X
Track quality 100.0 %
Test CRC 3EE8DA34
Copy CRC 3EE8DA34
Accurately ripped (confidence 5) [FCFF73B7] (AR v2)
Copy OK


All tracks accurately ripped

No errors occurred

End of status report

–– CUETools DB Plugin V2.1.3

[CTDB TOCID: SJsOZT.QGmmDLFuwjhe0tLUClWE-] found, Submit result: SJsOZT.QGmmDLFuwjhe0tLUClWE- has been confirmed
[95b291a8] (8/8) Accurately ripped


==== Log checksum D519BC5641578FDEB32B4ED5D46CB1659B3CFD18B88A176076A534763B046971 ====

foobar2000 1.2 / Dynamic Range Meter 1.1.1
log date: 2014-09-12 02:44:26

––––––––––––––––––––––––––––––––––––––––
Analyzed: The Rosebuds / Loud Planes Fly Low
––––––––––––––––––––––––––––––––––––––––

DR Peak RMS Duration Track
––––––––––––––––––––––––––––––––––––––––
DR5 -0.10 dB -7.64 dB 4:20 01-Go Ahead
DR5 0.00 dB -7.04 dB 5:13 02-Limitless Arms
DR5 -0.10 dB -7.89 dB 3:30 03-Second Bird of Paradise
DR6 -0.08 dB -7.68 dB 4:33 04-Come Visit Me
DR7 -0.01 dB -9.42 dB 4:06 05-Without a Focus
DR5 -0.10 dB -7.13 dB 3:14 06-Waiting for You
DR5 -0.10 dB -7.64 dB 4:43 07-Woods
DR6 -0.01 dB -7.43 dB 5:05 08-A Story
DR5 -0.08 dB -8.15 dB 3:50 09-Cover Ears
DR8 -0.10 dB -10.61 dB 2:52 10-Worthwhile
––––––––––––––––––––––––––––––––––––––––

Number of tracks: 10
Official DR value: DR6

Samplerate: 44100 Hz
Channels: 2
Bits per sample: 16
Bitrate: 760 kbps
Codec: FLAC
================================================================================


––––––––––––––––––––––––––––––––––––––––-


All thanks to original releaser - Знак Качества

More interesting music in My Blog