The Tempest Trio - Dvorák: Piano Trios, Vol. 2: Nos. 1 & 2 (2017)

Posted By: SERTiL
The Tempest Trio - Dvorák: Piano Trios, Vol. 2: Nos. 1 & 2 (2017)

The Tempest Trio - Dvorák: Piano Trios, Vol. 2: Nos. 1 & 2
Classical | WEB FLAC (tracks) & d. booklet | 67:12 min | 265 MB
Label: Naxos | Tracks: 08 | Rls.date: 2017

Dvorak s four piano trios are some of the greatest examples of late 19th-century chamber music, and have remained repertoire favorites to this day. His Piano Trio No. 1 in B flat major incorporates melancholy, serenity and vivid excitement in equal measure, while the Piano Trio No. 2 in G minor though written at a time of personal tragedy for Dvorak, achieves a triumphant and emphatic conclusion. Fanfare said of the first volume of Trios, I would urge you with special pleading to acquire this release for what may well be the best Dvorak Dumky on disc ever. Combining technical mastery, expressive depth and performance experience, pianist Alon Goldstein, violinist Ilya Kaler and cellist Amit Peled have joined forces to form one of the most exciting trios on the international scene. Each virtuoso member of the ensemble has a successful solo career; together they bring vitality to the concert stage with their dynamic musical interplay and collaborative spirit. After only a few seasons as a trio the group has already been compared to the legendary Million Dollar Trio of Arthur Rubinstein, Gregor Piatigorsky and Jascha Heifetz. The Tempest Trio has performed in cities throughout the US, Europe, Israel, and Asia, and in recent years the ensemble presented the complete Schumann, Brahms and Dvorak Trio cycles at the renowned Seattle Chamber Music Festival and the Four Arts Society in Palm Beach as well as New York s Town Hall.

TRACKLIST
01. Piano Trio No. 1 in B-Flat Major, Op. 21, B. 51: I. Allegro molto
02. Piano Trio No. 1 in B-Flat Major, Op. 21, B. 51: II. Adagio molto e mesto
03. Piano Trio No. 1 in B-Flat Major, Op. 21, B. 51: III. Allegretto scherzando
04. Piano Trio No. 1 in B-Flat Major, Op. 21, B. 51: IV. Finale. Allegro vivace
05. Piano Trio No. 2 in G Minor, Op. 26, B. 56: I. Allegro moderato
06. Piano Trio No. 2 in G Minor, Op. 26, B. 56: II. Largo
07. Piano Trio No. 2 in G Minor, Op. 26, B. 56: III. Scherzo. Presto
08. Piano Trio No. 2 in G Minor, Op. 26, B. 56: IV. Finale. Allegro non tanto

PERFORMER: auCDtect Task Manager, ver. 1.6.0 RC1 build 1.6.0.1
Copyright © 2008-2010 y-soft. All rights reserved

ANALYZER: auCDtect: CD records authenticity detector, version 0.8.2
Copyright © 2004 Oleg Berngardt. All rights reserved.
Copyright © 2004 Alexander Djourik. All rights reserved.


FILE: 08. Piano Trio No. 2 in G Minor, Op. 26, B. 56 IV. Finale. Allegro non tanto.flac
Size: 26465401 Hash: CC184C5181511D182C1AC5C9A56CEAB1 Accuracy: -m0
Conclusion: CDDA 100%
Signature: 76BAA382EDFBFE97A78D874D302537592531610F
FILE: 07. Piano Trio No. 2 in G Minor, Op. 26, B. 56 III. Scherzo. Presto.flac
Size: 25201827 Hash: 9125FD24A80FB5A204AEE183BBB20AE8 Accuracy: -m0
Conclusion: CDDA 100%
Signature: D7C56EA971D34FA23A99B36CA61A18E179812CB9
FILE: 06. Piano Trio No. 2 in G Minor, Op. 26, B. 56 II. Largo.flac
Size: 28750710 Hash: 8E6A402A2B0FAD24C66D4E989316A11F Accuracy: -m0
Conclusion: CDDA 100%
Signature: C294F368F90D1C7428ED036C5ADAA69D1852E814
FILE: 05. Piano Trio No. 2 in G Minor, Op. 26, B. 56 I. Allegro moderato.flac
Size: 51416777 Hash: 6AF57C4707A6461D9F0E2BAAF3A45AD3 Accuracy: -m0
Conclusion: CDDA 100%
Signature: 2DE3F5EACDF3C74BA586A494D08041AE0A9E283F
FILE: 04. Piano Trio No. 1 in B-Flat Major, Op. 21, B. 51 IV. Finale. Allegro vivace.flac
Size: 27632148 Hash: D5CB7402DE3872F7C7E5E7A554FB2EFA Accuracy: -m0
Conclusion: CDDA 100%
Signature: B7A2938C4CF889750D80A206FB21C931F96E8DEF
FILE: 03. Piano Trio No. 1 in B-Flat Major, Op. 21, B. 51 III. Allegretto scherzando.flac
Size: 29883910 Hash: 0A782F561DCA9FF62449118E83DCAFBA Accuracy: -m0
Conclusion: CDDA 100%
Signature: BED7B8F364ABFB404DEE3A2E613E43CAA1969DE1
FILE: 02. Piano Trio No. 1 in B-Flat Major, Op. 21, B. 51 II. Adagio molto e mesto.flac
Size: 33592624 Hash: 3C90F0F821DEADB9ED6660A6E306787F Accuracy: -m0
Conclusion: CDDA 100%
Signature: 6662376A4107C0800ED0CF0D7386022CEC5412C8
FILE: 01. Piano Trio No. 1 in B-Flat Major, Op. 21, B. 51 I. Allegro molto.flac
Size: 54663158 Hash: C7282D7A3852CAD88F6D71038DEE8D96 Accuracy: -m0
Conclusion: CDDA 100%
Signature: 4F4BBF5CE6F8C17C19F3D82AFD0618E22CD92D5C

foobar2000 1.3.7 / Dynamic Range Meter 1.1.1
log date: 2017-09-12 18:59:14

––––––––––––––––––––––––––––––––––––––––
Analyzed: Alon Goldstein, Ilya Kaler, Amit Peled / Dvořák: Piano Trios, Vol. 2 – Nos. 1 & 2
––––––––––––––––––––––––––––––––––––––––

DR Peak RMS Duration Track
––––––––––––––––––––––––––––––––––––––––
DR14 -1.20 dB -20.70 dB 12:31 01-Piano Trio No. 1 in B-Flat Major, Op. 21, B. 51: I. Allegro molto
DR15 -5.07 dB -25.71 dB 8:57 02-Piano Trio No. 1 in B-Flat Major, Op. 21, B. 51: II. Adagio molto e mesto
DR14 -3.13 dB -23.47 dB 7:17 03-Piano Trio No. 1 in B-Flat Major, Op. 21, B. 51: III. Allegretto scherzando
DR14 -1.82 dB -20.19 dB 6:22 04-Piano Trio No. 1 in B-Flat Major, Op. 21, B. 51: IV. Finale. Allegro vivace
DR15 -1.53 dB -21.69 dB 12:11 05-Piano Trio No. 2 in G Minor, Op. 26, B. 56: I. Allegro moderato
DR14 -8.13 dB -27.18 dB 7:32 06-Piano Trio No. 2 in G Minor, Op. 26, B. 56: II. Largo
DR13 -2.31 dB -21.39 dB 6:04 07-Piano Trio No. 2 in G Minor, Op. 26, B. 56: III. Scherzo. Presto
DR14 -0.85 dB -21.69 dB 6:21 08-Piano Trio No. 2 in G Minor, Op. 26, B. 56: IV. Finale. Allegro non tanto
––––––––––––––––––––––––––––––––––––––––

Number of tracks: 8
Official DR value: DR14

Samplerate: 44100 Hz
Channels: 2
Bits per sample: 16
Bitrate: 551 kbps
Codec: FLAC
================================================================================


The Tempest Trio - Dvorák: Piano Trios, Vol. 2: Nos. 1 & 2 (2017)


Thanks to the Original customer.