Subcategories

The Underdogs - Dog Tales (2001)

Posted By: countryfreak
The Underdogs - Dog Tales (2001)

The Underdogs - Dog Tales (2001)
EAC Rip | FLAC (Image) + CUE + LOG | Covers | 317 MB
Genre: Pop/Rock/Blues-Rock | Label: Howlin' Muse | Release Date: May 1, 2001 | Catalog Number: HMR5723
Hoster: Uploaded + DepositFiles | RAR 5% Rec.

Since the release of Unleashed, the underdogs have been fortunate enough to have garnered broadcast radio airplay and rave reviews from around the world. Unleashed, was named one of the Top 25 blues CDs of 1999 in Queensland, Australia. During the summer of 2001, Dog Tales, the band's second record, broke into the Top 100 on the national Americana radio charts.
In addition, the underdogs' music has been licensed by ESPN for use during coverage of Nascar from Daytona, featured prominently in actor/playwright Thom Gossom's one-man-play, Speak of Me as I Am and most recently heard in the soundtrack for the movie Quest for the Holy Ale.
The dogs have shared the stage with many great artists including Ritchie Havens, R.L. Burnsides, North Mississippi Allstars, Koko Taylor, Gove Scrivenor, Little Queenie, Johnny Sketch & the Dirty Notes, Annie Clements, The Woodys and Spencer Bohren to name just a few of our favorites from Nashville to New Orleans, Key West to Madrid, Spain & beyond.


––––––––-
Tracklist
––––––––-
1. To The Top 2:52
2. What A Lady 3:23
3. I Don't Wanna Go 3:39
4. Mouth Minus Brain 3:17
5. Long Summer Days 3:30
6. I feel Funky 4:42
7. Ain't No Doubt 3:33
8. Climb The Stars 2:24
9. Drivin 4:19
10. Conundrum Bossa Nova aka UD1 4:33
11. Then She Got To Know Me 5:33
12. Bad Man 4:45

Personnel:
Greg Sander - Drums
Jim Fuller - Guitar
Bill Garrett - Guitar (Acoustic),Bass,Vocals,Percussion,Vocals (Background)
Shannon Wallace - Guitar,Vocals (Background)
Jab Wilson - Harmonica,Finger Snaps,Handclapping
Diki Ross - Keyboards

The Underdogs - Dog Tales (2001)


Exact Audio Copy V1.0 beta 3 from 29. August 2011

EAC extraction logfile from 25. June 2013, 7:43

The Underdogs / Dog Tales

Used drive : HL-DT-STDVDRAM GT30N Adapter: 0 ID: 0

Read mode : Secure
Utilize accurate stream : Yes
Defeat audio cache : Yes
Make use of C2 pointers : No

Read offset correction : 103
Overread into Lead-In and Lead-Out : No
Fill up missing offset samples with silence : Yes
Delete leading and trailing silent blocks : No
Null samples used in CRC calculations : Yes
Used interface : Native Win32 interface for Win NT & 2000

Used output format : User Defined Encoder
Selected bitrate : 1024 kBit/s
Quality : High
Add ID3 tag : No
Command line compressor : C:\Program Files (x86)\Exact Audio Copy\FLAC\FLAC.EXE
Additional command line options : -6 -V -T "ARTIST=%artist%" -T "TITLE=%title%" -T "ALBUM=%albumtitle%" -T "DATE=%year%" -T "TRACKNUMBER=%tracknr%" -T "GENRE=%genre%" -T "COMMENT=%comment%" -T "BAND=%albuminterpret%" -T "ALBUMARTIST=%albuminterpret%" -T "COMPOSER=%composer%" %haslyrics%–tag-from-file=LYRICS="%lyricsfile%"%haslyrics% -T "DISCNUMBER=%cdnumber%" -T "TOTALDISCS=%totalcds%" -T "TOTALTRACKS=%numtracks%" %hascover%–picture="%coverfile%"%hascover% %source% -o %dest%


TOC of the extracted CD

Track | Start | Length | Start sector | End sector
––––––––––––––––––––––––––––-
1 | 0:00.00 | 2:52.58 | 0 | 12957
2 | 2:52.58 | 3:23.68 | 12958 | 28250
3 | 6:16.51 | 3:39.52 | 28251 | 44727
4 | 9:56.28 | 3:17.23 | 44728 | 59525
5 | 13:13.51 | 3:30.23 | 59526 | 75298
6 | 16:43.74 | 4:42.68 | 75299 | 96516
7 | 21:26.67 | 3:33.39 | 96517 | 112530
8 | 25:00.31 | 2:24.03 | 112531 | 123333
9 | 27:24.34 | 4:19.18 | 123334 | 142776
10 | 31:43.52 | 4:33.69 | 142777 | 163320
11 | 36:17.46 | 5:33.15 | 163321 | 188310
12 | 41:50.61 | 4:44.48 | 188311 | 209658


Range status and errors

Selected range

Filename D:\MUSIK\The Underdogs - Dog Tales [FLAC] (2001)\The Underdogs - Dog Tales.wav

Peak level 100.0 %
Extraction speed 4.4 X
Range quality 99.9 %
Copy CRC 6D511BE7
Copy OK

No errors occurred


AccurateRip summary

Track 1 not present in database
Track 2 not present in database
Track 3 not present in database
Track 4 not present in database
Track 5 not present in database
Track 6 not present in database
Track 7 not present in database
Track 8 not present in database
Track 9 not present in database
Track 10 not present in database
Track 11 not present in database
Track 12 not present in database

None of the tracks are present in the AccurateRip database

End of status report

==== Log checksum BFFA47F7D461A702CF4810774179E34CA958CD0AF94654864425DEC075D260E4 ====


foobar2000 1.2.8 / Dynamic Range Meter 1.1.1
log date: 2013-06-25 07:43:57

––––––––––––––––––––––––––––––––––––––––
Analyzed: The Underdogs / Dog Tales
––––––––––––––––––––––––––––––––––––––––

DR Peak RMS Duration Track
––––––––––––––––––––––––––––––––––––––––
DR8 0.00 dB -10.32 dB 2:53 01-To The Top
DR8 0.00 dB -10.19 dB 3:24 02-What A Lady
DR8 0.00 dB -10.15 dB 3:40 03-I Don't Wanna Go
DR10 0.00 dB -11.62 dB 3:17 04-Mouth Minus Brain
DR9 0.00 dB -11.43 dB 3:30 05-Long Summer Days
DR7 0.00 dB -9.40 dB 4:43 06-I feel Funky
DR8 0.00 dB -9.68 dB 3:34 07-Ain't No Doubt
DR8 0.00 dB -9.87 dB 2:24 08-Climb The Stars
DR7 0.00 dB -8.78 dB 4:19 09-Drivin
DR7 0.00 dB -9.16 dB 4:34 10-Conundrum Bossa Nova aka UD1
DR8 0.00 dB -9.54 dB 5:33 11-Then She Got To Know Me
DR6 0.00 dB -8.51 dB 4:45 12-Bad Man
––––––––––––––––––––––––––––––––––––––––

Number of tracks: 12
Official DR value: DR8

Samplerate: 44100 Hz
Channels: 2
Bits per sample: 16
Bitrate: 889 kbps
Codec: FLAC
================================================================================


BIO: Steve Surber aka Steven James (guitar & vocals) has been playing the guitar and singing his whole life. Steve is known for his phat guitar tones, powerful vocal abilities and easy going disposition.Sol Morgan (bass & vocals) is the newest dog in the lineup. He has been a professional musician his entire adult life. Sol brings a distinctive snap & melodic bottom as well as strong vocal abilities to the group.Steve Ferry (drums & percussion) adds his special rhythmic spice to the mix. Formerly with the Jim White Band, Steve has wowed audiences around the world with his always in the pocket, unique musical approach to playing drums.JAB Wilson (harmonica & vocals) gentleman harmonica player and founding member of the underdogs, has been touring and recording since the late 60’s. He's worked with The Magic Duck Band, the Kate Taylor Band (James’ sister), Tim Buckley, J.D. Souther, Kathy Dalton & Rocket 88, Chuck Watkins & the Midwest Playboys and for the last 20 plus years with international bluesicologist and story-teller, Spencer Bohren.



In case you encounter dead links in any of my posts, please send me a private message !!!!

NO mirrors and/or direct links in your comments, please !!!!

****Visit My Blog****
Uploaded

DepositFiles

***** Pass: countryfreak *****