Subcategories

The Who - My Generation Box (SHM-CD, Limited Edition)

Posted By: uff
The Who - My Generation Box (SHM-CD, Limited Edition)

The Who - My Generation Box (SHM-CD, Limited Edition)
Rock | 2cd | EAC Rip | Flac + Cue + Log | covers
Universal, UICY-93533~4 | rem: 2008 | 910Mb

An explosive debut, and the hardest mod pop recorded by anyone. At the time of its release, it also had the most ferociously powerful guitars and drums yet captured on a rock record. Pete Townshend's exhilarating chord crunches and guitar distortions threaten to leap off the grooves on "My Generation" and "Out in the Street"; Keith Moon attacks the drums with a lightning, ruthless finesse throughout. Some "Maximum R&B" influence lingered in the two James Brown covers, but much of Townshend's original material fused Beatlesque hooks and power chords with anthemic mod lyrics, with "The Good's Gone," "Much Too Much," "La La La Lies," and especially "The Kids Are Alright" being highlights. "A Legal Matter" hinted at more ambitious lyrical concerns, and "The Ox" was instrumental mayhem that pushed the envelope of 1965 amplification with its guitar feedback and nonstop crashing drum rolls. While the execution was sometimes crude, and the songwriting not as sophisticated as it would shortly become, the Who never surpassed the pure energy level of this record. ~Allmusic

Track listing
cd1:
01. Out In The Street (2:30)
02. I Don't Mind (2:34)
03. The Good's Gone (4:00)
04. La-La-La Lies (2:14)
05. Much Too Much (2:45)
06. My Generation (3:17)
07. The Kids Are Alright (3:03)
08. Please, Please, Please (2:43)
09. It's Not True (2:29)
10. I'm A Man (3:19)
11. A Legal Matter (2:47)
12. The Ox (3:49)
13. I Can't Explain (2:04)
14. Bald Headed Woman (2:08)
15. Anyway, Anyhow, Anywhere (2:39)
16. Daddy Rolling Stone (2:46)
17. Anytime You Want Me (2:35)
18. Shout And Shimmy (3:16)
19. Circles (3:11)
20. Leaving Here (2:46)
21. Lubie (Come Back Home) (3:34)
22. (Love Is Like A) Heat Wave (2:39)
23. Motoring (2:45)
24. Circles [alternate mix] (3:12)
cd2:
01. Out In The Street (2:32)
02. I Don't Mind (full length version) (3:42)
03. The Good's Gone (full length version) (4:28)
04. La-La-La Lies (2:17)
05. Much Too Much (2:45)
06. My Generation (3:21)
07. The Kids Are Alright (3:10)
08. Please, Please, Please (2:46)
09. It's Not True (2:33)
10. I'm A Man (3:21)
11. A Legal Matter (2:54)
12. The Ox (3:57)
13. I Can't Explain (2:03)
14. Bald Headed Woman (2:30)
15. Anyway Anyhow Anywhere (alternate version) (2:42)
16. Daddy Rolling Stone (2:54)
17. Anytime You Want Me (2:37)
18. Shout And Shimmy (3:19)
19. Circles (3:11)
20. Instant Party Mixture (3:23)
21. Leaving Here (alternate version) (2:49)
22. Lubie (Come Back Home) (3:39)
23. (Love Is Like A) Heat Wave (2:40)
24. Motoring (2:49)

Personnel
- Roger Daltrey – lead vocals, harmonica
- John Entwistle – bass guitar, backing vocals
- Keith Moon – drums, percussion, backing vocals on "Instant Party Mixture"
- Pete Townshend – six and twelve-string acoustic and electric guitars, backing vocals, lead vocals


Exact Audio Copy V0.99 prebeta 4 from 23. January 2008

Отчёт EAC об извлечении, выполненном 28. июля 2009, 23:12

The Who / My Generation

Дисковод: Optiarc DVD RW AD-7203S Adapter: 0 ID: 1

Режим чтения : Достоверность
Использование точного потока : Да
Отключение кэша аудио : Да
Использование указателей C2 : Нет

Коррекция смещения при чтении : 48
Способность читать области Lead-in и Lead-out : Нет
Заполнение пропущенных сэмплов тишиной : Да
Удаление блоков с тишиной в начале и конце : Нет
При вычислениях CRC использовались нулевые сэмплы : Да
Интерфейс : Установленный внешний ASPI-интерфейс

Выходной формат : Внутренние WAV-операции
Формат сэмплов : 44.100 Гц; 16 бит; стерео
Смещение при сжатии : 48


TOC извлечённого CD

Трек | Старт | Длительность | Начальный сектор | Конечный сектор
––––––––––––––––––––––––––––––––––-
1 | 0:00.00 | 2:33.47 | 0 | 11521
2 | 2:33.47 | 2:37.46 | 11522 | 23342
3 | 5:11.18 | 4:02.57 | 23343 | 41549
4 | 9:14.00 | 2:16.71 | 41550 | 51820
5 | 11:30.71 | 2:47.46 | 51821 | 64391
6 | 14:18.42 | 3:20.26 | 64392 | 79417
7 | 17:38.68 | 3:07.09 | 79418 | 93451
8 | 20:46.02 | 2:46.72 | 93452 | 105973
9 | 23:32.74 | 2:33.42 | 105974 | 117490
10 | 26:06.41 | 3:23.47 | 117491 | 132762
11 | 29:30.13 | 2:50.01 | 132763 | 145513
12 | 32:20.14 | 3:53.08 | 145514 | 162996
13 | 36:13.22 | 2:07.15 | 162997 | 172536
14 | 38:20.37 | 2:11.51 | 172537 | 182412
15 | 40:32.13 | 2:43.22 | 182413 | 194659
16 | 43:15.35 | 2:49.34 | 194660 | 207368
17 | 46:04.69 | 2:37.11 | 207369 | 219154
18 | 48:42.05 | 3:19.09 | 219155 | 234088
19 | 52:01.14 | 3:14.31 | 234089 | 248669
20 | 55:15.45 | 2:48.49 | 248670 | 261318
21 | 58:04.19 | 3:36.55 | 261319 | 277573
22 | 61:40.74 | 2:41.27 | 277574 | 289675
23 | 64:22.26 | 2:49.19 | 289676 | 302369
24 | 67:11.45 | 3:12.43 | 302370 | 316812


Характеристики диапазона извлечения и сообщения об ошибках

Выбранный диапазон

Имя файла D:\TORRENTS\Who - My Generation Japan Box\The Who - My Generation.wav

Пиковый уровень 99.9 %
Качество диапазона 99.9 %
CRC копии E81605AE
Копирование… OK

Ошибок не произошло


AccurateRip: сводка

Трек 1 точное извлечение (доверие 1) [901840F6]
Трек 2 точное извлечение (доверие 1) [61793901]
Трек 3 точное извлечение (доверие 1) [7BE56625]
Трек 4 точное извлечение (доверие 1) [2375F05F]
Трек 5 точное извлечение (доверие 1) [78BC49B3]
Трек 6 точное извлечение (доверие 1) [5302C778]
Трек 7 точное извлечение (доверие 1) [B3B77E79]
Трек 8 точное извлечение (доверие 1) [A06C9131]
Трек 9 точное извлечение (доверие 1) [A6CDB0BC]
Трек 10 точное извлечение (доверие 1) [4C50B4D8]
Трек 11 точное извлечение (доверие 1) [86CF2A7F]
Трек 12 точное извлечение (доверие 1) [E5229696]
Трек 13 точное извлечение (доверие 1) [FECAE14A]
Трек 14 точное извлечение (доверие 1) [44B7F2BA]
Трек 15 точное извлечение (доверие 1) [4599D906]
Трек 16 точное извлечение (доверие 1) [EE114617]
Трек 17 точное извлечение (доверие 1) [94102F22]
Трек 18 точное извлечение (доверие 1) [E182F401]
Трек 19 точное извлечение (доверие 1) [82626024]
Трек 20 точное извлечение (доверие 1) [9873CC67]
Трек 21 точное извлечение (доверие 1) [0A546AAA]
Трек 22 точное извлечение (доверие 1) [F378E56E]
Трек 23 точное извлечение (доверие 1) [7C036468]
Трек 24 точное извлечение (доверие 1) [BE777D5C]

Все треки извлечены точно

Конец отчёта

–-

Exact Audio Copy V0.99 prebeta 4 from 23. January 2008

Отчёт EAC об извлечении, выполненном 28. июля 2009, 22:56

Who / My Generation Box - CD2 - Stereo (JP CD UICY-93534)

Дисковод: Optiarc DVD RW AD-7203S Adapter: 0 ID: 1

Режим чтения : Достоверность
Использование точного потока : Да
Отключение кэша аудио : Да
Использование указателей C2 : Нет

Коррекция смещения при чтении : 48
Способность читать области Lead-in и Lead-out : Нет
Заполнение пропущенных сэмплов тишиной : Да
Удаление блоков с тишиной в начале и конце : Нет
При вычислениях CRC использовались нулевые сэмплы : Да
Интерфейс : Установленный внешний ASPI-интерфейс

Выходной формат : Внутренние WAV-операции
Формат сэмплов : 44.100 Гц; 16 бит; стерео
Смещение при сжатии : 48


TOC извлечённого CD

Трек | Старт | Длительность | Начальный сектор | Конечный сектор
––––––––––––––––––––––––––––––––––-
1 | 0:00.00 | 2:34.43 | 0 | 11592
2 | 2:34.43 | 3:44.39 | 11593 | 28431
3 | 6:19.07 | 4:30.45 | 28432 | 48726
4 | 10:49.52 | 2:18.53 | 48727 | 59129
5 | 13:08.30 | 2:45.28 | 59130 | 71532
6 | 15:53.58 | 3:21.60 | 71533 | 86667
7 | 19:15.43 | 3:10.28 | 86668 | 100945
8 | 22:25.71 | 2:46.54 | 100946 | 113449
9 | 25:12.50 | 2:34.13 | 113450 | 125012
10 | 27:46.63 | 3:23.27 | 125013 | 140264
11 | 31:10.15 | 2:54.40 | 140265 | 153354
12 | 34:04.55 | 3:58.46 | 153355 | 171250
13 | 38:03.26 | 2:04.62 | 171251 | 180612
14 | 40:08.13 | 2:32.50 | 180613 | 192062
15 | 42:40.63 | 2:43.62 | 192063 | 204349
16 | 45:24.50 | 2:56.39 | 204350 | 217588
17 | 48:21.14 | 2:38.58 | 217589 | 229496
18 | 50:59.72 | 3:20.69 | 229497 | 244565
19 | 54:20.66 | 3:13.47 | 244566 | 259087
20 | 57:34.38 | 3:24.41 | 259088 | 274428
21 | 60:59.04 | 2:51.26 | 274429 | 287279
22 | 63:50.30 | 3:40.23 | 287280 | 303802
23 | 67:30.53 | 2:41.26 | 303803 | 315903
24 | 70:12.04 | 2:49.70 | 315904 | 328648


Характеристики диапазона извлечения и сообщения об ошибках

Выбранный диапазон

Имя файла D:\TORRENTS\Who - My Generation Japan Box\Who - My Generation Box - CD2 - Stereo (JP CD UICY-93534).wav

Пиковый уровень 99.9 %
Качество диапазона 100.0 %
CRC копии F06FF89A
Копирование… OK

Ошибок не произошло


AccurateRip: сводка

Трек 1 точное извлечение (доверие 1) [AB9D8461]
Трек 2 точное извлечение (доверие 1) [2F953443]
Трек 3 точное извлечение (доверие 1) [C372DD39]
Трек 4 точное извлечение (доверие 1) [E5136D64]
Трек 5 точное извлечение (доверие 1) [94B1257E]
Трек 6 точное извлечение (доверие 1) [97D2779E]
Трек 7 точное извлечение (доверие 1) [6C92313C]
Трек 8 точное извлечение (доверие 1) [EE61A3BB]
Трек 9 точное извлечение (доверие 1) [63C4B7E4]
Трек 10 точное извлечение (доверие 1) [48DC7629]
Трек 11 точное извлечение (доверие 1) [442FD9F4]
Трек 12 точное извлечение (доверие 1) [218E3F96]
Трек 13 точное извлечение (доверие 1) [84F04BB6]
Трек 14 точное извлечение (доверие 1) [392D3728]
Трек 15 точное извлечение (доверие 1) [3143B83A]
Трек 16 точное извлечение (доверие 1) [4CA36D54]
Трек 17 точное извлечение (доверие 1) [7CC1B94A]
Трек 18 точное извлечение (доверие 1) [CB48D34B]
Трек 19 точное извлечение (доверие 1) [966D13B8]
Трек 20 точное извлечение (доверие 1) [AF3FF97C]
Трек 21 точное извлечение (доверие 1) [CB008431]
Трек 22 точное извлечение (доверие 1) [59B41DB5]
Трек 23 точное извлечение (доверие 1) [15389373]
Трек 24 точное извлечение (доверие 1) [3D9470DC]

Все треки извлечены точно

Конец отчёта



[CUETools log; Date: 2016. 07. 11. 11:33:19; Version: 2.1.6]
[CTDB TOCID: Hl.mFbhb05Rf6hXPxDltdDff0jo-] found.
Track | CTDB Status
1 | (14/19) Accurately ripped
2 | (14/19) Accurately ripped
3 | (13/19) Accurately ripped
4 | (13/19) Accurately ripped
5 | (13/19) Accurately ripped
6 | (13/19) Accurately ripped
7 | (14/19) Accurately ripped
8 | (14/19) Accurately ripped
9 | (13/19) Accurately ripped
10 | (13/19) Accurately ripped
11 | (13/19) Accurately ripped
12 | (13/19) Accurately ripped
13 | (14/19) Accurately ripped
14 | (14/19) Accurately ripped
15 | (13/19) Accurately ripped
16 | (13/19) Accurately ripped
17 | (13/19) Accurately ripped
18 | (13/19) Accurately ripped
19 | (13/19) Accurately ripped
20 | (12/19) Accurately ripped
21 | (13/19) Accurately ripped
22 | (13/19) Accurately ripped
23 | (13/19) Accurately ripped
24 | (13/19) Accurately ripped
[AccurateRip ID: 003c1272-0411791a-50108018] found.
Track [ CRC | V2 ] Status
01 [901840f6|7093d67f] (17+10/33) Accurately ripped
02 [61793901|c9d01018] (16+10/32) Accurately ripped
03 [7be56625|daacf0b1] (17+10/33) Accurately ripped
04 [2375f05f|ba155b45] (17+10/33) Accurately ripped
05 [78bc49b3|d4c26d68] (17+10/33) Accurately ripped
06 [5302c778|ad1d57f1] (17+10/33) Accurately ripped
07 [b3b77e79|5197900b] (17+10/33) Accurately ripped
08 [a06c9131|2abc4b8d] (16+10/32) Accurately ripped
09 [a6cdb0bc|7fe36d0c] (16+10/32) Accurately ripped
10 [4c50b4d8|3e0d02e1] (16+10/32) Accurately ripped
11 [86cf2a7f|30ab11f0] (17+10/33) Accurately ripped
12 [e5229696|8682e386] (17+10/33) Accurately ripped
13 [fecae14a|07a7549b] (17+10/33) Accurately ripped
14 [44b7f2ba|ab9d5c72] (17+10/33) Accurately ripped
15 [4599d906|6e7c8f11] (18+10/34) Accurately ripped
16 [ee114617|dd36e53e] (18+10/34) Accurately ripped
17 [94102f22|1b1f5aad] (17+10/33) Accurately ripped
18 [e182f401|c4dabb30] (17+10/33) Accurately ripped
19 [82626024|05d6438b] (17+10/33) Accurately ripped
20 [9873cc67|48858f77] (16+10/32) Accurately ripped
21 [0a546aaa|74a61f80] (16+10/32) Accurately ripped
22 [f378e56e|d5f76b25] (16+10/32) Accurately ripped
23 [7c036468|b4ddcc61] (16+10/32) Accurately ripped
24 [be777d5c|a9a937ce] (16+09/31) Accurately ripped
Offsetted by 6:
01 [dd07ab10] (00/33) No match (V2 was not tested)
02 [591634cd] (00/32) No match (V2 was not tested)
03 [a098409f] (00/33) No match (V2 was not tested)
04 [a1a96357] (00/33) No match (V2 was not tested)
05 [0cd823a5] (00/33) No match (V2 was not tested)
06 [d52e2616] (00/33) No match (V2 was not tested)
07 [8f0a4631] (00/33) No match (V2 was not tested)
08 [99319cb5] (00/32) No match (V2 was not tested)
09 [03511d82] (00/32) No match (V2 was not tested)
10 [486461ea] (00/32) No match (V2 was not tested)
11 [d71bdae5] (00/33) No match (V2 was not tested)
12 [b12e20bc] (00/33) No match (V2 was not tested)
13 [5c28e09a] (00/33) No match (V2 was not tested)
14 [17336684] (00/33) No match (V2 was not tested)
15 [e46fbc58] (00/34) No match (V2 was not tested)
16 [4566429b] (00/34) No match (V2 was not tested)
17 [41f8e9b4] (00/33) No match (V2 was not tested)
18 [dcef8209] (00/33) No match (V2 was not tested)
19 [e4339096] (00/33) No match (V2 was not tested)
20 [a85bb4fd] (00/32) No match (V2 was not tested)
21 [863c7332] (00/32) No match (V2 was not tested)
22 [aee024a6] (00/32) No match (V2 was not tested)
23 [b5b700b0] (00/32) No match (V2 was not tested)
24 [3b009c90] (00/31) No match (V2 was not tested)

Track Peak [ CRC32 ] [W/O NULL]
– 99,9 [E81605AE] [FAEB4485]
01 99,8 [1CD3B4BF] [E189FCB5]
02 98,4 [8F748342] [6784D85D]
03 98,9 [7C98161C] [B2E1704D]
04 98,9 [58EF8AFE] [5A40D754]
05 99,8 [98244965] [AA7DC063]
06 99,2 [AF60E5EE] [E4C10B03]
07 98,4 [F669D8B2] [AEB3DC00]
08 98,4 [53E1DA34] [2AF4C3B7]
09 99,9 [CCEE6588] [229670E6]
10 98,4 [0B67576C] [7D4B783E]
11 98,4 [934C8C1F] [01C3DDEB]
12 98,4 [B75B91C9] [350B5C5F]
13 99,0 [22275C1B] [B9EF4E86]
14 98,5 [BC4FBEC0] [52E67F06]
15 98,3 [FC8E9505] [40B3329F]
16 98,5 [C3E3EBB5] [B472CA22]
17 98,4 [C53F7CF6] [381223D1]
18 99,1 [4756E61A] [50AD2438]
19 98,3 [A2FAAD45] [228ACAC0]
20 99,9 [910741DA] [232772B1]
21 99,9 [ED2C4425] [929BF24B]
22 98,8 [9BBDDB7C] [FC514FE9]
23 99,9 [502C216F] [89A6C80F]
24 98,4 [425788D5] [1D267E5A]

–-
[CUETools log; Date: 2016. 07. 11. 11:33:40; Version: 2.1.6]
[CTDB TOCID: 5z52FMJ1hRJ_V9CQpHoLmJ6T9gU-] found.
Track | CTDB Status
1 | (3/3) Accurately ripped
2 | (3/3) Accurately ripped
3 | (3/3) Accurately ripped
4 | (3/3) Accurately ripped
5 | (3/3) Accurately ripped
6 | (3/3) Accurately ripped
7 | (3/3) Accurately ripped
8 | (3/3) Accurately ripped
9 | (3/3) Accurately ripped
10 | (3/3) Accurately ripped
11 | (3/3) Accurately ripped
12 | (3/3) Accurately ripped
13 | (3/3) Accurately ripped
14 | (3/3) Accurately ripped
15 | (3/3) Accurately ripped
16 | (3/3) Accurately ripped
17 | (3/3) Accurately ripped
18 | (3/3) Accurately ripped
19 | (3/3) Accurately ripped
20 | (3/3) Accurately ripped
21 | (3/3) Accurately ripped
22 | (3/3) Accurately ripped
23 | (3/3) Accurately ripped
24 | (3/3) Accurately ripped
[AccurateRip ID: 003f4be2-0443732c-4a111d18] found.
Track [ CRC | V2 ] Status
01 [ab9d8461|ae1bdebf] (07+03/12) Accurately ripped
02 [2f953443|924149a7] (07+03/12) Accurately ripped
03 [c372dd39|dc65aa48] (07+03/12) Accurately ripped
04 [e5136d64|0fffcba5] (07+03/12) Accurately ripped
05 [94b1257e|649265ae] (07+03/12) Accurately ripped
06 [97d2779e|7971fc45] (07+03/12) Accurately ripped
07 [6c92313c|137050ba] (07+03/12) Accurately ripped
08 [ee61a3bb|a4b8eb78] (07+03/12) Accurately ripped
09 [63c4b7e4|697c0167] (07+03/12) Accurately ripped
10 [48dc7629|15c912a0] (07+03/12) Accurately ripped
11 [442fd9f4|54f7adaa] (07+03/12) Accurately ripped
12 [218e3f96|a3f62087] (07+03/12) Accurately ripped
13 [84f04bb6|d315b79e] (07+03/12) Accurately ripped
14 [392d3728|7c4eca54] (07+04/13) Accurately ripped
15 [3143b83a|e1419d0d] (07+04/13) Accurately ripped
16 [4ca36d54|06cfd595] (07+04/13) Accurately ripped
17 [7cc1b94a|a51c6ccc] (07+04/13) Accurately ripped
18 [cb48d34b|ae88af03] (07+04/13) Accurately ripped
19 [966d13b8|4886c1de] (07+03/12) Accurately ripped
20 [af3ff97c|b27f7866] (07+04/13) Accurately ripped
21 [cb008431|859bb947] (07+04/13) Accurately ripped
22 [59b41db5|40672577] (07+04/13) Accurately ripped
23 [15389373|3799beda] (07+04/13) Accurately ripped
24 [3d9470dc|f03af766] (07+04/13) Accurately ripped
Offsetted by -18:
01 [fb6a7ffd] (02/12) Accurately ripped
02 [c4d57713] (02/12) Accurately ripped
03 [d6b4baf3] (02/12) Accurately ripped
04 [83e74e44] (02/12) Accurately ripped
05 [d03689aa] (02/12) Accurately ripped
06 [ce1e3d66] (02/12) Accurately ripped
07 [1eab84ce] (02/12) Accurately ripped
08 [01d12f43] (02/12) Accurately ripped
09 [69a305a8] (02/12) Accurately ripped
10 [4f0cc549] (02/12) Accurately ripped
11 [db9b5c24] (02/12) Accurately ripped
12 [e92160c4] (02/12) Accurately ripped
13 [8574cd64] (02/12) Accurately ripped
14 [4d547b1c] (02/13) Accurately ripped
15 [a7934bf8] (02/13) Accurately ripped
16 [3728e340] (02/13) Accurately ripped
17 [f8914154] (02/13) Accurately ripped
18 [9c336f9f] (02/13) Accurately ripped
19 [bdff2c36] (02/12) Accurately ripped
20 [2f94dcf0] (02/13) Accurately ripped
21 [9217b2df] (02/13) Accurately ripped
22 [46926cf9] (02/13) Accurately ripped
23 [98c5b0d1] (02/13) Accurately ripped
24 [2b88a35c] (02/13) Accurately ripped

Track Peak [ CRC32 ] [W/O NULL]
– 99,9 [F06FF89A] [34D3BD48]
01 99,9 [BDCE57FA] [71DB3A61]
02 99,9 [7D8D9090] [7201D49A]
03 99,9 [657F2624] [9C91388D]
04 99,9 [C0136147] [39AC96A0]
05 99,9 [B43F7549] [A9B38070]
06 99,9 [3055F963] [FAD0A921]
07 99,9 [F7EDEC03] [F806FD17]
08 99,9 [022320C9] [FD40C0AA]
09 99,9 [45A369DF] [FCDFC5E1]
10 99,9 [AF389FD2] [5DD65156]
11 99,9 [A43BC894] [2A977A7B]
12 99,9 [AA2EFDFD] [626C27F3]
13 99,9 [8851DBC9] [96CD2528]
14 99,9 [32836A0F] [FDB5F47E]
15 99,9 [E909C537] [B2A635CC]
16 99,9 [F308D6D8] [D3910936]
17 99,9 [9A96F548] [1BB74FC7]
18 99,9 [4C9D9318] [8DBCA720]
19 99,9 [0C9D5DB6] [FBAB1BF1]
20 99,9 [A64C6E7A] [0E9E3915]
21 99,9 [AC04AB84] [F57B1D65]
22 99,9 [462547F4] [9107DA00]
23 99,9 [7CA8D955] [EA98C391]
24 99,9 [06FD8C8C] [3E2ED005]


Thx to carcass1989
Bigfile
Yunfile

password: asd