Subcategories

The Allman Brothers Band - Eat A Peach (1972) [MFSL, 2013] (Repost)

Posted By: gribovar
The Allman Brothers Band - Eat A Peach (1972) [MFSL, 2013] (Repost)

The Allman Brothers Band - Eat A Peach (1972) [MFSL, 2013]
EAC Rip | FLAC (image+.cue+log) - 422 MB | MP3 CBR 320 kbps (LAME 3.93) - 165 MB | Covers - 227 MB
Genre: Blues Rock, Southern Rock | RAR 3% Rec. | Label: Mobile Fidelity Sound Lab (UDSACD 2102)

Tributes to fallen icons don’t come any more poignant or illustrative than Eat a Peach. Released in early 1972, slightly more than three months after guitarist Duane Allman died in a motorcycle accident, the double album honors the musician via sides he recorded in the studio as well as several live performances that didn’t fit on the mammoth At Fillmore East. The Allman Brothers Band, determined to press on, also contributes a trio of songs completed after their soulmate’s passing. Its execution is near perfect, its concept timeless.
In all probability, the Allman Brothers Band would’ve leapt to the fore of music’s commercial and critical elite had it not been for Duane’s fateful motorcycle accident that altered history and the trajectory of the group’s course. A statement of purpose and homage, Eat a Peach extends the guitarist’s legacy in the form of three heart-racing live tunes recorded at Fillmore East, none more important than the nearly 34-minute harmonic showcase “Mountain Jam.” Begun at the end of “Whipping Post” during the final show of the group’s four-gig stand, the tour de force improvisation finds the band at the peak of its telepathic aural and communicative capacities.
Not that the three studio originals with Duane are by any means forgettable. “Blue Sky” epitomizes the gorgeously elegant colors with which the late virtuoso could paint while the heart-stopping sentimental feel of “Little Martha” finds just he and Dickey Betts engaged in spiritual communion. To this extent, the band continues a mellower vibe on the hit “Melissa,” a country-rock ballad that taps into a melancholy feel largely courtesy of Gregg Allman’s weary vulnerability and Betts’ lyrical, slap-back-echoing guitar lines.
Yet nothing here eclipses the direct meaning and steadfast intent of the record-opening “Ain’t Wastin’ Time No More,” a defiant showing of unity and understated anthem with which the band seemed to embrace as a motto. No one knew, however, that fate would again subvert the group’s plans even if it could never take away the magic held within Eat a Peach, sonic and lyrical sorcery that extends to the legendary artwork mural.
Tracklist:
01. Ain't Wastin' Time No More
02. Les Brets In A Minor
03. Melissa
04. Mountain Jam
05. One Way Out
06. Trouble No More
07. Stand Back
08. Blue Sky
09. Little Martha

Total time: 01:10:16

Exact Audio Copy V1.0 beta 3 from 29. August 2011

EAC extraction logfile from 18. August 2013, 12:38

The Allman Brothers Band / Eat A Peach MFSL

Used drive : PLEXTOR BD-R PX-B950SA Adapter: 6 ID: 0

Read mode : Secure
Utilize accurate stream : Yes
Defeat audio cache : Yes
Make use of C2 pointers : No

Read offset correction : 6
Overread into Lead-In and Lead-Out : No
Fill up missing offset samples with silence : Yes
Delete leading and trailing silent blocks : No
Null samples used in CRC calculations : Yes
Used interface : Native Win32 interface for Win NT & 2000

Used output format : Internal WAV Routines
Sample format : 44.100 Hz; 16 Bit; Stereo


TOC of the extracted CD

Track | Start | Length | Start sector | End sector
––––––––––––––––––––––––––––-
1 | 0:00.00 | 3:43.02 | 0 | 16726
2 | 3:43.02 | 9:08.67 | 16727 | 57893
3 | 12:51.69 | 4:00.44 | 57894 | 75937
4 | 16:52.38 | 33:49.40 | 75938 | 228152
5 | 50:42.03 | 4:57.63 | 228153 | 250490
6 | 55:39.66 | 3:46.59 | 250491 | 267499
7 | 59:26.50 | 3:27.60 | 267500 | 283084
8 | 62:54.35 | 5:12.18 | 283085 | 306502
9 | 68:06.53 | 2:09.59 | 306503 | 316236


Range status and errors

Selected range

Filename C:\Users\Meijin\Desktop\ALLexxess\The Allman Brothers Band\1972 Eat A Peach (MFSL Hybrid SACD 2013)\The Allman Brothers Band - Eat A Peach MFSL.wav

Peak level 95.9 %
Extraction speed 4.0 X
Range quality 100.0 %
Test CRC CBBD07A9
Copy CRC CBBD07A9
Copy OK

No errors occurred


AccurateRip summary

Track 1 accurately ripped (confidence 7) [1444C85D] (AR v2)
Track 2 accurately ripped (confidence 7) [2ACD2F8D] (AR v2)
Track 3 accurately ripped (confidence 7) [87347BC2] (AR v2)
Track 4 accurately ripped (confidence 7) [763DD223] (AR v2)
Track 5 accurately ripped (confidence 7) [F5091AE1] (AR v2)
Track 6 accurately ripped (confidence 7) [FEA1EFDD] (AR v2)
Track 7 accurately ripped (confidence 7) [E779F1E9] (AR v2)
Track 8 accurately ripped (confidence 7) [9C71B8A5] (AR v2)
Track 9 accurately ripped (confidence 6) [AC5ED1DF] (AR v2)

All tracks accurately ripped

End of status report

==== Log checksum E549455C5F4961A36E3752895C5579FD5D5D3B8C3C9F8BDF745E895ECD7C4B20 ====

[CUETools log; Date: 25.01.2018 1:26:14; Version: 2.1.4]
[CTDB TOCID: pKYzcXlnU0UTckD2_7XKHePlDfg-] found.
Track | CTDB Status
1 | (24/24) Accurately ripped
2 | (24/24) Accurately ripped
3 | (24/24) Accurately ripped
4 | (24/24) Accurately ripped
5 | (24/24) Accurately ripped
6 | (24/24) Accurately ripped
7 | (24/24) Accurately ripped
8 | (24/24) Accurately ripped
9 | (24/24) Accurately ripped
[AccurateRip ID: 001b8120-00c99c05-79107809] found.
Track [ CRC | V2 ] Status
01 [22efdd58|1444c85d] (00+34/34) Accurately ripped
02 [64245923|2acd2f8d] (00+34/34) Accurately ripped
03 [a08c2e1e|87347bc2] (00+34/34) Accurately ripped
04 [8667d0dc|763dd223] (00+34/34) Accurately ripped
05 [f0d12b26|f5091ae1] (00+34/34) Accurately ripped
06 [7a5a3ab4|fea1efdd] (00+34/34) Accurately ripped
07 [36375f42|e779f1e9] (00+34/34) Accurately ripped
08 [d9b860b2|9c71b8a5] (00+34/34) Accurately ripped
09 [41028a0b|ac5ed1df] (00+33/33) Accurately ripped

Track Peak [ CRC32 ] [W/O NULL] [ LOG ]
– 95,9 [CBBD07A9] [8BAB9C85] CRC32
01 88,1 [E3C5B0FC] [796EFB81]
02 81,3 [6FBBECF6] [31192C80]
03 73,1 [70E0AB91] [C3424D38]
04 95,9 [3B829DEB] [A537B7CB]
05 82,0 [E04B1455] [E1A53A81]
06 85,2 [FEA33531] [FF7C90CD]
07 83,9 [2CED977E] [82BA1C35]
08 82,7 [9B468C24] [B979E18D]
09 74,6 [59BEA6E5] [61E786CD]

Thanks to allekkss48

See also:
The Allman Brothers Band - The Allman Brothers Band (1969) [MFSL, 2012]