Subcategories

The Art of Edwin Fischer Volume 1

Posted By: DentonW
The Art of Edwin Fischer Volume 1

The Art of Edwin Fischer Volume 1: conducting/playing Bach - Beethoven - Brahms
EAC (FLAC, IMG+CUE, LOG) | Scans 300/600 dpi | 1CD, 300 MB + 19,3 MB (.rar 3% rec.) | FS & RS
Classical | Label: Koch Historic 3-7701-2 H1, Austria 1992 (mono recording)



The Art of Edwin Fischer Volume 1
Sound restoration and digital transfers by Seth B. Winner.
(Please note that Koch has never released any further volumes.)

01. Johann Sebastian Bach / Brandenburg Concerto 2 in F BWV 1047 - 1 Allegro moderato [05:15]
02. Johann Sebastian Bach / Brandenburg Concerto 2 in F BWV 1047 - 2 Andante [04:05]
03. Johann Sebastian Bach / Brandenburg Concerto 2 in F BWV 1047 - 3 Allegro assai [02:59]
04. Ludwig van Beethoven / Grosse Fugue in B flat op 133 arr Fischer [16:55]
05. Johannes Brahms / Piano Quartet 1 op 25 - 1 Allegro [13:18] (**)
06. Johannes Brahms / Piano Quartet 1 op 25 - 2 Intermezzo. Allegro ma non troppo [08:33]
07. Johannes Brahms / Piano Quartet 1 op 25 - 3 Andante con moto [09:08]
08. Johannes Brahms / Piano Quartet 1 op 25 - 4 Rondo alla zingarese. Presto [08:04]
09. Johann Sebastian Bach / Well-Tempered Clavier I Fugue 20 arr Fischer - 1 Intrada [01:01]
10. Johann Sebastian Bach / Well-Tempered Clavier I Fugue 20 arr Fischer - 2 Fugue [05:02]

(**) time not indicated in booklet/inlet

1-3 Berlin 1941; with Fritz Kröckel (fl), Wilhelm Meyer (ob), Karl Freund (vn), Paul Spörri (trp) / Edwin Fischer Chamber Orchestra, Edwin Fischer conducting
4 Berlin c. 1939-41; with Edwin Fischer Chamber Orchestra, Edwin Fischer conducting
5-8 Berlin c. 1939-41; with Vittorio Brero (vn), Rudolf Nel (va), Theo Schürgers (vc)
9-10 Berlin, 20th February 1939; with Edwin Fischer Chamber Orchestra, Edwin Fischer conducting

Exact Audio Copy V1.0 beta 2 from 29. April 2011

EAC extraction logfile from 9. August 2011, 12:56

Bach - Beethoven - Brahms / The Art of Edwin Fischer Volume 1

Used drive : ATAPI DVD A DH16A6S Adapter: 1 ID: 1

Read mode : Secure
Utilize accurate stream : Yes
Defeat audio cache : No
Make use of C2 pointers : Yes

Read offset correction : 6
Overread into Lead-In and Lead-Out : No
Fill up missing offset samples with silence : Yes
Delete leading and trailing silent blocks : No
Null samples used in CRC calculations : No
Used interface : Native Win32 interface for Win NT & 2000

Used output format : User Defined Encoder
Selected bitrate : 896 kBit/s
Quality : High
Add ID3 tag : No
Command line compressor : D:\Exact Audio Copy\flac.exe
Additional command line options : -1 -V -T "ARTIST=%artist%" -T "TITLE=%title%" -T "ALBUM=%albumtitle%" -T "DATE=%year%" -T "TRACKNUMBER=%tracknr%" -T "GENRE=%genre%" -T "COMMENT=%comment%" -T "BAND=%albuminterpret%" -T "COMPOSER=%composer%" %haslyrics%–ta


TOC of the extracted CD

Track | Start | Length | Start sector | End sector
––––––––––––––––––––––––––––-
1 | 0:00.00 | 5:15.50 | 0 | 23674
2 | 5:15.50 | 4:05.67 | 23675 | 42116
3 | 9:21.42 | 2:59.53 | 42117 | 55594
4 | 12:21.20 | 16:55.05 | 55595 | 131724
5 | 29:16.25 | 13:18.05 | 131725 | 191579
6 | 42:34.30 | 8:33.20 | 191580 | 230074
7 | 51:07.50 | 9:08.72 | 230075 | 271246
8 | 60:16.47 | 8:04.60 | 271247 | 307606
9 | 68:21.32 | 1:01.60 | 307607 | 312241
10 | 69:23.17 | 5:02.33 | 312242 | 334924


Range status and errors

Selected range

Filename D:\Uploads\Edwin Fischer\KOCH37701\The Art of Edwin Fischer Volume 1.wav

Peak level 76.9 %
Extraction speed 5.0 X
Range quality 99.9 %
Copy CRC 0A9FF7C4
Copy OK

No errors occurred


AccurateRip summary

Track 1 not present in database
Track 2 not present in database
Track 3 not present in database
Track 4 not present in database
Track 5 not present in database
Track 6 not present in database
Track 7 not present in database
Track 8 not present in database
Track 9 not present in database
Track 10 not present in database

None of the tracks are present in the AccurateRip database

End of status report

==== Log checksum AC709D7A7A2D5F0A4CD7EF132D8534E5CF45EB56FA4BBF2E4A246CAE9026DF37 ====



Download links

FILESONIC
CD part 1
CD part 2
Scans

RAPIDSHARE
CD part 1
CD part 2
Scans