Tags
Language
Tags

The Asylum Choir - Look Inside The Asylum Choir (1968) [Reissue 2007] (Repost)

Posted By: gribovar
The Asylum Choir - Look Inside The Asylum Choir (1968) [Reissue 2007] (Repost)

The Asylum Choir - Look Inside The Asylum Choir (1968) [Reissue 2007]
EAC Rip | FLAC (image+.cue+log) - 256 MB | MP3 CBR 320 kbps (LAME 3.93) - 94 MB | Covers - 20 MB
Genre: Psychedelic Rock, Pop Rock | RAR 3% Rec. | Label: Rev-Ola (CR REV 203)

Digitally remastered reissue of this long-lost Psychedelic album from 1968 by this duo featuring Leon Russell. Poised between his past as a top Wrecking Crew session man (Phil Spector, The Byrds, Sonny And Cher) and assistant to Liberty A&R head Snuff Garret, and his future as a '70s Rock superstar, Russell teamed up with his Texas Psych buddy Marc Benno to work with Gene Clark, Harpers Bizarre and Gary Lewis in their new studio. In between sessions, they created this unusual and breathtaking album. Here once more is this amazing lost gem, intensified in Rev-Ola style, and ready to work it's magic! A great lost nugget by one of the major Rock superstars!
Tracklist:
01. Welcome To Hollywood
02. Soul Food
03. Icicle Star Tree
04. Death Of The Flowers
05. Indian Style
06. NY Op
07. Land Of Dog
08. Mr. Henri The Clown
09. Thieves In The Choirs
10. Black Sheep Boogaloo

Bonus Mono Single Versions:
11. Soul Food
12. Welcome To Hollywood
13. Icicle Star Tree
14. Indian Style

Total time: 40:02

Exact Audio Copy V0.99 prebeta 4 from 23. January 2008

EAC extraction logfile from 25. June 2008, 17:55

The Asylum Choir / Look Inside

Used drive : ASUS DRW-2014L1 Adapter: 1 ID: 0

Read mode : Secure
Utilize accurate stream : Yes
Defeat audio cache : Yes
Make use of C2 pointers : No

Read offset correction : 6
Overread into Lead-In and Lead-Out : No
Fill up missing offset samples with silence : Yes
Delete leading and trailing silent blocks : No
Null samples used in CRC calculations : Yes
Used interface : Native Win32 interface for Win NT & 2000

Used output format : User Defined Encoder
Selected bitrate : 1024 kBit/s
Quality : High
Add ID3 tag : No
Command line compressor : C:\Program Files\FLAC\flac.exe
Additional command line options : -V -8 -T "artist=%a" -T "title=%t" -T "album=%g" -T "date=%y" -T "tracknumber=%n" -T "genre=%m" %s


TOC of the extracted CD

Track | Start | Length | Start sector | End sector
––––––––––––––––––––––––––––-
1 | 0:00.00 | 2:45.51 | 0 | 12425
2 | 2:45.51 | 2:10.24 | 12426 | 22199
3 | 4:56.00 | 3:03.32 | 22200 | 35956
4 | 7:59.32 | 3:15.54 | 35957 | 50635
5 | 11:15.11 | 3:46.13 | 50636 | 67598
6 | 15:01.24 | 2:25.00 | 67599 | 78473
7 | 17:26.24 | 1:49.48 | 78474 | 86696
8 | 19:15.72 | 1:57.54 | 86697 | 95525
9 | 21:13.51 | 4:04.27 | 95526 | 113852
10 | 25:18.03 | 2:29.01 | 113853 | 125028
11 | 27:47.04 | 2:19.39 | 125029 | 135492
12 | 30:06.43 | 3:03.72 | 135493 | 149289
13 | 33:10.40 | 3:07.37 | 149290 | 163351
14 | 36:18.02 | 3:44.09 | 163352 | 180160


Range status and errors

Selected range

Filename E:\Torrent\TheAsylumChoir-LookInside.wav

Peak level 98.8 %
Range quality 99.9 %
Test CRC 80D9BBC9
Copy CRC 80D9BBC9
Copy OK

No errors occurred


AccurateRip summary

Track 1 not present in database
Track 2 not present in database
Track 3 not present in database
Track 4 not present in database
Track 5 not present in database
Track 6 not present in database
Track 7 not present in database
Track 8 not present in database
Track 9 not present in database
Track 10 not present in database
Track 11 not present in database
Track 12 not present in database
Track 13 not present in database
Track 14 not present in database

None of the tracks are present in the AccurateRip database

End of status report

[CUETools log; Date: 01.08.2021 22:05:50; Version: 2.1.4]
[CTDB TOCID: rNEYN9Gab_mJVFExFBvNeXwuVp0-] found.
Track | CTDB Status
1 | (15/15) Accurately ripped
2 | (15/15) Accurately ripped
3 | (15/15) Accurately ripped
4 | (15/15) Accurately ripped
5 | (15/15) Accurately ripped
6 | (15/15) Accurately ripped
7 | (15/15) Accurately ripped
8 | (15/15) Accurately ripped
9 | (15/15) Accurately ripped
10 | (15/15) Accurately ripped
11 | (15/15) Accurately ripped
12 | (15/15) Accurately ripped
13 | (15/15) Accurately ripped
14 | (15/15) Accurately ripped
[AccurateRip ID: 00141755-00d6a381-c909620e] found.
Track [ CRC | V2 ] Status
01 [1e24c1aa|f26f5b63] (07+09/16) Accurately ripped
02 [eff8e69d|a44ced1c] (07+09/16) Accurately ripped
03 [adcbd48b|ec161e59] (07+09/16) Accurately ripped
04 [0d71de16|3eeec19c] (07+09/16) Accurately ripped
05 [b5171791|0d12a59b] (07+09/16) Accurately ripped
06 [5e66764e|3f1496ac] (07+09/16) Accurately ripped
07 [b8964669|cf6a5c59] (07+09/16) Accurately ripped
08 [15c09933|be6f61b8] (07+09/16) Accurately ripped
09 [1ac2f632|7a44c221] (07+09/16) Accurately ripped
10 [b5bc8138|3c842786] (07+09/16) Accurately ripped
11 [7c5b71bf|7abff5d1] (07+08/15) Accurately ripped
12 [b099ef29|45e86e88] (07+08/15) Accurately ripped
13 [3a2fbcd7|f2188f27] (07+08/15) Accurately ripped
14 [b4ee737e|56285053] (07+08/15) Accurately ripped

Track Peak [ CRC32 ] [W/O NULL] [ LOG ]
– 98,8 [80D9BBC9] [25B5D445] CRC32
01 98,8 [1B957F2B] [E986738A]
02 98,8 [F0A8E2A1] [4D56C716]
03 98,8 [C563E2AA] [DCE1ABA4]
04 98,8 [47429731] [B5533B35]
05 98,8 [88E72D8C] [FC06CEF6]
06 98,8 [8E69C53B] [A3EC02AB]
07 98,8 [E3624373] [56FFEAE1]
08 98,8 [85ED9648] [8385DBD9]
09 98,8 [2DEDED48] [E2008494]
10 98,8 [202BF152] [02A4EFD2]
11 98,8 [CC373B6A] [9CBF43B3]
12 98,8 [EFAAB4E1] [ACAD2D8E]
13 98,8 [1394F03A] [9A9474D4]
14 98,8 [72B90A06] [5FC8E3F6]

Thanks to crimson08