The Avatar Sessions - Norrbotten Big Band (2009)

Posted By: tiburon
The Avatar Sessions - Norrbotten Big Band (2009)

The Avatar Sessions - Norrbotten Big Band (2009)
EAC 1.0b3 | FLAC tracks level 8 | Cue+Log+M3U | Full Scans 300dpi | 380MB + 5% Recovery
Genre: Big-Band, Post-Bop
The Avatar Sessions - Norrbotten Big Band (2009)

Trumpeter Tim Hagans and drummer Peter Esrkine and the Norrbotten (Sweden) Big Band's last release - Worth the Wait was one of our favorites (see our review here and the boys are back with a brand new album of exciting Hagans-penned big band composition. This time they have upped the ante with the addition of several guest stars - occluding tenor saxophonist George Garzone, trumpeter Randy Brecker, soprano saxophonist Dave Liebman, bassist Rufus Reid and guitarist Vic Juris(on one track). The Norrbotten Big Band is known throughout Europe as one of the more adventurous ensembles on the current scene.
Track List
01. Buckeyes 10:16
02. Boo 8:41
03. Box Of Cannoli 13:16
04. Here With Me 5:59
05. Palt Seanuts 9:32
06. Rufus At Gilly's 8:43
07. Song For Mirka 7:13

musicians
Peter Erskine - drums
Randy Brecker - trumpet
Tim Hagans - trumpet
Dave Liebman - soprano sax
George Garzone - tenor sax
Jan Thelin - bass clarinet
Daniel Tilling - piano
Hakan Brostrom - alto sax
Karl-Martin Almqvist - tenor sax
Rufus Reid - bass
Dan Johansson - flugelhorn

Produced by Bob Belden


Exact Audio Copy V1.0 beta 3 from 29. August 2011

EAC extraction logfile from 17. November 2012, 16:34

Peter Erskine, Tim Hagans and the Norrbotten Big Band / The Avatar Sessions

Used drive : HL-DT-STDVDRAM GH20NS10 Adapter: 2 ID: 1

Read mode : Secure
Utilize accurate stream : Yes
Defeat audio cache : Yes
Make use of C2 pointers : No

Read offset correction : 667
Overread into Lead-In and Lead-Out : No
Fill up missing offset samples with silence : Yes
Delete leading and trailing silent blocks : No
Null samples used in CRC calculations : Yes
Used interface : Native Win32 interface for Win NT & 2000
Gap handling : Appended to previous track

Used output format : User Defined Encoder
Selected bitrate : 1024 kBit/s
Quality : High
Add ID3 tag : No
Command line compressor : C:\Program Files\Exact Audio Copy\Flac\flac.exe
Additional command line options : -8 -V -T "ARTIST=%artist%" -T "TITLE=%title%" -T "ALBUM=%albumtitle%" -T "DATE=%year%" -T "TRACKNUMBER=%tracknr%" -T "TOTALTRACKS=%numtracks%" -T "GENRE=%genre%" -T "ALBUMARTIST=%albumartist%" -T "ALBUM ARTIST=%albumartist%" -T "COMMENT=EAC Secure Mode, Test & Copy, AccurateRip, FLAC -8" %source%


TOC of the extracted CD

Track | Start | Length | Start sector | End sector
––––––––––––––––––––––––––––-
1 | 0:00.00 | 10:15.45 | 0 | 46169
2 | 10:15.45 | 8:40.58 | 46170 | 85227
3 | 18:56.28 | 13:16.18 | 85228 | 144945
4 | 32:12.46 | 5:58.39 | 144946 | 171834
5 | 38:11.10 | 9:32.35 | 171835 | 214769
6 | 47:43.45 | 8:42.38 | 214770 | 253957
7 | 56:26.08 | 7:13.23 | 253958 | 286455


Track 1

Filename D:\The Avatar Sessions - Norrboten Big Band (2009) [FLAC]\01 - Buckeyes.wav

Pre-gap length 0:00:02.00

Peak level 99.9 %
Extraction speed 3.4 X
Track quality 100.0 %
Test CRC 0C7A94DE
Copy CRC 0C7A94DE
Accurately ripped (confidence 1) [D31F5E80] (AR v1)
Copy OK

Track 2

Filename D:\The Avatar Sessions - Norrboten Big Band (2009) [FLAC]\02 - Boo.wav

Pre-gap length 0:00:00.51

Peak level 99.6 %
Extraction speed 4.0 X
Track quality 100.0 %
Test CRC 1E6B5984
Copy CRC 1E6B5984
Accurately ripped (confidence 1) [E8026822] (AR v1)
Copy OK

Track 3

Filename D:\The Avatar Sessions - Norrboten Big Band (2009) [FLAC]\03 - Box Of Cannoli.wav

Pre-gap length 0:00:01.63

Peak level 97.6 %
Extraction speed 4.4 X
Track quality 100.0 %
Test CRC E16EDF98
Copy CRC E16EDF98
Accurately ripped (confidence 1) [CE315154] (AR v1)
Copy OK

Track 4

Filename D:\The Avatar Sessions - Norrboten Big Band (2009) [FLAC]\04 - Here With Me.wav

Pre-gap length 0:00:00.43

Peak level 94.4 %
Extraction speed 4.0 X
Track quality 100.0 %
Test CRC E77A9B9A
Copy CRC E77A9B9A
Accurately ripped (confidence 1) [30C51F78] (AR v1)
Copy OK

Track 5

Filename D:\The Avatar Sessions - Norrboten Big Band (2009) [FLAC]\05 - Palt Seanuts.wav

Pre-gap length 0:00:01.54

Peak level 99.7 %
Extraction speed 5.0 X
Track quality 100.0 %
Test CRC DCF74E11
Copy CRC DCF74E11
Accurately ripped (confidence 1) [5D5A533C] (AR v1)
Copy OK

Track 6

Filename D:\The Avatar Sessions - Norrboten Big Band (2009) [FLAC]\06 - Rufus At Gilly's.wav

Pre-gap length 0:00:00.23

Peak level 98.6 %
Extraction speed 5.0 X
Track quality 100.0 %
Test CRC 22ABF6E3
Copy CRC 22ABF6E3
Accurately ripped (confidence 1) [DDC9253A] (AR v1)
Copy OK

Track 7

Filename D:\The Avatar Sessions - Norrboten Big Band (2009) [FLAC]\07 - Song For Mirka.wav

Peak level 95.9 %
Extraction speed 5.4 X
Track quality 100.0 %
Test CRC 1213BB60
Copy CRC 1213BB60
Accurately ripped (confidence 1) [6CBEB947] (AR v1)
Copy OK


All tracks accurately ripped

No errors occurred

End of status report

==== Log checksum 3724499CED94B4AD443C15C358EF264A2F7213D86E2C1C69CA8532FFCDD1C21C ====


––––––––––––––––––––––––––––––––––––––––
Analyzed: Peter Erskine, Tim Hagans and the Norrbotten Big Band / The Avatar Sessions
––––––––––––––––––––––––––––––––––––––––

DR Peak RMS Duration Track
––––––––––––––––––––––––––––––––––––––––
DR13 0.00 dB -16.06 dB 10:16 01-Buckeyes
DR11 -0.03 dB -14.57 dB 8:41 02-Boo
DR13 -0.21 dB -16.97 dB 13:16 03-Box Of Cannoli
DR11 -0.49 dB -17.89 dB 5:59 04-Here With Me
DR14 -0.02 dB -16.33 dB 9:32 05-Palt Seanuts
DR13 -0.12 dB -17.47 dB 8:43 06-Rufus At Gilly's
DR12 -0.36 dB -17.12 dB 7:13 07-Song For Mirka
––––––––––––––––––––––––––––––––––––––––

Number of tracks: 7
Official DR value: DR13

Samplerate: 44100 Hz
Channels: 2
Bits per sample: 16
Bitrate: 713 kbps
Codec: FLAC
================================================================================

The Avatar Sessions - Norrbotten Big Band (2009)
The Avatar Sessions - Norrbotten Big Band (2009)
The Avatar Sessions - Norrbotten Big Band (2009)


Rip by tiburon