Subcategories

The Beatles - The Ultimate Collection Vol.2 (1994)

Posted By: technick
The Beatles - The Ultimate Collection Vol.2 (1994)

The Beatles - The Ultimate Collection Vol.2 (1994)
[Box 2 from 3 x 4 CD Box-set]

EAC: flac (tracks) + cue + log | RAR, 3 %, 424,74/392,63/389,27/226,74 MB
mp3, 320 kbps | RAR, 3 %, 171,85/139,87/144,27/151,07 MB | Scans | RAR, 3 %, 4,34/4,30/4,16/3,96/41,29 MB
Label: Yellow Dog Records | Cat №: YDB 201-204 | (FilePost + DepositFiles + Uploaded)

This box is the 2nd of three boxes released by Yellow Dog Records in 1994, as they cemented their status as one of the most prolific and important Beatleg Labels.
This set contains 4 titles, 2 of which would later be released as single disc; "Studio Sessions Feb 11, 1963", later re-issued as "Studio 2 Sessions Vol.1" (YD063) in 1995, and "Studio Sessions March 5 ,1963", later re-issued as "Studio 2 Sessions Vol.2" (YD064) in 1995.
The other 2 titles in this set are unique to this box set - making this a "core" titles.
CD1 - Live, Live, Live

The Beatles - The Ultimate Collection Vol.2 (1994)

Tracklist:
Karplan Studio, Stockholm, Sweden. 24th October, 1963
1. Interview (01:48)
2. Intro / I Saw Her Standing There (03:32)
3. From Me To You (02:08)
4. Money (That's What I Want) (02:49)
5. Roll Over Beethoven (02:29)
6. You Really Got A Hold On Me (03:05)
7. She Loves You (02:32)
8. Twist And Shout (02:49)

Palais De Sports, Paris, France. 20th June, 1965, 1st show
9. I'm A Loser (03:06)
10. Can't Buy Me Love (02:43)
11. I Wanna Be Your Man (02:45)
12. A Hard Day's Night (02:48)
13. Rock And Roll Music (02:20)
14. I Feel Fine (02:36)
15. Ticket To Ride (3:31)
16. Long Tall Sally (2:04)

Budokan Hall, Tokyo, Japan. 1st July, 1966, 1st show
17. Intro (01:21)
18. Rock And Roll Music (01:36)
19. She's A Woman (03:16)
20. If I Needed Someone (02:58)
21. Day Tripper (03:16)
22. Baby's In Black (02:43)
23. I Feel Fine (02:32)
24. Yesterday (02:33)
25. I Wanna Be Your Man (02:38)
26. Nowhere Man (02:47)
27. Paperback Writer (02:45)
28. I'm Down (02:43)
–––––––––––––
Total time: [74:13]
CD2 - Studio Sessions, Feb. 11, 1963

The Beatles - The Ultimate Collection Vol.2 (1994)

Tracklist:
Abbey Road, London, United Kingdom. 11th February, 1963
Recording of Please Please Me LP in one day
Morning session: recorded between 10.00 AM - 1.00 PM

1. There's A Place (02:10) (Take 1 complete)
2. There's A Place (02:07) (Take 2 complete)
3. There's A Place (02:14) (Take 3 with false start / take 4 complete)
4. There's A Place (02:22) (Take 5 with false start / take 6 complete)
5. There's A Place (02:46) (Take 7 with false start / take 8 complete)
6. There's A Place (02:07) (Take 9 complete)
7. There's A Place (02:03) (Take 10 best take for overdubs 11-13)
8. I Saw Her Standing There (03:06) (Take 1 complete. This take was used for the record)
9. I Saw Her Standing There (03:12) (Take 2 complete)
10. I Saw Her Standing There (02:25) (Takes 3-5 (edit piece) not complete)
11. I Saw Her Standing There (04:57) (Take 6 not complete / take 7 with false start / take 8 not complete / take 9 complete)

Afternoon session: recorded between 2.30 PM - 6.00 PM
12. Do You Want To Know A Secret (02:41) (Track 2 take 7 complete)
13. Do You Want To Know A Secret (02:06) (Track 2 take 8 complete)
14. A Taste Of Honey (02:13) (Track 2 take 6 complete)
15. A Taste Of Honey (02:14) (Track 2 take 7 complete)
16. There's A Place (02:08) (Track 2 take 11 complete)
17. There's A Place (02:30) (Track 2 take 12 with false start / take 13 complete)
18. I Saw Her Standing There (03:03) (Track 2 take 10 complete)
19. I Saw Her Standing There (03:42) (Track 2 take 11 not complete / take 12 complete)
20. Misery (02:03) (Take 1 complete)
21. Misery (04:51) (Take 2 not complete / take 3 with false start / take 4 not complete / take 5 not complete / take 6 complete)
22. Misery (02:25) (Take 7 complete / take 8 with false start)
–––––––––––––
Total time: [59:25]
CD3 - Studio Sessions, March 5, Sept. 12, 1963

The Beatles - The Ultimate Collection Vol.2 (1994)

Tracklist:
Abbey Road, London, United Kingdom. 5th March, 1963
1. From Me To You (03:32) (Take 1 not complete / take 2 complete)
2. From Me To You (01:58) (Take 3 complete)
3. From Me To You (01:54) (Take 4 complete)
4. From Me To You (02:18) (Take 5 complete)
5. From Me To You (02:20) (Take 6 with false start / take 7 complete)
6. Thank You Girl (02:13) (Take 1 complete)
7. Thank You Girl (02:37) (Take 2 with false start / take 3 with false start / take 4 complete)
8. Thank You Girl (02:09) (Take 5 complete)
9. Thank You Girl (02:23) (Take 6 complete)
10. Thank You Girl (04:07) (Takes 7-13 (edit piece))
11. From Me To You (02:14) (Track 2 take 8 complete overdub harmonies)
12. From Me To You (01:56) (Takes 9-13 (edit pieces 1-6))
13. One After 909 (04:27) (Take 1 not complete / take 2 complete)
14. One After 909 (05:41) (Take 3 not complete / take 4 not complete / take 5 edit piece)

Abbey Road, London, United Kingdom. 12th September, 1963
15. Hold Me Tight (2:45) (Take 21 with false start (re-make))
16. Hold Me Tight (04:04) (Take 22 complete / take 23 not complete / take 24 complete (re-make))
17. Hold Me Tight (03:04) (Track 2 take 25 complete / take 26 complete (re-make))
18. Hold Me Tight (01:57) (Track 2 take 27 with false start / take 28 not complete (re-make))
19. Hold Me Tight (02:52) (Track 2 take 29 complete (re-make))
20. Don't Bother Me (02:53) (Take 10 complete (re-make))
21. Don't Bother Me (03:56) (Take 11 with false start / take 12 not complete / take 13 complete (re-make))
–––––––––––––
Total time: [59:25]
CD4 - The 2nd Recorded Hour Of The Let It Be Sessions

The Beatles - The Ultimate Collection Vol.2 (1994)

Tracklist:
Twickenham Film Studios, London, United Kingdom. 2nd January, 1969
1. Speak To Me / I've Got A Feeling / I've Got A Feeling (13:07) (Roll 5A)
2. Dialogue / I've Got A Feeling (16:20) (Roll 6A)
3. Dialogue / I've Got A Feeling / Don't Let Me Down (16:17) (Roll 7A)
4. Don't Let Me Down / Dialogue / Don't Let Me Down (16:19) (Roll 8A)
–––––––––––––
Total time: [62:03]

Exact Audio Copy V0.99 prebeta 4 from 23. January 2008

EAC extraction logfile from 16. May 2010, 0:00

Beatles / The Ultimate Collection - Vol.2 CD 1 - Live, Live, Live

Used drive : Optiarc DVD RW AD-5540A Adapter: 0 ID: 0

Read mode : Secure
Utilize accurate stream : Yes
Defeat audio cache : No
Make use of C2 pointers : Yes

Read offset correction : 48
Overread into Lead-In and Lead-Out : No
Fill up missing offset samples with silence : Yes
Delete leading and trailing silent blocks : No
Null samples used in CRC calculations : Yes
Used interface : Native Win32 interface for Win NT & 2000
Gap handling : Appended to previous track

Used output format : Internal WAV Routines
Sample format : 44.100 Hz; 16 Bit; Stereo


TOC of the extracted CD

Track | Start | Length | Start sector | End sector
––––––––––––––––––––––––––––-
1 | 0:00.00 | 1:48.52 | 0 | 8151
2 | 1:48.52 | 3:31.43 | 8152 | 24019
3 | 5:20.20 | 2:08.42 | 24020 | 33661
4 | 7:28.62 | 2:48.68 | 33662 | 46329
5 | 10:17.55 | 2:28.20 | 46330 | 57449
6 | 12:46.00 | 3:05.27 | 57450 | 71351
7 | 15:51.27 | 2:32.40 | 71352 | 82791
8 | 18:23.67 | 2:48.20 | 82792 | 95411
9 | 21:12.12 | 3:06.28 | 95412 | 109389
10 | 24:18.40 | 2:42.50 | 109390 | 121589
11 | 27:01.15 | 2:45.32 | 121590 | 133996
12 | 29:46.47 | 2:48.25 | 133997 | 146621
13 | 32:34.72 | 2:19.23 | 146622 | 157069
14 | 34:54.20 | 2:36.37 | 157070 | 168806
15 | 37:30.57 | 3:30.48 | 168807 | 184604
16 | 41:01.30 | 2:04.07 | 184605 | 193911
17 | 43:05.37 | 1:20.60 | 193912 | 199971
18 | 44:26.22 | 1:36.18 | 199972 | 207189
19 | 46:02.40 | 3:16.02 | 207190 | 221891
20 | 49:18.42 | 2:58.08 | 221892 | 235249
21 | 52:16.50 | 3:16.02 | 235250 | 249951
22 | 55:32.52 | 2:42.53 | 249952 | 262154
23 | 58:15.30 | 2:31.65 | 262155 | 273544
24 | 60:47.20 | 2:32.72 | 273545 | 285016
25 | 63:20.17 | 2:37.68 | 285017 | 296859
26 | 65:58.10 | 2:47.60 | 296860 | 309444
27 | 68:45.70 | 2:45.02 | 309445 | 321821
28 | 71:30.72 | 2:42.45 | 321822 | 334016


Track 1

Filename C:\Users\Ken\Documents\THE ULTIMATE COLLECTION\The Beatles - The Ultimate Collection Volume 2 (YBD 201-204)\YBD 201 - Live Live Live\01 - Interview Swedish Radio.wav

Pre-gap length 0:00:02.00

Peak level 64.0 %
Track quality 99.8 %
Copy CRC 17327591
Track not present in AccurateRip database
Copy OK

Track 2

Filename C:\Users\Ken\Documents\THE ULTIMATE COLLECTION\The Beatles - The Ultimate Collection Volume 2 (YBD 201-204)\YBD 201 - Live Live Live\02 - Intro,I Saw Her Standing There (Karlaplansstudion,Stockholm).wav

Peak level 75.4 %
Track quality 100.0 %
Copy CRC 1E3C3056
Track not present in AccurateRip database
Copy OK

Track 3

Filename C:\Users\Ken\Documents\THE ULTIMATE COLLECTION\The Beatles - The Ultimate Collection Volume 2 (YBD 201-204)\YBD 201 - Live Live Live\03 - From Me To You (Karlaplansstudion,Stockholm).wav

Peak level 77.6 %
Track quality 100.0 %
Copy CRC 1CDE4A04
Track not present in AccurateRip database
Copy OK

Track 4

Filename C:\Users\Ken\Documents\THE ULTIMATE COLLECTION\The Beatles - The Ultimate Collection Volume 2 (YBD 201-204)\YBD 201 - Live Live Live\04 - Money (Karlaplansstudion,Stockholm).wav

Peak level 79.6 %
Track quality 99.8 %
Copy CRC C114982D
Track not present in AccurateRip database
Copy OK

Track 5

Filename C:\Users\Ken\Documents\THE ULTIMATE COLLECTION\The Beatles - The Ultimate Collection Volume 2 (YBD 201-204)\YBD 201 - Live Live Live\05 - Roll Over Beethoven (Karlaplansstudion,Stockholm).wav

Peak level 76.3 %
Track quality 100.0 %
Copy CRC B4B80EC4
Track not present in AccurateRip database
Copy OK

Track 6

Filename C:\Users\Ken\Documents\THE ULTIMATE COLLECTION\The Beatles - The Ultimate Collection Volume 2 (YBD 201-204)\YBD 201 - Live Live Live\06 - You Really Got A Hold On Me (Karlaplansstudion,Stockholm).wav

Peak level 78.8 %
Track quality 100.0 %
Copy CRC 5A3DC8B2
Track not present in AccurateRip database
Copy OK

Track 7

Filename C:\Users\Ken\Documents\THE ULTIMATE COLLECTION\The Beatles - The Ultimate Collection Volume 2 (YBD 201-204)\YBD 201 - Live Live Live\07 - She Lover You (Karlaplansstudion,Stockholm).wav

Peak level 78.5 %
Track quality 100.0 %
Copy CRC 4A585243
Track not present in AccurateRip database
Copy OK

Track 8

Filename C:\Users\Ken\Documents\THE ULTIMATE COLLECTION\The Beatles - The Ultimate Collection Volume 2 (YBD 201-204)\YBD 201 - Live Live Live\08 - Twist And Shout (Karlaplansstudion,Stockholm).wav

Peak level 73.0 %
Track quality 99.8 %
Copy CRC 3259D9C7
Track not present in AccurateRip database
Copy OK

Track 9

Filename C:\Users\Ken\Documents\THE ULTIMATE COLLECTION\The Beatles - The Ultimate Collection Volume 2 (YBD 201-204)\YBD 201 - Live Live Live\09 - I'm a Loser (Palais des Sports,Paris).wav

Pre-gap length 0:00:01.67

Peak level 75.7 %
Track quality 100.0 %
Copy CRC E9CD219C
Track not present in AccurateRip database
Copy OK

Track 10

Filename C:\Users\Ken\Documents\THE ULTIMATE COLLECTION\The Beatles - The Ultimate Collection Volume 2 (YBD 201-204)\YBD 201 - Live Live Live\10 - Can't Buy Me Love (Palais des Sports,Paris).wav

Peak level 74.2 %
Track quality 100.0 %
Copy CRC EEF1EA29
Accurately ripped (confidence 2) [113C404D]
Copy OK

Track 11

Filename C:\Users\Ken\Documents\THE ULTIMATE COLLECTION\The Beatles - The Ultimate Collection Volume 2 (YBD 201-204)\YBD 201 - Live Live Live\11 - I Wanna Be Your Man (Palais des Sports,Paris).wav

Peak level 73.5 %
Track quality 99.8 %
Copy CRC 6ADCD12D
Accurately ripped (confidence 2) [D4EACB37]
Copy OK

Track 12

Filename C:\Users\Ken\Documents\THE ULTIMATE COLLECTION\The Beatles - The Ultimate Collection Volume 2 (YBD 201-204)\YBD 201 - Live Live Live\12 - A Hard Days Night (Palais des Sports,Paris).wav

Peak level 73.0 %
Track quality 100.0 %
Copy CRC 9BAF7C14
Accurately ripped (confidence 2) [05287E28]
Copy OK

Track 13

Filename C:\Users\Ken\Documents\THE ULTIMATE COLLECTION\The Beatles - The Ultimate Collection Volume 2 (YBD 201-204)\YBD 201 - Live Live Live\13 - Rock And Roll Music (Palais des Sports,Paris).wav

Peak level 70.0 %
Track quality 99.8 %
Copy CRC F462029B
Accurately ripped (confidence 2) [5F9D8BDC]
Copy OK

Track 14

Filename C:\Users\Ken\Documents\THE ULTIMATE COLLECTION\The Beatles - The Ultimate Collection Volume 2 (YBD 201-204)\YBD 201 - Live Live Live\14 - I Feel Fine (Palais des Sports,Paris).wav

Peak level 72.3 %
Track quality 99.8 %
Copy CRC 2F8ED33B
Track not present in AccurateRip database
Copy OK

Track 15

Filename C:\Users\Ken\Documents\THE ULTIMATE COLLECTION\The Beatles - The Ultimate Collection Volume 2 (YBD 201-204)\YBD 201 - Live Live Live\15 - Ticket To Ride (Palais des Sports,Paris).wav

Peak level 72.4 %
Track quality 100.0 %
Copy CRC 1C6B5763
Accurately ripped (confidence 2) [6A17449B]
Copy OK

Track 16

Filename C:\Users\Ken\Documents\THE ULTIMATE COLLECTION\The Beatles - The Ultimate Collection Volume 2 (YBD 201-204)\YBD 201 - Live Live Live\16 - Long Tall Sally (Palais des Sports,Paris).wav

Peak level 72.1 %
Track quality 100.0 %
Copy CRC E83032DA
Track not present in AccurateRip database
Copy OK

Track 17

Filename C:\Users\Ken\Documents\THE ULTIMATE COLLECTION\The Beatles - The Ultimate Collection Volume 2 (YBD 201-204)\YBD 201 - Live Live Live\17 - Intro (Budokan Hall,Tokyo).wav

Pre-gap length 0:00:01.42

Peak level 61.5 %
Track quality 100.0 %
Copy CRC 9484429B
Track not present in AccurateRip database
Copy OK

Track 18

Filename C:\Users\Ken\Documents\THE ULTIMATE COLLECTION\The Beatles - The Ultimate Collection Volume 2 (YBD 201-204)\YBD 201 - Live Live Live\18 - Rock And Roll Music (Budokan Hall,Tokyo).wav

Peak level 72.3 %
Track quality 99.7 %
Copy CRC 41DC3648
Track not present in AccurateRip database
Copy OK

Track 19

Filename C:\Users\Ken\Documents\THE ULTIMATE COLLECTION\The Beatles - The Ultimate Collection Volume 2 (YBD 201-204)\YBD 201 - Live Live Live\19 - She's A Woman (Budokan Hall,Tokyo).wav

Peak level 72.3 %
Track quality 99.8 %
Copy CRC 0DD9E2B8
Track not present in AccurateRip database
Copy OK

Track 20

Filename C:\Users\Ken\Documents\THE ULTIMATE COLLECTION\The Beatles - The Ultimate Collection Volume 2 (YBD 201-204)\YBD 201 - Live Live Live\20 - If I Needed Someone (Budokan Hall,Tokyo).wav

Peak level 70.3 %
Track quality 100.0 %
Copy CRC 5293A9D1
Track not present in AccurateRip database
Copy OK

Track 21

Filename C:\Users\Ken\Documents\THE ULTIMATE COLLECTION\The Beatles - The Ultimate Collection Volume 2 (YBD 201-204)\YBD 201 - Live Live Live\21 - Day Tripper (Budokan Hall,Tokyo).wav

Peak level 70.3 %
Track quality 99.8 %
Copy CRC CFB91A53
Track not present in AccurateRip database
Copy OK

Track 22

Filename C:\Users\Ken\Documents\THE ULTIMATE COLLECTION\The Beatles - The Ultimate Collection Volume 2 (YBD 201-204)\YBD 201 - Live Live Live\22 - Baby's In Black (Budokan Hall,Tokyo).wav

Peak level 70.3 %
Track quality 100.0 %
Copy CRC 161F2F1A
Track not present in AccurateRip database
Copy OK

Track 23

Filename C:\Users\Ken\Documents\THE ULTIMATE COLLECTION\The Beatles - The Ultimate Collection Volume 2 (YBD 201-204)\YBD 201 - Live Live Live\23 - I Feel Fine (Budokan Hall,Tokyo).wav

Peak level 71.5 %
Track quality 100.0 %
Copy CRC 590E92F0
Track not present in AccurateRip database
Copy OK

Track 24

Filename C:\Users\Ken\Documents\THE ULTIMATE COLLECTION\The Beatles - The Ultimate Collection Volume 2 (YBD 201-204)\YBD 201 - Live Live Live\24 - Yesterday (Budokan Hall,Tokyo).wav

Peak level 71.8 %
Track quality 100.0 %
Copy CRC D388093C
Track not present in AccurateRip database
Copy OK

Track 25

Filename C:\Users\Ken\Documents\THE ULTIMATE COLLECTION\The Beatles - The Ultimate Collection Volume 2 (YBD 201-204)\YBD 201 - Live Live Live\25 - I Wanna Be Your Man (Budokan Hall,Tokyo).wav

Peak level 68.8 %
Track quality 100.0 %
Copy CRC 3126A66C
Track not present in AccurateRip database
Copy OK

Track 26

Filename C:\Users\Ken\Documents\THE ULTIMATE COLLECTION\The Beatles - The Ultimate Collection Volume 2 (YBD 201-204)\YBD 201 - Live Live Live\26 - Nowhere Man (Budokan Hall,Tokyo).wav

Peak level 72.8 %
Track quality 100.0 %
Copy CRC D736819B
Track not present in AccurateRip database
Copy OK

Track 27

Filename C:\Users\Ken\Documents\THE ULTIMATE COLLECTION\The Beatles - The Ultimate Collection Volume 2 (YBD 201-204)\YBD 201 - Live Live Live\27 - Paperback Writer (Budokan Hall,Tokyo).wav

Peak level 72.4 %
Track quality 100.0 %
Copy CRC 765F3897
Track not present in AccurateRip database
Copy OK

Track 28

Filename C:\Users\Ken\Documents\THE ULTIMATE COLLECTION\The Beatles - The Ultimate Collection Volume 2 (YBD 201-204)\YBD 201 - Live Live Live\28 - I'm Down (Budokan Hall,Tokyo).wav

Peak level 72.1 %
Track quality 100.0 %
Copy CRC A488BFC4
Track not present in AccurateRip database
Copy OK


5 track(s) accurately ripped
23 track(s) not present in the AccurateRip database

Some tracks could not be verified as accurate

No errors occurred

End of status report
Exact Audio Copy V0.99 prebeta 4 from 23. January 2008

EAC extraction logfile from 16. May 2010, 0:07

The Beatles / Studio 2 Sessions at Abbey Road, Vol. 1

Used drive : Optiarc DVD RW AD-5540A Adapter: 0 ID: 0

Read mode : Secure
Utilize accurate stream : Yes
Defeat audio cache : No
Make use of C2 pointers : Yes

Read offset correction : 48
Overread into Lead-In and Lead-Out : No
Fill up missing offset samples with silence : Yes
Delete leading and trailing silent blocks : No
Null samples used in CRC calculations : Yes
Used interface : Native Win32 interface for Win NT & 2000
Gap handling : Appended to previous track

Used output format : Internal WAV Routines
Sample format : 44.100 Hz; 16 Bit; Stereo


TOC of the extracted CD

Track | Start | Length | Start sector | End sector
––––––––––––––––––––––––––––-
1 | 0:00.00 | 2:10.28 | 0 | 9777
2 | 2:10.28 | 2:07.00 | 9778 | 19302
3 | 4:17.28 | 2:13.70 | 19303 | 29347
4 | 6:31.23 | 2:21.70 | 29348 | 39992
5 | 8:53.18 | 2:46.55 | 39993 | 52497
6 | 11:39.73 | 2:06.35 | 52498 | 61982
7 | 13:46.33 | 2:03.07 | 61983 | 71214
8 | 15:49.40 | 3:05.63 | 71215 | 85152
9 | 18:55.28 | 3:12.17 | 85153 | 99569
10 | 22:07.45 | 2:24.60 | 99570 | 110429
11 | 24:32.30 | 4:57.08 | 110430 | 132712
12 | 29:29.38 | 2:40.42 | 132713 | 144754
13 | 32:10.05 | 2:06.68 | 144755 | 154272
14 | 34:16.73 | 2:12.40 | 154273 | 164212
15 | 36:29.38 | 2:13.65 | 164213 | 174252
16 | 38:43.28 | 2:07.57 | 174253 | 183834
17 | 40:51.10 | 2:29.65 | 183835 | 195074
18 | 43:21.00 | 3:03.68 | 195075 | 208867
19 | 46:24.68 | 3:41.47 | 208868 | 225489
20 | 50:06.40 | 2:02.70 | 225490 | 234709
21 | 52:09.35 | 4:51.15 | 234710 | 256549
22 | 57:00.50 | 2:24.68 | 256550 | 267417


Track 1

Filename C:\Users\Ken\Documents\THE ULTIMATE COLLECTION\The Beatles - The Ultimate Collection Volume 2 (YBD 201-204)\YBD 202 - Studio Sessions (Feb 11th 1963)\01 - There's A Place, Take 1.wav

Pre-gap length 0:00:02.00

Peak level 70.8 %
Track quality 99.8 %
Copy CRC BF4E1E08
Track not present in AccurateRip database
Copy OK

Track 2

Filename C:\Users\Ken\Documents\THE ULTIMATE COLLECTION\The Beatles - The Ultimate Collection Volume 2 (YBD 201-204)\YBD 202 - Studio Sessions (Feb 11th 1963)\02 - There's A Place, Take 2.wav

Peak level 71.7 %
Track quality 100.0 %
Copy CRC F37839FE
Track not present in AccurateRip database
Copy OK

Track 3

Filename C:\Users\Ken\Documents\THE ULTIMATE COLLECTION\The Beatles - The Ultimate Collection Volume 2 (YBD 201-204)\YBD 202 - Studio Sessions (Feb 11th 1963)\03 - There's A Place, Takes 3-4.wav

Peak level 66.3 %
Track quality 100.0 %
Copy CRC 916111F6
Track not present in AccurateRip database
Copy OK

Track 4

Filename C:\Users\Ken\Documents\THE ULTIMATE COLLECTION\The Beatles - The Ultimate Collection Volume 2 (YBD 201-204)\YBD 202 - Studio Sessions (Feb 11th 1963)\04 - There's A Place, Takes 5-6.wav

Peak level 77.1 %
Track quality 100.0 %
Copy CRC 043A49A4
Track not present in AccurateRip database
Copy OK

Track 5

Filename C:\Users\Ken\Documents\THE ULTIMATE COLLECTION\The Beatles - The Ultimate Collection Volume 2 (YBD 201-204)\YBD 202 - Studio Sessions (Feb 11th 1963)\05 - There's A Place, Takes 7-8.wav

Peak level 81.3 %
Track quality 100.0 %
Copy CRC 4417B255
Track not present in AccurateRip database
Copy OK

Track 6

Filename C:\Users\Ken\Documents\THE ULTIMATE COLLECTION\The Beatles - The Ultimate Collection Volume 2 (YBD 201-204)\YBD 202 - Studio Sessions (Feb 11th 1963)\06 - There's A Place, Take 9.wav

Peak level 80.1 %
Track quality 100.0 %
Copy CRC 5C85FEF1
Track not present in AccurateRip database
Copy OK

Track 7

Filename C:\Users\Ken\Documents\THE ULTIMATE COLLECTION\The Beatles - The Ultimate Collection Volume 2 (YBD 201-204)\YBD 202 - Studio Sessions (Feb 11th 1963)\07 - There's A Place, Takes 10-13.wav

Peak level 86.0 %
Track quality 100.0 %
Copy CRC CD165424
Track not present in AccurateRip database
Copy OK

Track 8

Filename C:\Users\Ken\Documents\THE ULTIMATE COLLECTION\The Beatles - The Ultimate Collection Volume 2 (YBD 201-204)\YBD 202 - Studio Sessions (Feb 11th 1963)\08 - I Saw Her Standing There, Take 1.wav

Peak level 92.8 %
Track quality 99.8 %
Copy CRC 07BA1DE0
Track not present in AccurateRip database
Copy OK

Track 9

Filename C:\Users\Ken\Documents\THE ULTIMATE COLLECTION\The Beatles - The Ultimate Collection Volume 2 (YBD 201-204)\YBD 202 - Studio Sessions (Feb 11th 1963)\09 - I Saw Her Standing There, Take 2.wav

Peak level 91.0 %
Track quality 100.0 %
Copy CRC 446E0D97
Track not present in AccurateRip database
Copy OK

Track 10

Filename C:\Users\Ken\Documents\THE ULTIMATE COLLECTION\The Beatles - The Ultimate Collection Volume 2 (YBD 201-204)\YBD 202 - Studio Sessions (Feb 11th 1963)\10 - I Saw Her Standing There, Takes 3-5.wav

Peak level 87.3 %
Track quality 100.0 %
Copy CRC DD750D39
Track not present in AccurateRip database
Copy OK

Track 11

Filename C:\Users\Ken\Documents\THE ULTIMATE COLLECTION\The Beatles - The Ultimate Collection Volume 2 (YBD 201-204)\YBD 202 - Studio Sessions (Feb 11th 1963)\11 - I Saw Her Standing There, Takes 6-9.wav

Peak level 84.4 %
Track quality 100.0 %
Copy CRC 94D3EC46
Track not present in AccurateRip database
Copy OK

Track 12

Filename C:\Users\Ken\Documents\THE ULTIMATE COLLECTION\The Beatles - The Ultimate Collection Volume 2 (YBD 201-204)\YBD 202 - Studio Sessions (Feb 11th 1963)\12 - Do You Want To Know A Secret, Take 7.wav

Peak level 73.7 %
Track quality 100.0 %
Copy CRC 95DE9CE3
Track not present in AccurateRip database
Copy OK

Track 13

Filename C:\Users\Ken\Documents\THE ULTIMATE COLLECTION\The Beatles - The Ultimate Collection Volume 2 (YBD 201-204)\YBD 202 - Studio Sessions (Feb 11th 1963)\13 - Do You Want To Know A Secret, Take 8.wav

Peak level 72.0 %
Track quality 100.0 %
Copy CRC E77E39F0
Track not present in AccurateRip database
Copy OK

Track 14

Filename C:\Users\Ken\Documents\THE ULTIMATE COLLECTION\The Beatles - The Ultimate Collection Volume 2 (YBD 201-204)\YBD 202 - Studio Sessions (Feb 11th 1963)\14 - A Taste Of Honey, Take 6.wav

Peak level 75.6 %
Track quality 100.0 %
Copy CRC 67D58607
Track not present in AccurateRip database
Copy OK

Track 15

Filename C:\Users\Ken\Documents\THE ULTIMATE COLLECTION\The Beatles - The Ultimate Collection Volume 2 (YBD 201-204)\YBD 202 - Studio Sessions (Feb 11th 1963)\15 - A Taste Of Honey, Take 7.wav

Peak level 78.1 %
Track quality 99.8 %
Copy CRC 8940AD3F
Track not present in AccurateRip database
Copy OK

Track 16

Filename C:\Users\Ken\Documents\THE ULTIMATE COLLECTION\The Beatles - The Ultimate Collection Volume 2 (YBD 201-204)\YBD 202 - Studio Sessions (Feb 11th 1963)\16 - There's A Place, Take 11.wav

Peak level 66.0 %
Track quality 100.0 %
Copy CRC 31B0410F
Track not present in AccurateRip database
Copy OK

Track 17

Filename C:\Users\Ken\Documents\THE ULTIMATE COLLECTION\The Beatles - The Ultimate Collection Volume 2 (YBD 201-204)\YBD 202 - Studio Sessions (Feb 11th 1963)\17 - There's A Place, Takes 12-13.wav

Peak level 68.8 %
Track quality 100.0 %
Copy CRC 4F763939
Track not present in AccurateRip database
Copy OK

Track 18

Filename C:\Users\Ken\Documents\THE ULTIMATE COLLECTION\The Beatles - The Ultimate Collection Volume 2 (YBD 201-204)\YBD 202 - Studio Sessions (Feb 11th 1963)\18 - I Saw Her Standing There, Take 10.wav

Peak level 76.2 %
Track quality 99.8 %
Copy CRC 37BD2A90
Track not present in AccurateRip database
Copy OK

Track 19

Filename C:\Users\Ken\Documents\THE ULTIMATE COLLECTION\The Beatles - The Ultimate Collection Volume 2 (YBD 201-204)\YBD 202 - Studio Sessions (Feb 11th 1963)\19 - I Saw Her Standing There, Takes 11-12.wav

Peak level 76.7 %
Track quality 100.0 %
Copy CRC 9E68503B
Track not present in AccurateRip database
Copy OK

Track 20

Filename C:\Users\Ken\Documents\THE ULTIMATE COLLECTION\The Beatles - The Ultimate Collection Volume 2 (YBD 201-204)\YBD 202 - Studio Sessions (Feb 11th 1963)\20 - Misery, Take 1.wav

Peak level 75.6 %
Track quality 100.0 %
Copy CRC EDEAEEB0
Track not present in AccurateRip database
Copy OK

Track 21

Filename C:\Users\Ken\Documents\THE ULTIMATE COLLECTION\The Beatles - The Ultimate Collection Volume 2 (YBD 201-204)\YBD 202 - Studio Sessions (Feb 11th 1963)\21 - Misery, Takes 2-6.wav

Peak level 78.3 %
Track quality 100.0 %
Copy CRC 179B8138
Track not present in AccurateRip database
Copy OK

Track 22

Filename C:\Users\Ken\Documents\THE ULTIMATE COLLECTION\The Beatles - The Ultimate Collection Volume 2 (YBD 201-204)\YBD 202 - Studio Sessions (Feb 11th 1963)\22 - Misery, Takes 7-8.wav

Peak level 77.0 %
Track quality 100.0 %
Copy CRC BD529EE9
Track not present in AccurateRip database
Copy OK


None of the tracks are present in the AccurateRip database

No errors occurred

End of status report
Exact Audio Copy V0.99 prebeta 4 from 23. January 2008

EAC extraction logfile from 16. May 2010, 0:14

The Beatles / Studio 2 Sessions at Abbey Road, Vol. 2

Used drive : Optiarc DVD RW AD-5540A Adapter: 0 ID: 0

Read mode : Secure
Utilize accurate stream : Yes
Defeat audio cache : No
Make use of C2 pointers : Yes

Read offset correction : 48
Overread into Lead-In and Lead-Out : No
Fill up missing offset samples with silence : Yes
Delete leading and trailing silent blocks : No
Null samples used in CRC calculations : Yes
Used interface : Native Win32 interface for Win NT & 2000
Gap handling : Appended to previous track

Used output format : Internal WAV Routines
Sample format : 44.100 Hz; 16 Bit; Stereo


TOC of the extracted CD

Track | Start | Length | Start sector | End sector
––––––––––––––––––––––––––––-
1 | 0:00.00 | 3:32.35 | 0 | 15934
2 | 3:32.35 | 1:57.67 | 15935 | 24776
3 | 5:30.27 | 1:54.00 | 24777 | 33326
4 | 7:24.27 | 2:18.15 | 33327 | 43691
5 | 9:42.42 | 2:19.65 | 43692 | 54181
6 | 12:02.32 | 2:12.45 | 54182 | 64126
7 | 14:15.02 | 2:37.65 | 64127 | 75966
8 | 16:52.67 | 2:08.30 | 75967 | 85596
9 | 19:01.22 | 2:23.00 | 85597 | 96321
10 | 21:24.22 | 4:07.40 | 96322 | 114886
11 | 25:31.62 | 2:13.68 | 114887 | 124929
12 | 27:45.55 | 1:55.32 | 124930 | 133586
13 | 29:41.12 | 4:27.00 | 133587 | 153611
14 | 34:08.12 | 5:41.43 | 153612 | 179229
15 | 39:49.55 | 2:44.62 | 179230 | 191591
16 | 42:34.42 | 4:04.10 | 191592 | 209901
17 | 46:38.52 | 3:03.58 | 209902 | 223684
18 | 49:42.35 | 1:56.42 | 223685 | 232426
19 | 51:39.02 | 2:52.65 | 232427 | 245391
20 | 54:31.67 | 2:52.60 | 245392 | 258351
21 | 57:24.52 | 3:55.65 | 258352 | 276041


Track 1

Filename C:\Users\Ken\Documents\THE ULTIMATE COLLECTION\The Beatles - The Ultimate Collection Volume 2 (YBD 201-204)\YBD 203 - Studio Sessions (March 5th & Sept 12th 1963)\01 - From Me To You, Takes 1-2.wav

Pre-gap length 0:00:02.00

Peak level 68.5 %
Track quality 100.0 %
Copy CRC F0C37100
Accurately ripped (confidence 2) [B1ACA172]
Copy OK

Track 2

Filename C:\Users\Ken\Documents\THE ULTIMATE COLLECTION\The Beatles - The Ultimate Collection Volume 2 (YBD 201-204)\YBD 203 - Studio Sessions (March 5th & Sept 12th 1963)\02 - From Me To You, Take 3.wav

Peak level 70.1 %
Track quality 100.0 %
Copy CRC A5C6CBFA
Accurately ripped (confidence 2) [BF06147E]
Copy OK

Track 3

Filename C:\Users\Ken\Documents\THE ULTIMATE COLLECTION\The Beatles - The Ultimate Collection Volume 2 (YBD 201-204)\YBD 203 - Studio Sessions (March 5th & Sept 12th 1963)\03 - From Me To You, Take 4.wav

Peak level 78.9 %
Track quality 100.0 %
Copy CRC 4D0F3BEA
Accurately ripped (confidence 2) [25B19598]
Copy OK

Track 4

Filename C:\Users\Ken\Documents\THE ULTIMATE COLLECTION\The Beatles - The Ultimate Collection Volume 2 (YBD 201-204)\YBD 203 - Studio Sessions (March 5th & Sept 12th 1963)\04 - From Me To You, Take 5.wav

Peak level 84.7 %
Track quality 100.0 %
Copy CRC 2FACD87C
Accurately ripped (confidence 2) [EDE92844]
Copy OK

Track 5

Filename C:\Users\Ken\Documents\THE ULTIMATE COLLECTION\The Beatles - The Ultimate Collection Volume 2 (YBD 201-204)\YBD 203 - Studio Sessions (March 5th & Sept 12th 1963)\05 - From Me To You, Takes 6-7.wav

Peak level 86.9 %
Track quality 100.0 %
Copy CRC D8D7FBBD
Accurately ripped (confidence 2) [010A9AFD]
Copy OK

Track 6

Filename C:\Users\Ken\Documents\THE ULTIMATE COLLECTION\The Beatles - The Ultimate Collection Volume 2 (YBD 201-204)\YBD 203 - Studio Sessions (March 5th & Sept 12th 1963)\06 - Thank You Girl, Take 1.wav

Peak level 75.7 %
Track quality 99.8 %
Copy CRC 703E91FE
Accurately ripped (confidence 2) [0AB40C4E]
Copy OK

Track 7

Filename C:\Users\Ken\Documents\THE ULTIMATE COLLECTION\The Beatles - The Ultimate Collection Volume 2 (YBD 201-204)\YBD 203 - Studio Sessions (March 5th & Sept 12th 1963)\07 - Thank You Girl, Takes 2-4.wav

Peak level 69.5 %
Track quality 100.0 %
Copy CRC 1F2E48C9
Accurately ripped (confidence 2) [3B184476]
Copy OK

Track 8

Filename C:\Users\Ken\Documents\THE ULTIMATE COLLECTION\The Beatles - The Ultimate Collection Volume 2 (YBD 201-204)\YBD 203 - Studio Sessions (March 5th & Sept 12th 1963)\08 - Thank You Girl, Take 5.wav

Peak level 66.1 %
Track quality 100.0 %
Copy CRC 653B25BF
Accurately ripped (confidence 2) [F773ADE2]
Copy OK

Track 9

Filename C:\Users\Ken\Documents\THE ULTIMATE COLLECTION\The Beatles - The Ultimate Collection Volume 2 (YBD 201-204)\YBD 203 - Studio Sessions (March 5th & Sept 12th 1963)\09 - Thank You Girl, Take 6.wav

Peak level 73.2 %
Track quality 100.0 %
Copy CRC D35EFD09
Accurately ripped (confidence 2) [537CC052]
Copy OK

Track 10

Filename C:\Users\Ken\Documents\THE ULTIMATE COLLECTION\The Beatles - The Ultimate Collection Volume 2 (YBD 201-204)\YBD 203 - Studio Sessions (March 5th & Sept 12th 1963)\10 - Thank You Girl, Takes 7-13 (edit pieces).wav

Peak level 78.5 %
Track quality 100.0 %
Copy CRC CA68A05A
Accurately ripped (confidence 2) [9ADA41D9]
Copy OK

Track 11

Filename C:\Users\Ken\Documents\THE ULTIMATE COLLECTION\The Beatles - The Ultimate Collection Volume 2 (YBD 201-204)\YBD 203 - Studio Sessions (March 5th & Sept 12th 1963)\11 - From Me To You, Take 8.wav

Peak level 58.3 %
Track quality 100.0 %
Copy CRC A19D650C
Accurately ripped (confidence 2) [8371EE34]
Copy OK

Track 12

Filename C:\Users\Ken\Documents\THE ULTIMATE COLLECTION\The Beatles - The Ultimate Collection Volume 2 (YBD 201-204)\YBD 203 - Studio Sessions (March 5th & Sept 12th 1963)\12 - From Me To You, Takes 9-13.wav

Peak level 62.5 %
Track quality 100.0 %
Copy CRC 5B8F2067
Accurately ripped (confidence 2) [987C7077]
Copy OK

Track 13

Filename C:\Users\Ken\Documents\THE ULTIMATE COLLECTION\The Beatles - The Ultimate Collection Volume 2 (YBD 201-204)\YBD 203 - Studio Sessions (March 5th & Sept 12th 1963)\13 - One After 909, Takes 1-2.wav

Peak level 85.0 %
Track quality 100.0 %
Copy CRC 993AB629
Accurately ripped (confidence 2) [D4E6E7E3]
Copy OK

Track 14

Filename C:\Users\Ken\Documents\THE ULTIMATE COLLECTION\The Beatles - The Ultimate Collection Volume 2 (YBD 201-204)\YBD 203 - Studio Sessions (March 5th & Sept 12th 1963)\14 - One After 909, Takes 3-5.wav

Peak level 90.1 %
Track quality 100.0 %
Copy CRC 173F7513
Accurately ripped (confidence 2) [0BE30DA9]
Copy OK

Track 15

Filename C:\Users\Ken\Documents\THE ULTIMATE COLLECTION\The Beatles - The Ultimate Collection Volume 2 (YBD 201-204)\YBD 203 - Studio Sessions (March 5th & Sept 12th 1963)\15 - Hold Me Tight, Take 21.wav

Peak level 86.7 %
Track quality 100.0 %
Copy CRC 59DA1DC4
Accurately ripped (confidence 2) [1F309296]
Copy OK

Track 16

Filename C:\Users\Ken\Documents\THE ULTIMATE COLLECTION\The Beatles - The Ultimate Collection Volume 2 (YBD 201-204)\YBD 203 - Studio Sessions (March 5th & Sept 12th 1963)\16 - Hold Me Tight, Takes 22-24.wav

Peak level 85.7 %
Track quality 99.9 %
Copy CRC 83D09B40
Accurately ripped (confidence 2) [B74A8832]
Copy OK

Track 17

Filename C:\Users\Ken\Documents\THE ULTIMATE COLLECTION\The Beatles - The Ultimate Collection Volume 2 (YBD 201-204)\YBD 203 - Studio Sessions (March 5th & Sept 12th 1963)\17 - Hold Me Tight, Takes 25-26.wav

Peak level 85.4 %
Track quality 100.0 %
Copy CRC FC9B765E
Accurately ripped (confidence 2) [01A660AE]
Copy OK

Track 18

Filename C:\Users\Ken\Documents\THE ULTIMATE COLLECTION\The Beatles - The Ultimate Collection Volume 2 (YBD 201-204)\YBD 203 - Studio Sessions (March 5th & Sept 12th 1963)\18 - Hold Me Tight, Takes 27-28.wav

Peak level 79.3 %
Track quality 100.0 %
Copy CRC 19309849
Accurately ripped (confidence 2) [E1CD43A2]
Copy OK

Track 19

Filename C:\Users\Ken\Documents\THE ULTIMATE COLLECTION\The Beatles - The Ultimate Collection Volume 2 (YBD 201-204)\YBD 203 - Studio Sessions (March 5th & Sept 12th 1963)\19 - Hold Me Tight, Take 29.wav

Peak level 75.8 %
Track quality 100.0 %
Copy CRC 5C29245E
Accurately ripped (confidence 2) [A46E64D3]
Copy OK

Track 20

Filename C:\Users\Ken\Documents\THE ULTIMATE COLLECTION\The Beatles - The Ultimate Collection Volume 2 (YBD 201-204)\YBD 203 - Studio Sessions (March 5th & Sept 12th 1963)\20 - Don't Bother Me, Take 10.wav

Peak level 86.7 %
Track quality 100.0 %
Copy CRC C4354C04
Accurately ripped (confidence 2) [67C865AA]
Copy OK

Track 21

Filename C:\Users\Ken\Documents\THE ULTIMATE COLLECTION\The Beatles - The Ultimate Collection Volume 2 (YBD 201-204)\YBD 203 - Studio Sessions (March 5th & Sept 12th 1963)\21 - Don't Bother Me, Takes 11-13.wav

Peak level 83.2 %
Track quality 99.9 %
Copy CRC 6ACBADD0
Accurately ripped (confidence 2) [CF57709C]
Copy OK


All tracks accurately ripped

No errors occurred

End of status report
Exact Audio Copy V0.99 prebeta 4 from 23. January 2008

EAC extraction logfile from 16. May 2010, 0:24

The Beatles / Ultimate Collection - Vol.2 Disc 4 - The 2nd Recording Hour of The Let It Be Sessions

Used drive : Optiarc DVD RW AD-5540A Adapter: 0 ID: 0

Read mode : Secure
Utilize accurate stream : Yes
Defeat audio cache : No
Make use of C2 pointers : Yes

Read offset correction : 48
Overread into Lead-In and Lead-Out : No
Fill up missing offset samples with silence : Yes
Delete leading and trailing silent blocks : No
Null samples used in CRC calculations : Yes
Used interface : Native Win32 interface for Win NT & 2000
Gap handling : Not detected, thus appended to previous track

Used output format : Internal WAV Routines
Sample format : 44.100 Hz; 16 Bit; Stereo


TOC of the extracted CD

Track | Start | Length | Start sector | End sector
––––––––––––––––––––––––––––-
1 | 0:00.00 | 16:07.63 | 0 | 72587
2 | 16:07.63 | 16:19.32 | 72588 | 146044
3 | 32:27.20 | 16:16.63 | 146045 | 219307
4 | 48:44.08 | 16:19.35 | 219308 | 292767


Track 1

Filename C:\Users\Ken\Documents\THE ULTIMATE COLLECTION\The Beatles - The Ultimate Collection Volume 2 (YBD 201-204)\YBD 204 - The 2nd Recorded Hour Of The Let It Be Sessions)\01 - Roll 5A.wav

Peak level 88.0 %
Track quality 100.0 %
Copy CRC BDE3E468
Cannot be verified as accurate (confidence 1) [9E1126E4], AccurateRip returned [8EEA54C8]
Copy OK

Track 2

Filename C:\Users\Ken\Documents\THE ULTIMATE COLLECTION\The Beatles - The Ultimate Collection Volume 2 (YBD 201-204)\YBD 204 - The 2nd Recorded Hour Of The Let It Be Sessions)\02 - Roll 6A.wav

Peak level 90.5 %
Track quality 100.0 %
Copy CRC 82BACC91
Cannot be verified as accurate (confidence 1) [58EE2CBC], AccurateRip returned [57A0D6B8]
Copy OK

Track 3

Filename C:\Users\Ken\Documents\THE ULTIMATE COLLECTION\The Beatles - The Ultimate Collection Volume 2 (YBD 201-204)\YBD 204 - The 2nd Recorded Hour Of The Let It Be Sessions)\03 - Roll 7A.wav

Peak level 94.1 %
Track quality 100.0 %
Copy CRC FF0AB499
Cannot be verified as accurate (confidence 1) [4243598C], AccurateRip returned [AC9E0944]
Copy OK

Track 4

Filename C:\Users\Ken\Documents\THE ULTIMATE COLLECTION\The Beatles - The Ultimate Collection Volume 2 (YBD 201-204)\YBD 204 - The 2nd Recorded Hour Of The Let It Be Sessions)\04 - Roll 8A.wav

Peak level 71.0 %
Track quality 99.9 %
Copy CRC 835958FC
Cannot be verified as accurate (confidence 1) [39E2084B], AccurateRip returned [FDAB63A2]
Copy OK


No tracks could be verified as accurate
You may have a different pressing from the one(s) in the database

No errors occurred

End of status report


Not my rip! All Thanks to original ripper!
No mirrors, please!

Welcome to My Blog!