Tags
Language
Tags

Emerson, Lake & Palmer - The Best Of Emerson, Lake & Palmer (1994)

Posted By: gribovar
Emerson, Lake & Palmer - The Best Of Emerson, Lake & Palmer (1994)

Emerson, Lake & Palmer - The Best Of Emerson, Lake & Palmer (1994)
EAC Rip | WavPack (image+.cue+log) - 515 MB | Covers - 39 MB
Genre: Progressive Rock | RAR 3% Rec. | Label: Victory Music (383 480 036-2)

It really includes most of their essential work in a single CD. Here are all their major singles, like the stunning version of Jerusalem but not only their most popular songs, it does include some stuff that would not be found in other best of, like the complete Tarkus Suite and the entire 8:54 minute Trilogy title track. All three band members were virtuosos and had a lot to show. This CD does them justice. Unlike a lot of this kind of albums, it does give a very good overview of one of prog´s most influential and important bands ever.

Tracklist:
01. From The Beginning
02. Jerusalem
03. Still… You Turn Me On
04. Fanfare For The Common Man (Single Version)
05. Knife Edge
06. Tarkus
07. Karn Evil 9
08. C'est La Vie
09. Hoedown
10. Trilogy
11. Honky Tonk Train Blues
12. Black Moon (Single Version)
13. Lucky Man
14. I Believe In Father Christmas (Original Single Version)

Total time: 01:16:48

Exact Audio Copy V1.0 beta 3 from 29. August 2011

EAC extraction logfile from 23. May 2013, 20:24

Emerson, Lake & Palmer / The Best Of

Used drive : HL-DT-STDVDRAM GH24NS90 Adapter: 1 ID: 1

Read mode : Secure
Utilize accurate stream : Yes
Defeat audio cache : Yes
Make use of C2 pointers : No

Read offset correction : 6
Overread into Lead-In and Lead-Out : No
Fill up missing offset samples with silence : Yes
Delete leading and trailing silent blocks : No
Null samples used in CRC calculations : Yes
Used interface : Native Win32 interface for Win NT & 2000

Used output format : Internal WAV Routines
Sample format : 44.100 Hz; 16 Bit; Stereo


TOC of the extracted CD

Track | Start | Length | Start sector | End sector
––––––––––––––––––––––––––––-
1 | 0:00.00 | 4:16.02 | 0 | 19201
2 | 4:16.02 | 2:47.50 | 19202 | 31776
3 | 7:03.52 | 2:55.00 | 31777 | 44901
4 | 9:58.52 | 2:59.53 | 44902 | 58379
5 | 12:58.30 | 5:07.17 | 58380 | 81421
6 | 18:05.47 | 20:42.25 | 81422 | 174596
7 | 38:47.72 | 4:46.13 | 174597 | 196059
8 | 43:34.10 | 4:19.10 | 196060 | 215494
9 | 47:53.20 | 3:46.62 | 215495 | 232506
10 | 51:40.07 | 8:53.63 | 232507 | 272544
11 | 60:33.70 | 3:11.50 | 272545 | 286919
12 | 63:45.45 | 4:49.32 | 286920 | 308626
13 | 68:35.02 | 4:40.65 | 308627 | 329691
14 | 73:15.67 | 3:31.70 | 329692 | 345586


Range status and errors

Selected range

Filename C:\Music CD\Emerson, Lake & Palmer - The Best Of.wav

Peak level 100.0 %
Extraction speed 2.1 X
Range quality 99.9 %
Test CRC 8551AE5D
Copy CRC 8551AE5D
Copy OK

No errors occurred


AccurateRip summary

Track 1 accurately ripped (confidence 2) [551D8315] (AR v2)
Track 2 accurately ripped (confidence 27) [AF538955] (AR v1)
Track 3 accurately ripped (confidence 30) [C2DF385C] (AR v1)
Track 4 accurately ripped (confidence 2) [C810DD66] (AR v2)
Track 5 accurately ripped (confidence 27) [C7538701] (AR v1)
Track 6 accurately ripped (confidence 2) [0C69A8A8] (AR v2)
Track 7 accurately ripped (confidence 27) [6503FB73] (AR v1)
Track 8 accurately ripped (confidence 3) [989E58A3] (AR v2)
Track 9 accurately ripped (confidence 27) [8281D252] (AR v1)
Track 10 accurately ripped (confidence 28) [CF02189B] (AR v1)
Track 11 accurately ripped (confidence 2) [E36E2EE5] (AR v2)
Track 12 accurately ripped (confidence 2) [993C7EE8] (AR v2)
Track 13 accurately ripped (confidence 27) [69D2886B] (AR v1)
Track 14 accurately ripped (confidence 2) [8F131159] (AR v2)

All tracks accurately ripped

End of status report

==== Log checksum 0E00CF08F881C2E00055D61B8A775168D77D76434EB10EFF873BBC4A5FDC3E68 ====

[CUETools log; Date: 10.07.2019 22:39:25; Version: 2.1.4]
[CTDB TOCID: B8.pWs1bCMYNYLZVgpLgsZ_RvtE-] found.
Track | CTDB Status
1 | (130/132) Accurately ripped
2 | (132/132) Accurately ripped
3 | (131/132) Accurately ripped
4 | (132/132) Accurately ripped
5 | (131/132) Accurately ripped
6 | (131/132) Accurately ripped
7 | (131/132) Accurately ripped
8 | (131/132) Accurately ripped
9 | (132/132) Accurately ripped
10 | (131/132) Accurately ripped
11 | (131/132) Accurately ripped
12 | (131/132) Accurately ripped
13 | (131/132) Accurately ripped
14 | (130/132) Accurately ripped
[AccurateRip ID: 0027a351-01b15fe7-c511ff0e] found.
Track [ CRC | V2 ] Status
01 [c876eccc|551d8315] (30+35/97) Accurately ripped
02 [af538955|29f6ff23] (28+34/94) Accurately ripped
03 [c2df385c|101e68c6] (31+34/96) Accurately ripped
04 [75112eea|c810dd66] (29+35/96) Accurately ripped
05 [c7538701|a6130e99] (28+35/95) Accurately ripped
06 [e9ef5cef|0c69a8a8] (29+36/95) Accurately ripped
07 [6503fb73|339f8fd6] (28+35/94) Accurately ripped
08 [a7abacd8|989e58a3] (30+36/97) Accurately ripped
09 [8281d252|ebd4b549] (28+34/93) Accurately ripped
10 [cf02189b|bff65198] (29+34/94) Accurately ripped
11 [203779d8|e36e2ee5] (29+35/95) Accurately ripped
12 [17679153|993c7ee8] (28+35/94) Accurately ripped
13 [69d2886b|3740354d] (28+33/91) Accurately ripped
14 [5d45822d|8f131159] (28+34/93) Accurately ripped
Offsetted by -2253:
01 [df474731] (02/97) Accurately ripped
02 [e1f106b2] (02/94) Accurately ripped
03 [d770d290] (02/96) Accurately ripped
04 [644c2d5d] (02/96) Accurately ripped
05 [1be3f64d] (02/95) Accurately ripped
06 [c90d2fc5] (02/95) Accurately ripped
07 [6def1328] (02/94) Accurately ripped
08 [fc3d0e48] (02/97) Accurately ripped
09 [24349820] (02/93) Accurately ripped
10 [04331686] (02/94) Accurately ripped
11 [80802278] (02/95) Accurately ripped
12 [d1b91b33] (02/94) Accurately ripped
13 [7e07ca5e] (02/91) Accurately ripped
14 [7e573a52] (02/93) Accurately ripped
Offsetted by -2144:
01 [2b53b22c] (03/97) Accurately ripped
02 [a25c9fb5] (03/94) Accurately ripped
03 [14b679dc] (03/96) Accurately ripped
04 [0ec0be8a] (03/96) Accurately ripped
05 [870a1581] (03/95) Accurately ripped
06 [6d951e2f] (03/95) Accurately ripped
07 [bf5036d3] (03/94) Accurately ripped
08 [46e3ded8] (03/97) Accurately ripped
09 [fd79e492] (03/93) Accurately ripped
10 [68af693b] (03/94) Accurately ripped
11 [1f3ca5d8] (03/95) Accurately ripped
12 [9b251553] (03/94) Accurately ripped
13 [a28ca80b] (03/91) Accurately ripped
14 [72f80f8d] (03/93) Accurately ripped
Offsetted by -1287:
01 [d373919b] (03/97) Accurately ripped
02 [924a4e0c] (03/94) Accurately ripped
03 [33859178] (03/96) Accurately ripped
04 [ab3b67a3] (03/96) Accurately ripped
05 [fe1bfa65] (03/95) Accurately ripped
06 [7fe2be31] (02/95) Accurately ripped
07 [7e901232] (03/94) Accurately ripped
08 [abaa2f28] (03/97) Accurately ripped
09 [81d0c37c] (03/93) Accurately ripped
10 [f1d316bc] (03/94) Accurately ripped
11 [aabba7b8] (03/95) Accurately ripped
12 [611ccaf3] (03/94) Accurately ripped
13 [febd7ba4] (03/91) Accurately ripped
14 [9862b83c] (03/93) Accurately ripped
Offsetted by -69:
01 [1273c2e9] (00/97) No match (V2 was not tested)
02 [22badfaa] (00/94) No match (V2 was not tested)
03 [4e949870] (00/96) No match (V2 was not tested)
04 [5db6f3e5] (00/96) No match (V2 was not tested)
05 [b72af46d] (00/95) No match (V2 was not tested)
06 [ca96f755] (00/95) No match (V2 was not tested)
07 [88663260] (00/94) No match (V2 was not tested)
08 [88dabcc8] (00/97) No match (V2 was not tested)
09 [0e1b3cf0] (00/93) No match (V2 was not tested)
10 [072d864e] (00/94) No match (V2 was not tested)
11 [9d333978] (00/95) No match (V2 was not tested)
12 [b1bbe033] (00/94) No match (V2 was not tested)
13 [053344e6] (00/91) No match (V2 was not tested)
14 [1244b00a] (00/93) No match (V2 was not tested)

Track Peak [ CRC32 ] [W/O NULL] [ LOG ]
– 100,0 [8551AE5D] [E5FDB32C] CRC32
01 82,3 [A6749882] [69E9CC9D]
02 100,0 [E8649B47] [A583E431]
03 100,0 [6E139879] [9F2C22C7]
04 99,8 [9ECA6688] [E3793B91]
05 83,9 [ED6B840C] [C5706C80]
06 84,1 [155599E2] [3BAA3FEF]
07 99,5 [C854D761] [340E05F3]
08 100,0 [E06C051F] [A1865A37]
09 91,9 [E4FA48EF] [D956CFFD]
10 92,3 [987CFCC6] [7CFA251D]
11 99,9 [3B959539] [39FCF406]
12 100,0 [3C6DAB97] [ACBD0F13]
13 100,0 [408F5813] [0B0BE2D9]
14 98,5 [F7C79ABE] [5566D7E8]

Thanks to Anna