Subcategories

The Brothers Johnson - Right On Time (1977) {A&M Records}

Posted By: tiburon
The Brothers Johnson - Right On Time (1977) {A&M Records}

The Brothers Johnson - Right On Time (1977) {A&M Records}
EAC 0.99pb5 | FLAC tracks level 8 | Cue+Log+M3U | Full Scans 600dpi | 183MB + 5% Recovery
MP3 CBR 320 Kbps | 85MB + 5% Recovery
Genre: Funk
The Brothers Johnson - Right On Time (1977) {A&M Records}

8 tracks, 32 minutes and no filler in sight. This funk/soul/ gem was released at the height of the disco era but doesn't sound dated, trite or embarrassing as so many LP's from that period do. Quincy Jones' pristine production along with top-notch studio players ensure consistent quality and some of the deepest, funkiest grooves on record.
Track List
01. Runnin' For Your Lovin' 5:05
02. Free Yourself, Be Yourself 4:26
03. "Q" 3:25
04. Right On Time 3:50
05. Strawberry Letter 23 4:58
06. Brother Man 3:10
07. Never Leave You Lonely 3:02
08. Love Is 4:20

musicians
Louis Johnson - bass, lead and background vocals, acoustic 6 & 12-string guitars
George Johnson - guitar, lead and background vocals

Lee Ritenour - guitar
Dave Grusin - keyboards, synthesizer
Harvey Mason, Sr. - drums
Ralph MacDonald - percussion
Ian Underwood - keyboards, synthesizer
Michael Boddicker - keyboards, synthesizer
David T. Walker - rhythm guitar

The Tower Of Power Horn Section:
Lenny Pickett - alto saxophone
Emilio Castillo - tenor saxophone
Stephen Kupka - baritone saxophone)
Mick Gillette - trumpet,trombone
Greg Adams - trumpet

Alexandra Brown - background vocals
Jim Gilstrap - background vocals
Alex Weir - background vocals
Denise Trammell - background vocals
Oren Waters - background vocals
Stephanie Spruill - background vocals
Mortonette Jenkins - background vocals
Richard Heath - background vocals

Produced by Quincy Jones


Exact Audio Copy V0.99 prebeta 5 from 4. May 2009

EAC extraction logfile from 23. July 2010, 8:36

The Brothers Johnson / Right On Time

Used drive : TSSTcorpCDDVDW SH-S223F Adapter: 1 ID: 1

Read mode : Secure
Utilize accurate stream : Yes
Defeat audio cache : Yes
Make use of C2 pointers : No

Read offset correction : 6
Overread into Lead-In and Lead-Out : No
Fill up missing offset samples with silence : Yes
Delete leading and trailing silent blocks : No
Null samples used in CRC calculations : Yes
Used interface : Native Win32 interface for Win NT & 2000
Gap handling : Appended to previous track

Used output format : User Defined Encoder
Selected bitrate : 320 kBit/s
Quality : High
Add ID3 tag : No
Command line compressor : C:\Programme\Exact Audio Copy\Flac\flac.exe
Additional command line options : -8 -V -T "ARTIST=%a" -T "TITLE=%t" -T "ALBUM=%g" -T "DATE=%y" -T "TRACKNUMBER=%n" -T "TOTALTRACKS=%x" -T "GENRE=%m" -T "ALBUMARTIST=%v" -T "ALBUM ARTIST=%v" -T "COMMENT=EAC Secure Mode, Test & Copy, AccurateRip, FLAC -8" %s


TOC of the extracted CD

Track | Start | Length | Start sector | End sector
––––––––––––––––––––––––––––-
1 | 0:00.00 | 5:07.20 | 0 | 23044
2 | 5:07.20 | 4:12.67 | 23045 | 42011
3 | 9:20.12 | 3:25.48 | 42012 | 57434
4 | 12:45.60 | 3:38.37 | 57435 | 73821
5 | 16:24.22 | 4:59.05 | 73822 | 96251
6 | 21:23.27 | 3:10.55 | 96252 | 110556
7 | 24:34.07 | 3:01.30 | 110557 | 124161
8 | 27:35.37 | 4:21.63 | 124162 | 143799


Track 1

Filename H:\Eac Ripps\01 - Runnin' For Your Lovin'.wav

Pre-gap length 0:00:02.00

Peak level 99.8 %
Track quality 100.0 %
Test CRC 7E7EC5BB
Copy CRC 7E7EC5BB
Accurately ripped (confidence 2) [1172DF34]
Copy OK

Track 2

Filename H:\Eac Ripps\02 - Free Yourself, Be Yourself.wav

Pre-gap length 0:00:02.46

Peak level 99.8 %
Track quality 100.0 %
Test CRC 764ADF34
Copy CRC 764ADF34
Accurately ripped (confidence 2) [9AD42262]
Copy OK

Track 3

Filename H:\Eac Ripps\03 - Q.wav

Peak level 99.8 %
Track quality 100.0 %
Test CRC 7B417F09
Copy CRC 7B417F09
Accurately ripped (confidence 2) [D1967818]
Copy OK

Track 4

Filename H:\Eac Ripps\04 - Right On Time.wav

Pre-gap length 0:00:00.30

Peak level 99.8 %
Track quality 99.9 %
Test CRC 3BEDB508
Copy CRC 3BEDB508
Accurately ripped (confidence 2) [A6421407]
Copy OK

Track 5

Filename H:\Eac Ripps\05 - Strawberry Letter 23.wav

Pre-gap length 0:00:01.13

Peak level 99.8 %
Track quality 100.0 %
Test CRC 7E5C1471
Copy CRC 7E5C1471
Accurately ripped (confidence 2) [E5A20661]
Copy OK

Track 6

Filename H:\Eac Ripps\06 - Brother Man.wav

Pre-gap length 0:00:00.40

Peak level 99.8 %
Track quality 100.0 %
Test CRC 4B1261BE
Copy CRC 4B1261BE
Accurately ripped (confidence 2) [9A6358A1]
Copy OK

Track 7

Filename H:\Eac Ripps\07 - Never Leave You Lonely.wav

Peak level 99.8 %
Track quality 100.0 %
Test CRC F7B47522
Copy CRC F7B47522
Accurately ripped (confidence 2) [E1B2B110]
Copy OK

Track 8

Filename H:\Eac Ripps\08 - Love Is.wav

Pre-gap length 0:00:00.09

Peak level 99.8 %
Track quality 100.0 %
Test CRC 802023E9
Copy CRC 802023E9
Accurately ripped (confidence 2) [D8E831D2]
Copy OK


All tracks accurately ripped

No errors occurred

End of status report

The Brothers Johnson - Right On Time (1977) {A&M Records}
The Brothers Johnson - Right On Time (1977) {A&M Records}


Thanks to the original ripper