Subcategories

VA - The Concert For The Rock And Roll Hall Of Fame [2CD] (1996)

Posted By: JET 1
VA - The Concert For The Rock And Roll Hall Of Fame [2CD] (1996)

VA - The Concert For The Rock And Roll Hall Of Fame [2CD] (1996)
EAC Rip | FLAC (Tracks) +CUE, LOG | 950 MB | Scans
Genre: Rock, Funk, Soul, Folk, Blues | Label: Columbia | Catalog Number: C2K 67477

After a full decade of lying in limbo, the Rock and Roll Hall of Fame opened its doors in the fall of 1995. To celebrate the event, a mammoth concert was staged at the Hall of Fame, featuring a head-spinning array of rock stars and musicians. Everyone from Jerry Lee Lewis and Al Green to Soul Asylum and Bruce Springsteen were there, as was everyone in between (Bob Dylan, Booker T. & the MG's, Aretha Franklin, James Brown, Iggy Pop, George Clinton, John Mellencamp, the Pretenders, Lou Reed, Johnny Cash, John Fogerty, Jackson Browne, the Allman Brothers, and Natalie Merchant, just for starters). Of course, any event of this size means one thing – the actual result will be a big, big disappointment. And, in that respect, The Concert for the Rock and Roll Hall of Fame doesn't disappoint at all – this double-disc set of highlights from the long concert is a crushing bore. Sure, there are a few fairly exciting moments – particularly when Fogerty sings with the MG's, or when Al Green sings – but most of the matchups simply don't catch fire. Notice how tame Iggy Pop and Soul Asylum sound together, how mannered Jackson Browne sounds, or how the promising team-up between Springsteen, the E Street Band, and Jerry Lee Lewis turns into something profoundly anticlimactic. Since nothing of this concert's size – or nothing with this much hype – can live up to expectations, it's not surprising that The Concert for the Rock and Roll Hall of Fame is a dull listen, but the fact that the disc is crushingly boring is quite a letdown. For all the talent involved, it's nearly depressing that the album is this lifeless. Perhaps if the artists were captured in a different setting, the album would have been much more interesting.

Exact Audio Copy V0.99 prebeta 5 from 4. May 2009

EAC extraction logfile from 30. July 2009, 19:59

Various / The Concert for the Rock and Roll Hall of Fame

Used drive : ASUS DRW-2014L1T Adapter: 0 ID: 1

Read mode : Secure
Utilize accurate stream : Yes
Defeat audio cache : No
Make use of C2 pointers : No

Read offset correction : 6
Overread into Lead-In and Lead-Out : No
Fill up missing offset samples with silence : Yes
Delete leading and trailing silent blocks : No
Null samples used in CRC calculations : Yes
Used interface : Native Win32 interface for Win NT & 2000
Gap handling : Appended to previous track

Used output format : User Defined Encoder
Selected bitrate : 768 kBit/s
Quality : High
Add ID3 tag : No
Command line compressor : C:\Program Files (x86)\Exact Audio Copy\FLAC\FLAC.EXE
Additional command line options : -6 -V -T "ARTIST=%a" -T "TITLE=%t" -T "ALBUM=%g" -T "DATE=%y" -T "TRACKNUMBER=%n" -T "GENRE=%m" -T "COMMENT=%e" %s -o %d


TOC of the extracted CD

Track | Start | Length | Start sector | End sector
––––––––––––––––––––––––––––-
1 | 0:00.00 | 5:20.52 | 0 | 24051
2 | 5:20.52 | 2:43.25 | 24052 | 36301
3 | 8:04.02 | 2:49.03 | 36302 | 48979
4 | 10:53.05 | 4:16.00 | 48980 | 68179
5 | 15:09.05 | 3:05.65 | 68180 | 82119
6 | 18:14.70 | 5:24.42 | 82120 | 106461
7 | 23:39.37 | 5:08.60 | 106462 | 129621
8 | 28:48.22 | 3:00.58 | 129622 | 143179
9 | 31:49.05 | 4:52.47 | 143180 | 165126
10 | 36:41.52 | 6:14.13 | 165127 | 193189
11 | 42:55.65 | 3:57.20 | 193190 | 210984
12 | 46:53.10 | 3:09.50 | 210985 | 225209
13 | 50:02.60 | 3:21.47 | 225210 | 240331
14 | 53:24.32 | 4:16.55 | 240332 | 259586
15 | 57:41.12 | 5:27.68 | 259587 | 284179
16 | 63:09.05 | 4:17.32 | 284180 | 303486


Track 1

Filename C:\Users\cman\Music\01 - R.O.C.K. in the U.S.A..wav

Pre-gap length 0:00:02.00

Peak level 100.0 %
Track quality 100.0 %
Test CRC 842FFF3F
Copy CRC 842FFF3F
Accurately ripped (confidence 3) [AA77B217]
Copy OK

Track 2

Filename C:\Users\cman\Music\02 - Be My Baby.wav

Peak level 100.0 %
Track quality 100.0 %
Test CRC 7F26EF26
Copy CRC 7F26EF26
Accurately ripped (confidence 3) [4B98A44A]
Copy OK

Track 3

Filename C:\Users\cman\Music\03 - Love Child.wav

Peak level 100.0 %
Track quality 100.0 %
Test CRC EE2F9C4F
Copy CRC EE2F9C4F
Accurately ripped (confidence 3) [28D67CB9]
Copy OK

Track 4

Filename C:\Users\cman\Music\04 - Leader of the Pack.wav

Peak level 100.0 %
Track quality 99.9 %
Test CRC F258C19E
Copy CRC F258C19E
Accurately ripped (confidence 3) [54461D84]
Copy OK

Track 5

Filename C:\Users\cman\Music\05 - Tired Of Being Alone.wav

Peak level 97.7 %
Track quality 100.0 %
Test CRC 5307EBBB
Copy CRC 5307EBBB
Accurately ripped (confidence 3) [03B44D1C]
Copy OK

Track 6

Filename C:\Users\cman\Music\06 - A Change Is Gonna Come.wav

Peak level 97.7 %
Track quality 100.0 %
Test CRC ACF6F749
Copy CRC ACF6F749
Accurately ripped (confidence 3) [8A1BCCEC]
Copy OK

Track 7

Filename C:\Users\cman\Music\07 - My City Was Gone.wav

Peak level 97.9 %
Track quality 99.9 %
Test CRC D1F1149D
Copy CRC D1F1149D
Accurately ripped (confidence 3) [B79468C8]
Copy OK

Track 8

Filename C:\Users\cman\Music\08 - Folsom Prison Blues.wav

Peak level 97.9 %
Track quality 100.0 %
Test CRC 9CD14539
Copy CRC 9CD14539
Accurately ripped (confidence 3) [2440A717]
Copy OK

Track 9

Filename C:\Users\cman\Music\09 - I Can't Turn You Loose.wav

Peak level 99.0 %
Track quality 100.0 %
Test CRC DBC8B2F7
Copy CRC DBC8B2F7
Accurately ripped (confidence 3) [8E21AAA5]
Copy OK

Track 10

Filename C:\Users\cman\Music\10 - It's A Man's Man's Man's World.wav

Peak level 99.3 %
Track quality 100.0 %
Test CRC 819140F8
Copy CRC 819140F8
Accurately ripped (confidence 3) [AE0C6C7E]
Copy OK

Track 11

Filename C:\Users\cman\Music\11 - Born On The Bayou.wav

Peak level 98.7 %
Track quality 100.0 %
Test CRC 3F94C551
Copy CRC 3F94C551
Accurately ripped (confidence 3) [310F26BF]
Copy OK

Track 12

Filename C:\Users\cman\Music\12 - Fortunate Son.wav

Peak level 98.7 %
Track quality 100.0 %
Test CRC F48663FD
Copy CRC F48663FD
Accurately ripped (confidence 3) [D823778A]
Copy OK

Track 13

Filename C:\Users\cman\Music\13 - Back Door Man.wav

Peak level 100.0 %
Track quality 100.0 %
Test CRC 5440E5D5
Copy CRC 5440E5D5
Accurately ripped (confidence 3) [922CF95E]
Copy OK

Track 14

Filename C:\Users\cman\Music\14 - Sweet Jane.wav

Peak level 98.7 %
Track quality 100.0 %
Test CRC 9B425CB5
Copy CRC 9B425CB5
Accurately ripped (confidence 3) [A27941D8]
Copy OK

Track 15

Filename C:\Users\cman\Music\15 - Thank You (Falettinme Be MiceElf Agin).wav

Peak level 99.0 %
Track quality 100.0 %
Test CRC 2F776FB3
Copy CRC 2F776FB3
Accurately ripped (confidence 3) [DD54C891]
Copy OK

Track 16

Filename C:\Users\cman\Music\16 - I Want To Take You Higher.wav

Peak level 100.0 %
Track quality 100.0 %
Test CRC D4A150BD
Copy CRC D4A150BD
Accurately ripped (confidence 3) [3DCADFF5]
Copy OK


All tracks accurately ripped

No errors occurred

End of status report

Exact Audio Copy V0.99 prebeta 5 from 4. May 2009

EAC extraction logfile from 31. July 2009, 11:26

Various / The Concert for the Rock and Roll Hall of Fame

Used drive : ASUS DRW-2014L1T Adapter: 0 ID: 1

Read mode : Secure
Utilize accurate stream : Yes
Defeat audio cache : No
Make use of C2 pointers : No

Read offset correction : 6
Overread into Lead-In and Lead-Out : No
Fill up missing offset samples with silence : Yes
Delete leading and trailing silent blocks : No
Null samples used in CRC calculations : Yes
Used interface : Native Win32 interface for Win NT & 2000
Gap handling : Appended to previous track

Used output format : User Defined Encoder
Selected bitrate : 768 kBit/s
Quality : High
Add ID3 tag : No
Command line compressor : C:\Program Files (x86)\Exact Audio Copy\FLAC\FLAC.EXE
Additional command line options : -6 -V -T "ARTIST=%a" -T "TITLE=%t" -T "ALBUM=%g" -T "DATE=%y" -T "TRACKNUMBER=%n" -T "GENRE=%m" -T "COMMENT=%e" %s -o %d


TOC of the extracted CD

Track | Start | Length | Start sector | End sector
––––––––––––––––––––––––––––-
1 | 0:00.00 | 4:17.52 | 0 | 19326
2 | 4:17.52 | 2:15.15 | 19327 | 29466
3 | 6:32.67 | 3:28.18 | 29467 | 45084
4 | 10:01.10 | 4:18.30 | 45085 | 64464
5 | 14:19.40 | 3:55.00 | 64465 | 82089
6 | 18:14.40 | 7:09.52 | 82090 | 114316
7 | 25:24.17 | 5:19.45 | 114317 | 138286
8 | 30:43.62 | 5:10.23 | 138287 | 161559
9 | 35:54.10 | 5:20.67 | 161560 | 185626
10 | 41:15.02 | 5:38.23 | 185627 | 210999
11 | 46:53.25 | 8:46.07 | 211000 | 250456
12 | 55:39.32 | 8:59.35 | 250457 | 290916


Track 1

Filename C:\Users\cman\Music\01 - Shake, Rattle & Roll.Bruce Springsteen & The E Street Band.wav

Pre-gap length 0:00:02.00

Peak level 98.0 %
Track quality 99.9 %
Test CRC 1F467F00
Copy CRC 1F467F00
Accurately ripped (confidence 2) [B8384593]
Copy OK

Track 2

Filename C:\Users\cman\Music\02 - Great Balls Of Fire.Jerry Lee Lewis with Bruce Springsteen & The E Street Band.wav

Peak level 97.9 %
Track quality 100.0 %
Test CRC B994F1DD
Copy CRC B994F1DD
Accurately ripped (confidence 2) [E43DE36E]
Copy OK

Track 3

Filename C:\Users\cman\Music\03 - Whole Lotta Shakin' Goin On.Jerry Lee Lewis with Bruce Springsteen & The E Street Band.wav

Peak level 97.8 %
Track quality 100.0 %
Test CRC 023D00E5
Copy CRC 023D00E5
Accurately ripped (confidence 2) [7960F2F7]
Copy OK

Track 4

Filename C:\Users\cman\Music\04 - I Know How To Do It.Natalie Merchant.wav

Peak level 97.8 %
Track quality 100.0 %
Test CRC ACFD3A06
Copy CRC ACFD3A06
Accurately ripped (confidence 2) [E21203B1]
Copy OK

Track 5

Filename C:\Users\cman\Music\05 - Redemption Song.Jackson Browne.wav

Peak level 97.1 %
Track quality 100.0 %
Test CRC 96CCA756
Copy CRC 96CCA756
Accurately ripped (confidence 2) [D9DDD120]
Copy OK

Track 6

Filename C:\Users\cman\Music\06 - I Know You Rider.Bruce Hornsby.wav

Peak level 97.8 %
Track quality 99.9 %
Test CRC A2A459AF
Copy CRC A2A459AF
Accurately ripped (confidence 2) [A8835C92]
Copy OK

Track 7

Filename C:\Users\cman\Music\07 - All Along The Watchtower.Bob Dylan.wav

Peak level 98.0 %
Track quality 100.0 %
Test CRC 82AE27FE
Copy CRC 82AE27FE
Accurately ripped (confidence 2) [4662164F]
Copy OK

Track 8

Filename C:\Users\cman\Music\08 - Green Onions.Booker T & The MGs.wav

Peak level 99.9 %
Track quality 100.0 %
Test CRC DE841A1A
Copy CRC DE841A1A
Accurately ripped (confidence 2) [7F2D2B7B]
Copy OK

Track 9

Filename C:\Users\cman\Music\09 - Hold On I'm Coming.Sam Moore.wav

Peak level 100.0 %
Track quality 100.0 %
Test CRC 5E2040F9
Copy CRC 5E2040F9
Accurately ripped (confidence 2) [3C3DA177]
Copy OK

Track 10

Filename C:\Users\cman\Music\10 - Blue Sky.The Allman Brothers Band.wav

Peak level 99.9 %
Track quality 100.0 %
Test CRC 4FAB1EA4
Copy CRC 4FAB1EA4
Accurately ripped (confidence 2) [63B7C08D]
Copy OK

Track 11

Filename C:\Users\cman\Music\11 - One Way Out.The Allman Brothers Band.wav

Peak level 98.0 %
Track quality 100.0 %
Test CRC ED5070EB
Copy CRC ED5070EB
Accurately ripped (confidence 2) [6090D970]
Copy OK

Track 12

Filename C:\Users\cman\Music\12 - Red House.Slash & Boz Skaggs.wav

Peak level 97.8 %
Track quality 100.0 %
Test CRC 204E60E9
Copy CRC 204E60E9
Accurately ripped (confidence 2) [F1962A82]
Copy OK


All tracks accurately ripped

No errors occurred

End of status report


Tracklist:
Disc 1 (01:07:16)
1. John Mellencamp – R.O.C.K. In The U.S.A./Little Latin Lupe Lu (Medley) (05:20)
2. Melissa Etheridge – Be My Baby (02:43)
3. Melissa Etheridge – Love Child (02:49)
4. Melissa Etheridge – Leader Of The Pack (04:16)
5. Al Green – Tired Of Being Alone (03:05)
6. Al Green – A Change Is Gonna Come (05:24)
7. The Pretenders – My City Was Gone (05:08)
8. Johnny Cash – Folsom Prison Blues (03:00)
9. Aretha Franklin – I Can't Turn You Loose (04:52)
10. James Brown – It's A Man's Man's Man's World (06:14)
11. John Fogerty – Born On The Bayou (03:57)
12. John Fogerty – Fortunate Son (03:09)
13. Iggy Pop & Soul Asylum – Back Door Man (03:21)
14. Lou Reed & Soul Asylum – Sweet Jane (04:16)
15. George Clinton & P-Funk All Stars – Thank You (Falettinme Be Mice Elf Agin) (05:27)
16. George Clinton & P-Funk All Stars – I Want To Take You Higher (04:15)

Disc 2 (01:04:32)
1. Bruce Springsteen & The E-Street Band – Shake, Rattle And Roll (04:17)
2. Jerry Lee Lewis & Bruce Springsteen & The E-Street Band – Great Balls Of Fire (02:15)
3. Jerry Lee Lewis & Bruce Springsteen & The E-Street Band – Whole Lotta Shakin' Goin' On (03:28)
4. Natalie Merchant – I Know How To Do It (04:18)
5. Jackson Browne – Redemption Song (03:55)
6. Bruce Hornsby – I Know You Rider (07:09)
7. Bob Dylan – All Along The Watchtower (05:19)
8. Booker T & The MG's – Green Onions (05:10)
9. Sam Moore – Hold On I'm Coming (05:20)
10. The Allman Brothers Band – Blue Sky (05:38)
11. The Allman Brothers Band – One Way Out (08:46)
12. Slash & Boz Scaggs – Red House (08:57)