Subcategories
Tags
Language
Tags

The Cure - Seventeen Seconds (1980) [2CD Deluxe Edition 2005]

Posted By: gribovar
The Cure - Seventeen Seconds (1980) [2CD Deluxe Edition 2005]

The Cure - Seventeen Seconds (1980) [2CD Deluxe Edition 2005]
EAC Rip | FLAC (image+.cue+log) - 558 MB | MP3 CBR 320 kbps (LAME 3.93) - 205 MB | Covers - 150 MB
Genre: Post-Punk, Alternative Rock | RAR 3% Rec. | Label: Polydor (982 183-1)

It's hard to believe that the Cure could release an album even more sparse than Three Imaginary Boys, but here's the proof. The lineup change that saw funkstery bassist Michael Dempsey squeezed out in favor of the more specific playing of (eventually the longest serving member outside Robert Smith) Simon Gallup, and the addition of keyboardist Mathieu Hartley resulted in the band becoming more rigid in sound, and more disciplined in attitude. While it is not the study in loss that Faith would become, or the descent into madness of Pornography, it is a perfect precursor to those collections. In a sense, Seventeen Seconds is the beginning of a trilogy of sorts, the emptiness that leads to the questioning and eventual madness of the subsequent work. Mostly forgotten outside of the unforgettable single "A Forest," Seventeen Seconds is an even, subtle work that grows on the listener over time. Sure, the Cure did better work, but for a new lineup and a newfound sense of independence, Robert Smith already shows that he knows what he's doing. From short instrumental pieces to robotic pop, Seventeen Seconds is where the Cure shed all the outside input and became their own band.
CD 1 Tracklist:
01. A Reflection
02. Play For Today
03. Secrets
04. In Your House
05. Three
06. The Final Sound
07. A Forest
08. M
09. At Night
10. Seventeen Seconds

Total time: 35:43

CD 2 Tracklist (Rarities 1979-1980):
01. I'm A Cult Hero (Vinyl Single By Cult Hero)
02. I Dig You (Vinyl Single By Cult Hero)
03. Another Journey By Train (Home Demo)
04. Secrets (Home Demo)
05. Seventeen Seconds (Live)
06. In Your House (Live)
07. Three (Alt Studio Mix)
08. I Dig You (Cult Hero Live)
09. I'm A Cult Hero (Cult Hero Live)
10. M (Live)
11. The Final Sound (Live)
12. A Reflection (Live)
13. Play for Today (Live)
14. At Night (Live)
15. A Forest (Live)

Total time: 51:30

Exact Audio Copy V0.99 prebeta 5 from 4. May 2009

EAC extraction logfile from 9. July 2010, 19:18

The Cure / Seventeen Seconds (Deluxe Edition) (Disc 1)

Used drive : PIONEER DVD-RW DVR-111D Adapter: 1 ID: 0

Read mode : Secure
Utilize accurate stream : Yes
Defeat audio cache : Yes
Make use of C2 pointers : No

Read offset correction : 48
Overread into Lead-In and Lead-Out : No
Fill up missing offset samples with silence : Yes
Delete leading and trailing silent blocks : No
Null samples used in CRC calculations : Yes
Used interface : Native Win32 interface for Win NT & 2000

Used output format : User Defined Encoder
Selected bitrate : 1024 kBit/s
Quality : High
Add ID3 tag : No
Command line compressor : C:\Program Files\Exact Audio Copy\FLAC\FLAC.EXE
Additional command line options : -8 -V %s


TOC of the extracted CD

Track | Start | Length | Start sector | End sector
––––––––––––––––––––––––––––-
1 | 0:00.00 | 2:12.37 | 0 | 9936
2 | 2:12.37 | 3:40.48 | 9937 | 26484
3 | 5:53.10 | 3:20.12 | 26485 | 41496
4 | 9:13.22 | 4:07.40 | 41497 | 60061
5 | 13:20.62 | 2:36.25 | 60062 | 71786
6 | 15:57.12 | 0:52.23 | 71787 | 75709
7 | 16:49.35 | 5:54.70 | 75710 | 102329
8 | 22:44.30 | 3:04.22 | 102330 | 116151
9 | 25:48.52 | 5:54.18 | 116152 | 142719
10 | 31:42.70 | 4:00.30 | 142720 | 160749


Range status and errors

Selected range

Filename C:\Music\17Seconds.Deluxe.CD1.wav

Peak level 99.3 %
Range quality 100.0 %
Test CRC 7ED4DA48
Copy CRC 7ED4DA48
Copy OK

No errors occurred


AccurateRip summary

Track 1 accurately ripped (confidence 73) [324F50CD]
Track 2 accurately ripped (confidence 75) [ED79669D]
Track 3 accurately ripped (confidence 75) [4931383D]
Track 4 accurately ripped (confidence 75) [525832DE]
Track 5 accurately ripped (confidence 75) [DC0C3830]
Track 6 accurately ripped (confidence 75) [519A5508]
Track 7 accurately ripped (confidence 75) [5EAAD9F4]
Track 8 accurately ripped (confidence 75) [25757083]
Track 9 accurately ripped (confidence 75) [483D3BBB]
Track 10 accurately ripped (confidence 75) [1268F67A]

All tracks accurately ripped

End of status report

[CUETools log; Date: 22.12.2018 12:12:10; Version: 2.1.4]
[CTDB TOCID: MUIuYFP9MGXWdnEkKa3Gsz2gHXY-] found.
Track | CTDB Status
1 | (752/758) Accurately ripped
2 | (751/758) Accurately ripped
3 | (750/758) Accurately ripped
4 | (751/758) Accurately ripped
5 | (752/758) Accurately ripped
6 | (752/758) Accurately ripped
7 | (750/758) Accurately ripped
8 | (749/758) Accurately ripped
9 | (751/758) Accurately ripped
10 | (750/758) Accurately ripped
[AccurateRip ID: 000c5206-00647db2-73085f0a] found.
Track [ CRC | V2 ] Status
01 [324f50cd|0fb1ea34] (120+200/578) Accurately ripped
02 [ed79669d|f076c38f] (124+200/582) Accurately ripped
03 [4931383d|8d2686a9] (122+200/577) Accurately ripped
04 [525832de|be55b033] (123+200/579) Accurately ripped
05 [dc0c3830|d5625463] (123+200/578) Accurately ripped
06 [519a5508|8f7d7466] (123+200/579) Accurately ripped
07 [5eaad9f4|f8078680] (123+200/580) Accurately ripped
08 [25757083|3feac5d9] (123+200/580) Accurately ripped
09 [483d3bbb|3b7d093a] (123+200/580) Accurately ripped
10 [1268f67a|a38bb578] (121+200/576) Accurately ripped
Offsetted by -664:
01 [cc3362dd] (051/578) Accurately ripped
02 [fe1d2445] (051/582) Accurately ripped
03 [c2a1b72c] (051/577) Accurately ripped
04 [8e855347] (051/579) Accurately ripped
05 [754224e0] (050/578) Accurately ripped
06 [c407c1e3] (051/579) Accurately ripped
07 [51928f25] (051/580) Accurately ripped
08 [a75b9ffb] (050/580) Accurately ripped
09 [e1626832] (049/580) Accurately ripped
10 [e2bfdfda] (049/576) Accurately ripped
Offsetted by -24:
01 [6b7e01fd] (002/578) Accurately ripped
02 [8d96fe2d] (002/582) Accurately ripped
03 [0eff133b] (002/577) Accurately ripped
04 [d8e2ab98] (002/579) Accurately ripped
05 [ad26d7e0] (002/578) Accurately ripped
06 [94775f88] (002/579) Accurately ripped
07 [924b42d8] (002/580) Accurately ripped
08 [4f2a7b7b] (002/580) Accurately ripped
09 [9efc7726] (002/580) Accurately ripped
10 [b543aa4d] (002/576) Accurately ripped
Offsetted by 610:
01 [1f06824a] (007/578) Accurately ripped
02 [5f35ce6c] (007/582) Accurately ripped
03 [e73eb815] (007/577) Accurately ripped
04 [4e1039a4] (007/579) Accurately ripped
05 [595232cc] (007/578) Accurately ripped
06 [49140742] (007/579) Accurately ripped
07 [ea91f00e] (007/580) Accurately ripped
08 [816699b9] (007/580) Accurately ripped
09 [fe01ccc9] (007/580) Accurately ripped
10 [71b20ba9] (007/576) Accurately ripped
Offsetted by 640:
01 [ff86f713] (058/578) Accurately ripped
02 [2cbbcabb] (058/582) Accurately ripped
03 [29a6d4a3] (056/577) Accurately ripped
04 [bb465c18] (057/579) Accurately ripped
05 [13f0eb30] (058/578) Accurately ripped
06 [178032f7] (058/579) Accurately ripped
07 [3a3025a1] (058/580) Accurately ripped
08 [cd444c03] (058/580) Accurately ripped
09 [ba9e109a] (058/580) Accurately ripped
10 [7afa2dad] (056/576) Accurately ripped
Offsetted by 646:
01 [13ffcd75] (002/578) Accurately ripped
02 [1cdd34cd] (002/582) Accurately ripped
03 [53c7657c] (002/577) Accurately ripped
04 [9e1efc99] (002/579) Accurately ripped
05 [9faa4344] (002/578) Accurately ripped
06 [c54e9c1e] (002/579) Accurately ripped
07 [4714c88a] (002/580) Accurately ripped
08 [42d70945] (002/580) Accurately ripped
09 [fc7c6efe] (002/580) Accurately ripped
10 [12fed50a] (002/576) Accurately ripped
Offsetted by 554:
01 [b2b9d390] (000/578) No match (V2 was not tested)
02 [2ea38492] (000/582) No match (V2 was not tested)
03 [5c99a5eb] (000/577) No match (V2 was not tested)
04 [0fed5fc6] (000/579) No match (V2 was not tested)
05 [413afcbc] (000/578) No match (V2 was not tested)
06 [87c31429] (000/579) No match (V2 was not tested)
07 [ad6ab357] (000/580) No match (V2 was not tested)
08 [e2b7b351] (000/580) No match (V2 was not tested)
09 [2fbd5568] (000/580) No match (V2 was not tested)
10 [c1a4aa0c] (000/576) No match (V2 was not tested)

Track Peak [ CRC32 ] [W/O NULL] [ LOG ]
– 99,3 [7ED4DA48] [78CA3390] CRC32
01 83,6 [94FC0325] [7C13F88D]
02 99,2 [77E0EAD2] [46CA4E62]
03 99,1 [37244BCA] [8900F621]
04 98,9 [D9FE3ECA] [8C22D552]
05 98,9 [DA171BC0] [20879946]
06 56,9 [50CDBA25] [215B342E]
07 99,3 [7F2E7DDC] [7F268A23]
08 98,9 [083E3383] [8E0F3C24]
09 99,1 [B6AA3622] [F1094276]
10 99,3 [F9F55924] [66C1DD3A]

Exact Audio Copy V0.99 prebeta 5 from 4. May 2009

EAC extraction logfile from 9. July 2010, 20:08

The Cure / Seventeen Seconds (Deluxe Edition) (Disc 2)

Used drive : PIONEER DVD-RW DVR-111D Adapter: 1 ID: 0

Read mode : Secure
Utilize accurate stream : Yes
Defeat audio cache : Yes
Make use of C2 pointers : No

Read offset correction : 48
Overread into Lead-In and Lead-Out : No
Fill up missing offset samples with silence : Yes
Delete leading and trailing silent blocks : No
Null samples used in CRC calculations : Yes
Used interface : Native Win32 interface for Win NT & 2000

Used output format : User Defined Encoder
Selected bitrate : 1024 kBit/s
Quality : High
Add ID3 tag : No
Command line compressor : C:\Program Files\Exact Audio Copy\FLAC\FLAC.EXE
Additional command line options : -8 -V %s


TOC of the extracted CD

Track | Start | Length | Start sector | End sector
––––––––––––––––––––––––––––-
1 | 0:00.00 | 2:59.41 | 0 | 13465
2 | 2:59.41 | 3:25.33 | 13466 | 28873
3 | 6:24.74 | 3:12.05 | 28874 | 43278
4 | 9:37.04 | 3:40.61 | 43279 | 59839
5 | 13:17.65 | 3:59.40 | 59840 | 77804
6 | 17:17.30 | 3:32.45 | 77805 | 93749
7 | 20:50.00 | 2:45.49 | 93750 | 106173
8 | 23:35.49 | 3:36.62 | 106174 | 122435
9 | 27:12.36 | 3:21.33 | 122436 | 137543
10 | 30:33.69 | 2:56.56 | 137544 | 150799
11 | 33:30.50 | 0:26.56 | 150800 | 152805
12 | 33:57.31 | 1:39.53 | 152806 | 160283
13 | 35:37.09 | 3:46.13 | 160284 | 177246
14 | 39:23.22 | 5:37.62 | 177247 | 202583
15 | 45:01.09 | 6:28.63 | 202584 | 231746


Range status and errors

Selected range

Filename C:\Music\17Seconds.Deluxe.CD2.wav

Peak level 98.7 %
Range quality 100.0 %
Test CRC 3DB43C84
Copy CRC 3DB43C84
Copy OK

No errors occurred


AccurateRip summary

Track 1 accurately ripped (confidence 53) [D3C942FA]
Track 2 accurately ripped (confidence 54) [A34E2F54]
Track 3 accurately ripped (confidence 53) [A97B7C8A]
Track 4 accurately ripped (confidence 53) [6A552267]
Track 5 accurately ripped (confidence 52) [67DF624E]
Track 6 accurately ripped (confidence 53) [112570A5]
Track 7 accurately ripped (confidence 53) [7206CF43]
Track 8 accurately ripped (confidence 53) [160F981C]
Track 9 accurately ripped (confidence 53) [1555E7E4]
Track 10 accurately ripped (confidence 53) [62A201A3]
Track 11 accurately ripped (confidence 53) [664A8D82]
Track 12 accurately ripped (confidence 53) [9C768329]
Track 13 accurately ripped (confidence 51) [E9F40AB7]
Track 14 accurately ripped (confidence 53) [8A9507A9]
Track 15 accurately ripped (confidence 52) [AD4ED171]

All tracks accurately ripped

End of status report

[CUETools log; Date: 22.12.2018 12:13:10; Version: 2.1.4]
[CTDB TOCID: vlijN1q25qXBejpyi5nOACGcs0Y-] found.
Track | CTDB Status
1 | (251/255) Accurately ripped
2 | (252/255) Accurately ripped
3 | (252/255) Accurately ripped
4 | (252/255) Accurately ripped
5 | (250/255) Accurately ripped
6 | (252/255) Accurately ripped
7 | (251/255) Accurately ripped
8 | (249/255) Accurately ripped
9 | (250/255) Accurately ripped
10 | (251/255) Accurately ripped
11 | (252/255) Accurately ripped
12 | (253/255) Accurately ripped
13 | (248/255) Accurately ripped
14 | (251/255) Accurately ripped
15 | (251/255) Accurately ripped
[AccurateRip ID: 001ad5ac-012ebc29-cc0c110f] found.
Track [ CRC | V2 ] Status
01 [d3c942fa|cdd0d85b] (076+103/295) Accurately ripped
02 [a34e2f54|fb8920c5] (077+104/297) Accurately ripped
03 [a97b7c8a|a051c25a] (076+104/294) Accurately ripped
04 [6a552267|fd41510c] (076+104/293) Accurately ripped
05 [67df624e|304760c2] (075+104/293) Accurately ripped
06 [112570a5|ceb7ab85] (076+104/295) Accurately ripped
07 [7206cf43|c22d490d] (076+104/294) Accurately ripped
08 [160f981c|eb542be9] (076+104/294) Accurately ripped
09 [1555e7e4|581897c2] (076+104/294) Accurately ripped
10 [62a201a3|9c3a67d8] (076+104/295) Accurately ripped
11 [664a8d82|cd39f44f] (076+104/295) Accurately ripped
12 [9c768329|ec6b2d14] (076+104/295) Accurately ripped
13 [e9f40ab7|e9b09286] (074+104/292) Accurately ripped
14 [8a9507a9|491b1243] (076+104/295) Accurately ripped
15 [ad4ed171|2b76e6c7] (074+104/293) Accurately ripped
Offsetted by 610:
01 [cd581a34] (007/295) Accurately ripped
02 [ea5b3482] (007/297) Accurately ripped
03 [7e47207c] (007/294) Accurately ripped
04 [94dac6a7] (007/293) Accurately ripped
05 [9f68b480] (007/293) Accurately ripped
06 [e1c18751] (007/295) Accurately ripped
07 [aa3929a3] (007/294) Accurately ripped
08 [6d486cc9] (007/294) Accurately ripped
09 [f65e44cd] (007/294) Accurately ripped
10 [c0e6b387] (007/295) Accurately ripped
11 [86e01dbc] (007/295) Accurately ripped
12 [349c0c5b] (007/295) Accurately ripped
13 [19ccd85b] (007/292) Accurately ripped
14 [83ec83a5] (007/295) Accurately ripped
15 [f1442151] (007/293) Accurately ripped
Offsetted by 640:
01 [6c80b37a] (044/295) Accurately ripped
02 [3531e0d4] (044/297) Accurately ripped
03 [9987b30a] (043/294) Accurately ripped
04 [60637267] (043/293) Accurately ripped
05 [edae68ce] (044/293) Accurately ripped
06 [a07977a5] (044/295) Accurately ripped
07 [6e094743] (043/294) Accurately ripped
08 [0fdcade5] (043/294) Accurately ripped
09 [78fd3acb] (043/294) Accurately ripped
10 [32a6eea3] (044/295) Accurately ripped
11 [28597455] (044/295) Accurately ripped
12 [ea48fcde] (044/295) Accurately ripped
13 [e7a3bdb7] (043/292) Accurately ripped
14 [1248f2a9] (043/295) Accurately ripped
15 [9c7a2971] (044/293) Accurately ripped
Offsetted by 646:
01 [25ef3888] (002/295) Accurately ripped
02 [ddc3367e] (002/297) Accurately ripped
03 [d22e36c0] (002/294) Accurately ripped
04 [22b1fb27] (002/293) Accurately ripped
05 [fd55f344] (002/293) Accurately ripped
06 [6037dae9] (002/295) Accurately ripped
07 [2ecc8063] (002/294) Accurately ripped
08 [aa4f39cb] (002/294) Accurately ripped
09 [f32094df] (002/294) Accurately ripped
10 [e300940f] (002/295) Accurately ripped
11 [2404b3e4] (002/295) Accurately ripped
12 [7885887f] (002/295) Accurately ripped
13 [a8c6a8df] (002/292) Accurately ripped
14 [61f508dd] (002/295) Accurately ripped
15 [beb82b11] (002/293) Accurately ripped
Offsetted by 598:
01 [5a7b1018] (000/295) No match (V2 was not tested)
02 [9938892e] (000/297) No match (V2 was not tested)
03 [0cfa1910] (000/294) No match (V2 was not tested)
04 [103db527] (000/293) No match (V2 was not tested)
05 [80199f94] (000/293) No match (V2 was not tested)
06 [6244c0c9] (000/295) No match (V2 was not tested)
07 [28b2b763] (000/294) No match (V2 was not tested)
08 [09cfb707] (000/294) No match (V2 was not tested)
09 [bbd53b53] (000/294) No match (V2 was not tested)
10 [603368af] (000/295) No match (V2 was not tested)
11 [73ebd96c] (000/295) No match (V2 was not tested)
12 [07cd33b2] (000/295) No match (V2 was not tested)
13 [937e868c] (000/292) No match (V2 was not tested)
14 [e494573d] (000/295) No match (V2 was not tested)
15 [acc81e11] (000/293) No match (V2 was not tested)

Track Peak [ CRC32 ] [W/O NULL] [ LOG ]
– 98,7 [3DB43C84] [7416DF79] CRC32
01 98,1 [4F4A4223] [0D3C376B]
02 98,4 [12577B14] [DB4906C2]
03 89,3 [162A608F] [599F00B1]
04 85,7 [4E7A9D9D] [3B633384]
05 98,0 [3CB5F2F5] [EEBEB673]
06 98,2 [E8FBE8B0] [EA746B41]
07 98,5 [763836D7] [E21E89D0]
08 98,0 [B4421FDA] [0490439D]
09 98,0 [21304759] [C9FD7FC0]
10 98,2 [3F028248] [EA90F98C]
11 97,9 [0EC5EE43] [FB0E6B90]
12 98,0 [879ED33E] [EDD4D610]
13 98,6 [6DBAFAC6] [C8FE7328]
14 98,7 [A19F60B8] [4DDEF2D2]
15 98,0 [902D3799] [B2BFF93C]

Thanks to Figurehead

See also:
The Cure - Faith (1981) [Japanese Edition 2005]
The Cure - Pornography (1982) [Japanese Edition 2008]
The Cure - The Top (1984) [Japanese Edition 2008]
The Cure - Kiss Me Kiss Me Kiss Me (1987) [Japanese Edition 2008]
The Cure - Greatest Hits (2001) [2CD Japanese Edition 2008]