Tags
Language
Tags

The Dave Brubeck Quartet - Gone With The Wind (1959) [Reissue 1990] (Repost)

Posted By:
The Dave Brubeck Quartet - Gone With The Wind (1959) [Reissue 1990] (Repost)

The Dave Brubeck Quartet - Gone With The Wind (1959) [Reissue 1990]
EAC Rip | FLAC (image+.cue+log) - 189 MB | MP3 CBR 320 kbps (LAME 3.93) - 112 MB | Covers (16 MB) included
Genre: Jazz | RAR 3% Rec. | Label: CBS (450984 2)

This dynamic quartet, strongly influential during the cool jazz period, performed as a group from 1951 to 1967. Since the 1930s, leader Dave Brubeck received high praise and critical acclaim for his role as bandleader and for his stirring arrangements. At the piano, Brubeck plays along with the accompaniment of Paul Desmond, another timeless jazz legend in his own right. Joe Morello drives the rhythm of the group on drums and percussion with the help of Gene Wright, who shares his talent and pulsating beats on standup bass. Desmond is featured on this collection of standards, jamming along on the alto sax to tunes such as "Swanee River," "That Lonesome Road," and "Basin Street Blues." Brubeck shimmers with radiance and phenomenal craftiness in his piano improvisation at the end of "Georgia on My Mind." Morello gives it his creative all with a rich flair for rhythm during his strong solo performance on the tune "Short'nin' Bread." It is here that a superb call-and-response exchange between Morello's drums and Brubeck's piano is rendered. The song "Camptown Races" is featured here in two takes. Its mood and rhythmic power is intense and uplifting, pulling the listener into its dreamy percussive web. One can almost feel the crowd of thousands cheering a group of racehorses making their way around the turn to a photo finish.
The album as a whole is filled with wonderful surprises and contains some of the best that the cool jazz style has to offer. It is written in the record notes that the foursome believed this would be a special session from the very first take. The group played several of these tunes for the first time in the studio, working out the final product spontaneously. This recording is masterful in scope and very stimulating in style and detail. The percussion of Morello and the bass playing of Wright are quite colorful and filled with texture and majestic rhythmic quality. Desmond's lead on the alto sax is compelling and passionate, filled with joyous melodies that would be perfect for a romantic date. His ability to surf up, down, and through scale passages with a sense of effortlessness is certainly full proof as to why he is regarded with such high esteem within the entire spectrum of jazz. Dave Brubeck's proficiency resonates throughout the record as he shows off his classically trained ear. Brubeck is one of the few pianists who, during his day, clearly avoided standard bop melodic conceptions and rhythmic feeling, and played within a unique style very much his own. Gone With the Wind is strongly recommended not only for the seasoned jazz fan, but also for first-time listeners who wish to be thoroughly captivated.
Tracklist:
01. Swanee River
02. The Lonesome Road
03. Georgia On My Mind
04. Camptown Races
05. Camptown Races (alt. take)
06. Short'nin' Bread
07. Basin Street Blues
08. Ol' Man River
09. Gone With The Wind

Total time: 40:26

Exact Audio Copy V0.99 prebeta 4 from 23. January 2008

EAC extraction logfile from 14. November 2009, 7:23

The Dave Brubeck Quartet / Gone With The Wind

Used drive : ASUS DRW-1814BL Adapter: 0 ID: 0

Read mode : Secure
Utilize accurate stream : Yes
Defeat audio cache : Yes
Make use of C2 pointers : No

Read offset correction : 6
Overread into Lead-In and Lead-Out : No
Fill up missing offset samples with silence : Yes
Delete leading and trailing silent blocks : No
Null samples used in CRC calculations : Yes
Used interface : Native Win32 interface for Win NT & 2000

Used output format : Internal WAV Routines
Sample format : 44.100 Hz; 16 Bit; Stereo


TOC of the extracted CD

Track | Start | Length | Start sector | End sector
––––––––––––––––––––––––––––-
1 | 0:00.00 | 5:56.02 | 0 | 26701
2 | 5:56.02 | 7:40.55 | 26702 | 61256
3 | 13:36.57 | 6:39.35 | 61257 | 91216
4 | 20:16.17 | 2:00.50 | 91217 | 100266
5 | 22:16.67 | 2:10.03 | 100267 | 110019
6 | 24:26.70 | 2:30.35 | 110020 | 121304
7 | 26:57.30 | 4:33.60 | 121305 | 141839
8 | 31:31.15 | 2:30.67 | 141840 | 153156
9 | 34:02.07 | 6:23.35 | 153157 | 181916


Range status and errors

Selected range

Filename C:\Users\kursebeli\Desktop\The Dave Brubeck Quartet - Gone With The Wind\The Dave Brubeck Quartet - Gone With The Wind.wav

Peak level 100.0 %
Range quality 100.0 %
Test CRC D78C7D8E
Copy CRC D78C7D8E
Copy OK

No errors occurred

End of status report

[CUETools log; Date: 17.07.2018 18:25:56; Version: 2.1.4]
[CTDB TOCID: yLPfs4RuMFSrwB3dNMVJsKRobHM-] found.
Track | CTDB Status
1 | (60/62) Accurately ripped
2 | (61/62) Accurately ripped
3 | (61/62) Accurately ripped
4 | (61/62) Accurately ripped
5 | (61/62) Accurately ripped
6 | (61/62) Accurately ripped
7 | (61/62) Accurately ripped
8 | (61/62) Accurately ripped
9 | (57/62) Accurately ripped, or (3/62) differs in 1220 samples @06:23:16-06:23:18
[AccurateRip ID: 000f1222-0069f8a9-81097909] found.
Track [ CRC | V2 ] Status
01 [9ee73f7f|9fb4ce3f] (20+17/78) Accurately ripped
02 [517db694|0bd6f97f] (20+17/79) Accurately ripped
03 [5b6ad8c0|ccfc953d] (20+17/78) Accurately ripped
04 [e135c0b2|48d8f32d] (20+17/81) Accurately ripped
05 [8d884362|22f75c7d] (20+17/80) Accurately ripped
06 [c5644327|f0ef0957] (20+16/80) Accurately ripped
07 [ad1b2415|20ca50a2] (20+16/80) Accurately ripped
08 [d5c63f2b|98da0b4a] (20+16/79) Accurately ripped
09 [e248de5e|09e8f2ad] (20+16/79) Accurately ripped
Offsetted by -710:
01 [c74aa3a7] (03/78) Accurately ripped
02 [b2df8b16] (03/79) Accurately ripped
03 [a08c5fde] (03/78) Accurately ripped
04 [75d7c9a6] (03/81) Accurately ripped
05 [50756340] (03/80) Accurately ripped
06 [08293949] (03/80) Accurately ripped
07 [19f128fb] (03/80) Accurately ripped
08 [de659dc1] (03/79) Accurately ripped
09 [53146115] (03/79) Accurately ripped
Offsetted by -46:
01 [f301e107] (09/78) Accurately ripped
02 [02b5168e] (09/79) Accurately ripped
03 [0c3edde6] (09/78) Accurately ripped
04 [47dd74d6] (09/81) Accurately ripped
05 [16ea8e48] (08/80) Accurately ripped
06 [d3d03641] (09/80) Accurately ripped
07 [b1fe75e3] (09/80) Accurately ripped
08 [271967e9] (09/79) Accurately ripped
09 [b3d57fcd] (09/79) Accurately ripped
Offsetted by 259:
01 [f1e1ffeb] (05/78) Accurately ripped
02 [cfdc3073] (05/79) Accurately ripped
03 [af732b11] (05/78) Accurately ripped
04 [e790a378] (05/81) Accurately ripped
05 [fcded553] (05/80) Accurately ripped
06 [3c8a0636] (05/80) Accurately ripped
07 [545e0402] (05/80) Accurately ripped
08 [4ea9ad40] (05/79) Accurately ripped
09 [d73727aa] (05/79) Accurately ripped
Offsetted by 42:
01 [89c3cd67] (00/78) No match (V2 was not tested)
02 [6ce6fac6] (00/79) No match (V2 was not tested)
03 [3f87df2e] (00/78) No match (V2 was not tested)
04 [fdea8b86] (00/81) No match (V2 was not tested)
05 [c22e8490] (00/80) No match (V2 was not tested)
06 [32a8a7f9] (00/80) No match (V2 was not tested)
07 [7c1f110b] (00/80) No match (V2 was not tested)
08 [5effe251] (00/79) No match (V2 was not tested)
09 [f1d8fd33] (00/79) No match (V2 was not tested)

Track Peak [ CRC32 ] [W/O NULL] [ LOG ]
– 100,0 [D78C7D8E] [93D61018] CRC32
01 100,0 [8E55DF5F] [EEACD890]
02 100,0 [DDED22C8] [C0D4DAE2]
03 72,8 [8EC77220] [414CA2E4]
04 82,9 [56586515] [FF8564B8]
05 80,1 [94BB9078] [D12C2705]
06 100,0 [C172A2FF] [DBB7E1FB]
07 99,1 [7C31A4A3] [A1B6EF6D]
08 76,7 [9ECFB4C9] [27600C34]
09 77,8 [86CCB780] [284BDE32]

Thanks to kursebeli

See also: