Tags
Language
Tags

The Dave Brubeck Quartet - Jazz: Red Hot And Cool (1955) [Reissue 2001] (Repost)

Posted By: gribovar
The Dave Brubeck Quartet - Jazz: Red Hot And Cool (1955) [Reissue 2001] (Repost)

The Dave Brubeck Quartet - Jazz: Red Hot And Cool (1955) [Reissue 2001]
EAC Rip | FLAC (image+.cue+log) - 227 MB | MP3 CBR 320 kbps (LAME 3.93) - 134 MB | Covers - 37 MB
Genre: Jazz | RAR 3% Rec. | Label: Columbia/Legacy (CK 61468)

Recorded during three different stays at New York's Basin Street, Jazz: Red, Hot and Cool is making its first appearance in the U.S. on CD. It documents - with the addition of two additional performances that were previously unissued - the original Brubeck quartet in its final years. In 1956 Joe Morello would replace Joe Dodge, and in 1958 Eugene Wright would take over the bass chair from Bob Bates. What strikes the listener about this band, is a having been seasoned for five years when the first of these performances were recorded, the Brubeck quartet was far more immersed in the blues than anyone - at least the critics of the time - had given them credit for. Paul Desmond's alto tone had yet to take on the dry martini velvety texture that became his trademark, and Brubeck was not yet inserting the totality of his classical ideas about the extrapolation of dissonance from consonance and its resulting harmonic theory that was built on an elaborate contrapuntal system. These ideas, that were introduced to him by the French composer and instructor Darius Milhaud and the music of Shostakovich and Stravinsky would later result in the wildly inventive tonal identity expressed in his compositions on Jazz Impressions of Eurasia, Jazz Impressions of New York, and even Time Out. On this set, while Brubeck is playing with large augmented chords and without the use of arpeggios, his strident melodic sense keeps him rooted in the American vernacular musically. There is the gorgeous, post-bop blues in "Lover," and the Gershwin-esque balladic structure employed in "Little Girl Blue." Desmond, for his part was a constant, the most rock steady part of the band. His solos were the epitome of melodic improvisation even then. His break on "Fare the Well, Annabelle," carries the melody and harmony in its venturing. Brubeck, never content to just comp, offers Desmond a few additions on the diminished seventh and he goes for them stitching his counterpoint through them, taking the tune's body into an entirely new intervallic mode. Brubeck's solo quotes Mozart's "Eine Kleine Nacht Musik," Pachelbel's "Canon," and variations on a classical theme from the Orient – Korea, in fact, which was provocative, given the time. The beautiful reading given here of "Love Walked In" is worthy of note because it features the band at its most intimate, hunkered down inside the tune's melody, reworking it to close it off even more from undue influence while re-creating its harmonic architecture. And then there's "The Duke," offered to Gil Evans, a simple stroll through the blues with a nod to both Gershwin and Rogers & Hart. As the band launches into "Indiana" the classic quartet flourish becomes evident; the rhythm section keeps it all steady no matter what happens, and, in Desmond's solo, crossing rhythmic patterns, full time signatures, and meter at lightning speed, this was no mean feat. The two added performances "Taking a Chance on Love" and "Closing Time Blues" were recorded a month after the previous four in August of 1955. Both of them display Brubeck's now trademark two-part counterpoint and Desmond's "in flight" manner of response. They are worthy additions to a record that was already wonderful for its inspiration and the way in which it displayed the band's innovative energy that was unique to live situations.
Tracklist:
01. Lover
02. Little Girl Blue
03. Fare Thee Well, Annabelle
04. Sometimes I'm Happy
05. The Duke
06. Indiana
07. Love Walked In
08. Taking a Chance on Love
09. Closing Time Blues

Total time: 57:11

Exact Audio Copy V0.99 prebeta 4 from 23. January 2008

EAC extraction logfile from 24. July 2008, 20:53

The Dave Brubeck Quartet / Jazz: Red Hot & Cool

Used drive : PLEXTOR DVDR PX-750A Adapter: 3 ID: 0

Read mode : Secure
Utilize accurate stream : Yes
Defeat audio cache : Yes
Make use of C2 pointers : No

Read offset correction : 102
Overread into Lead-In and Lead-Out : No
Fill up missing offset samples with silence : Yes
Delete leading and trailing silent blocks : No
Null samples used in CRC calculations : Yes
Used interface : Installed external ASPI interface

Used output format : Internal WAV Routines
Sample format : 44.100 Hz; 16 Bit; Stereo


TOC of the extracted CD

Track | Start | Length | Start sector | End sector
––––––––––––––––––––––––––––-
1 | 0:00.00 | 5:08.00 | 0 | 23099
2 | 5:08.00 | 10:39.67 | 23100 | 71091
3 | 15:47.67 | 7:23.08 | 71092 | 104324
4 | 23:11.00 | 5:22.70 | 104325 | 128544
5 | 28:33.70 | 2:46.12 | 128545 | 141006
6 | 31:20.07 | 5:54.68 | 141007 | 167624
7 | 37:15.00 | 8:47.07 | 167625 | 207156
8 | 46:02.07 | 4:12.08 | 207157 | 226064
9 | 50:14.15 | 6:57.05 | 226065 | 257344


Range status and errors

Selected range

Filename F:\The Dave Brubeck Quartet - Jazz Red Hot & Cool.wav

Peak level 100.0 %
Range quality 100.0 %
Copy CRC DC5B8712
Copy OK

No errors occurred


AccurateRip summary

Track 1 accurately ripped (confidence 3) [EEB164F6]
Track 2 accurately ripped (confidence 3) [EF90EAB1]
Track 3 accurately ripped (confidence 3) [7966DCA8]
Track 4 accurately ripped (confidence 3) [23076DC9]
Track 5 accurately ripped (confidence 3) [FF666AA9]
Track 6 accurately ripped (confidence 3) [11BE3558]
Track 7 accurately ripped (confidence 3) [838A442A]
Track 8 accurately ripped (confidence 3) [A4700839]
Track 9 accurately ripped (confidence 3) [4280969E]

All tracks accurately ripped

End of status report

[CUETools log; Date: 13.07.2018 22:42:23; Version: 2.1.4]
[CTDB TOCID: m5REo2iyjaEq6p32UgNohbwIZRc-] found.
Track | CTDB Status
1 | (62/62) Accurately ripped
2 | (62/62) Accurately ripped
3 | (62/62) Accurately ripped
4 | (62/62) Accurately ripped
5 | (62/62) Accurately ripped
6 | (62/62) Accurately ripped
7 | (61/62) Accurately ripped
8 | (62/62) Accurately ripped
9 | (60/62) Accurately ripped
[AccurateRip ID: 00143cb5-00928c72-780d6709] found.
Track [ CRC | V2 ] Status
01 [eeb164f6|24164a5c] (14+17/89) Accurately ripped
02 [ef90eab1|060c9abf] (14+17/89) Accurately ripped
03 [7966dca8|531afdda] (14+17/91) Accurately ripped
04 [23076dc9|6c71231b] (14+17/91) Accurately ripped
05 [ff666aa9|1432ef07] (14+17/91) Accurately ripped
06 [11be3558|1e0e82b5] (13+15/87) Accurately ripped
07 [838a442a|fcff51e2] (14+16/89) Accurately ripped
08 [a4700839|8b86c629] (13+16/88) Accurately ripped
09 [4280969e|2f323f47] (13+16/89) Accurately ripped
Offsetted by 177:
01 [b14ee51a] (22/89) Accurately ripped
02 [78222dc0] (22/89) Accurately ripped
03 [2812312c] (24/91) Accurately ripped
04 [0b3a1c41] (24/91) Accurately ripped
05 [91b4be65] (24/91) Accurately ripped
06 [afcd22cc] (23/87) Accurately ripped
07 [29850801] (23/89) Accurately ripped
08 [9a926711] (23/88) Accurately ripped
09 [ad1879d2] (24/89) Accurately ripped
Offsetted by -98:
01 [09a4447b] (00/89) No match (V2 was not tested)
02 [efa9f8e9] (00/89) No match (V2 was not tested)
03 [58a16635] (00/91) No match (V2 was not tested)
04 [fc0e92e9] (00/91) No match (V2 was not tested)
05 [53a78c8a] (00/91) No match (V2 was not tested)
06 [618ccf40] (00/87) No match (V2 was not tested)
07 [04c8acc9] (00/89) No match (V2 was not tested)
08 [1dd0fc33] (00/88) No match (V2 was not tested)
09 [75e9c9ae] (00/89) No match (V2 was not tested)
Offsetted by 180:
01 [4bf1a093] (00/89) No match (V2 was not tested)
02 [8c31aa02] (00/89) No match (V2 was not tested)
03 [03bf9d85] (00/91) No match (V2 was not tested)
04 [c3e2d541] (00/91) No match (V2 was not tested)
05 [8e61190b] (00/91) No match (V2 was not tested)
06 [ef821cfc] (00/87) No match (V2 was not tested)
07 [3ea7ebcd] (00/89) No match (V2 was not tested)
08 [32c0e19c] (00/88) No match (V2 was not tested)
09 [f9dba0c7] (00/89) No match (V2 was not tested)

Track Peak [ CRC32 ] [W/O NULL] [ LOG ]
– 99,9 [DC5B8712] [B7FA537E] CRC32
01 99,9 [48F53595] [8D37452A]
02 99,9 [7E2EC873] [F63AB54C]
03 99,9 [DE07E4A3] [CB0B864A]
04 99,9 [76BEC62D] [3E8784B9]
05 99,9 [96690996] [00A39E20]
06 90,9 [7983BC2F] [D4909637]
07 99,9 [C8D45D68] [98788249]
08 79,5 [A21B3295] [1AD340F0]
09 72,6 [9733A789] [0F0B1AAD]

Thanks to bumbo

See also: