Tags
Language
Tags

The Don Ellis Orchestra - Electric Bath (1967) [Reissue 1994]

Posted By: gribovar
The Don Ellis Orchestra - Electric Bath (1967) [Reissue 1994]

The Don Ellis Orchestra - Electric Bath (1967) [Reissue 1994]
EAC Rip | FLAC (tracks+.cue+log) - 252 MB | Covers (12 MB) included
Genre: Jazz, Big Band | RAR 3% Rec. | Label: Columbia (COL 472620 2)

For his first studio recording with his colorful big band, Don Ellis utilized five trumpets, three trombones, five reeds, Mike Lang on keyboards, three bassists, drummer Steve Bohannon, and three percussionists to perform some remarkable new music. The most memorable selection is "Indian Lady" (accurately described as a "hoedown in 5/4"), which with its false endings is often quite humorous. The other four originals (the trumpeter-leader's feature on "Alone," "Turkish Bath," "Open Beauty," and the 17/4 "New Horizons"), while lesser-known, are also quite spirited. For the first time Ellis opened his band to the influence of rock (making liberal use of electronics) and the results lend themselves to some hilarity.
Tracklist:
01. Indian Lady
02. Alone
03. Turkish Bath
04. Open Beauty
05. New Horizons

Total time: 44:55

Exact Audio Copy V0.99 prebeta 4 from 23. January 2008

EAC extraction logfile from 9. October 2009, 13:30

The Don Ellis Orchestra / Electric Bath

Used drive : HL-DT-STDVD-RAM GH22NP20 Adapter: 0 ID: 0

Read mode : Secure
Utilize accurate stream : Yes
Defeat audio cache : Yes
Make use of C2 pointers : No

Read offset correction : 102
Overread into Lead-In and Lead-Out : No
Fill up missing offset samples with silence : Yes
Delete leading and trailing silent blocks : No
Null samples used in CRC calculations : Yes
Used interface : Installed external ASPI interface
Gap handling : Appended to previous track

Used output format : User Defined Encoder
Selected bitrate : 320 kBit/s
Quality : High
Add ID3 tag : No
Command line compressor : C:\Program Files\Exact Audio Copy\Flac\flac.exe
Additional command line options : -V -8 -T "artist=%a" -T "title=%t" -T "album=%g" -T "date=%y" -T "tracknumber=%n" -T "genre=%m" %s


TOC of the extracted CD

Track | Start | Length | Start sector | End sector
––––––––––––––––––––––––––––-
1 | 0:00.32 | 8:09.08 | 32 | 36714
2 | 8:09.40 | 5:32.37 | 36715 | 61651
3 | 13:42.02 | 10:18.70 | 61652 | 108071
4 | 24:00.72 | 8:31.08 | 108072 | 146404
5 | 32:32.05 | 12:23.27 | 146405 | 202156


Track 1

Filename D:\music\Musicgate's rips\The Don Ellis Orchestra - Electric Bath (1968) {COL 472620 2}\01 - Indian Lady.wav

Pre-gap length 0:00:02.42

Peak level 96.6 %
Track quality 99.9 %
Test CRC 68ECF6F9
Copy CRC 68ECF6F9
Accurately ripped (confidence 1) [15DF1F8F]
Copy OK

Track 2

Filename D:\music\Musicgate's rips\The Don Ellis Orchestra - Electric Bath (1968) {COL 472620 2}\02 - Alone.wav

Pre-gap length 0:00:01.84

Peak level 87.9 %
Track quality 100.0 %
Test CRC 2B1B9707
Copy CRC 2B1B9707
Accurately ripped (confidence 1) [6861E626]
Copy OK

Track 3

Filename D:\music\Musicgate's rips\The Don Ellis Orchestra - Electric Bath (1968) {COL 472620 2}\03 - Turkish Bath.wav

Peak level 92.2 %
Track quality 100.0 %
Test CRC F3FC5661
Copy CRC F3FC5661
Accurately ripped (confidence 1) [7D866E55]
Copy OK

Track 4

Filename D:\music\Musicgate's rips\The Don Ellis Orchestra - Electric Bath (1968) {COL 472620 2}\04 - Open Beauty.wav

Pre-gap length 0:00:01.76

Peak level 98.8 %
Track quality 100.0 %
Test CRC FE97237F
Copy CRC FE97237F
Accurately ripped (confidence 1) [DFBE3ED8]
Copy OK

Track 5

Filename D:\music\Musicgate's rips\The Don Ellis Orchestra - Electric Bath (1968) {COL 472620 2}\05 - New Horizons.wav

Pre-gap length 0:00:02.37

Peak level 97.4 %
Track quality 100.0 %
Test CRC 9B56B3B3
Copy CRC 9B56B3B3
Accurately ripped (confidence 1) [4901AAFD]
Copy OK


All tracks accurately ripped

No errors occurred

End of status report

[CUETools log; Date: 01.02.2019 23:56:20; Version: 2.1.4]
Pregap length 00:00:32.
[CTDB TOCID: HgQqypns4QBd4qd9i7NXXSMoLUA-] found.
Track | CTDB Status
1 | (16/16) Accurately ripped
2 | (16/16) Accurately ripped
3 | (16/16) Accurately ripped
4 | (16/16) Accurately ripped
5 | (16/16) Accurately ripped
[AccurateRip ID: 00087819-00283799-3c0a8705] found.
Track [ CRC | V2 ] Status
01 [15df1f8f|6512f5d3] (0+0/5) No match
02 [6861e626|3750be54] (0+0/5) No match
03 [7d866e55|65a5b0a7] (0+0/5) No match
04 [dfbe3ed8|7d93fab5] (0+0/5) No match
05 [4901aafd|a7c6da67] (0+0/5) No match
Offsetted by -36:
01 [0c2b0eef] (0/5) No match (V2 was not tested)
02 [4086f909] (0/5) No match (V2 was not tested)
03 [5a4be632] (0/5) No match (V2 was not tested)
04 [29bc9b08] (0/5) No match (V2 was not tested)
05 [c0083499] (0/5) No match (V2 was not tested)

Track Peak [ CRC32 ] [W/O NULL] [ LOG ]
– 98,8 [B0AA7F98] [324C8C5D]
01 96,6 [68ECF6F9] [52E346A2] CRC32
02 87,9 [2B1B9707] [D7149B0D] CRC32
03 92,2 [F3FC5661] [251D3584] CRC32
04 98,8 [FE97237F] [742346E7] CRC32
05 97,4 [9B56B3B3] [50BF3545] CRC32

Thanks to Musicgate