Subcategories

The Electric Prunes - Original Album Series (1967-1969) [5CD Box Set] (2013) (Repost)

Posted By: gribovar
The Electric Prunes - Original Album Series (1967-1969) [5CD Box Set] (2013) (Repost)

The Electric Prunes - Original Album Series (1967-1969) [5CD Box Set] (2013)
EAC Rip | FLAC (image+.cue+log) - 943 MB | MP3 CBR 320 kbps (LAME 3.93) - 365 MB | Covers - 296 MB
Genre: Psychedelic Rock | RAR 3% Rec. | Label: Warner Bros. Records (8122796518)

The Electric Prunes were an American Garage Rock band who first achieved international attention as an experimental psychedelic group in the late 1960s. Five CD box set containing a quintet of albums from the Psychedelic rockers all housed in mini LP sleeves and packaged in a slipcase. Includes the albums The Electric Prunes, Underground, Mass in F Minor, Release of an Oath and Just Good Old Rock & Roll.

The Electric Prunes - Original Album Series (1967-1969) [5CD Box Set] (2013) (Repost)

CD 1: The Electric Prunes - The Electric Prunes (1967)
EAC Rip | FLAC (image+.cue+log) - 183 MB | MP3 CBR 320 kbps (LAME 3.93) - 70 MB | Covers - 50 MB
Genre: Psychedelic Rock | RAR 3% Rec. | Label: Warner Bros. Records (8122796518-1)

Tracklist:
01. I Had Too Much To Dream (Last Night)
02. Bangles
03. Onie
04. Are You Lovin' Me More (But Enjoyining It Less)
05. Train For Tomorrow
06. Sold To The Highest Bidder
07. Get Me To The World On Time 02:32
08. About A Quarter To Nine
09. The King Is In The Counting House
10. Luvin'
11. Try Me On For Size
12. The Toonerville Trolley

Total time: 29:52

Exact Audio Copy V1.0 beta 3 from 29. August 2011

EAC extraction logfile from 12. October 2013, 21:05

The Electric Prunes / The Electric Prunes

Used drive : PLEXTOR BD-R PX-B950SA Adapter: 6 ID: 0

Read mode : Secure
Utilize accurate stream : Yes
Defeat audio cache : Yes
Make use of C2 pointers : No

Read offset correction : 6
Overread into Lead-In and Lead-Out : No
Fill up missing offset samples with silence : Yes
Delete leading and trailing silent blocks : No
Null samples used in CRC calculations : Yes
Used interface : Native Win32 interface for Win NT & 2000

Used output format : Internal WAV Routines
Sample format : 44.100 Hz; 16 Bit; Stereo


TOC of the extracted CD

Track | Start | Length | Start sector | End sector
––––––––––––––––––––––––––––-
1 | 0:00.00 | 2:58.09 | 0 | 13358
2 | 2:58.09 | 2:29.16 | 13359 | 24549
3 | 5:27.25 | 2:42.31 | 24550 | 36730
4 | 8:09.56 | 2:25.12 | 36731 | 47617
5 | 10:34.68 | 3:01.52 | 47618 | 61244
6 | 13:36.45 | 2:24.59 | 61245 | 72103
7 | 16:01.29 | 2:32.38 | 72104 | 83541
8 | 18:33.67 | 2:13.05 | 83542 | 93521
9 | 20:46.72 | 2:01.36 | 93522 | 102632
10 | 22:48.33 | 2:04.15 | 102633 | 111947
11 | 24:52.48 | 2:21.71 | 111948 | 122593
12 | 27:14.44 | 2:37.49 | 122594 | 134417


Range status and errors

Selected range

Filename C:\Users\Meijin\Desktop\Electric Prunes\2013 Original Album Series (5CD Box Set Rhino Records)\1967 The Electric Prunes\The Electric Prunes - The Electric Prunes.wav

Peak level 100.0 %
Extraction speed 6.2 X
Range quality 100.0 %
Test CRC 1056B2EA
Copy CRC 1056B2EA
Copy OK

No errors occurred


AccurateRip summary

Track 1 accurately ripped (confidence 1) [9A618F1A] (AR v2)
Track 2 accurately ripped (confidence 1) [03822286] (AR v2)
Track 3 accurately ripped (confidence 1) [4461B418] (AR v2)
Track 4 accurately ripped (confidence 1) [A75B5677] (AR v2)
Track 5 accurately ripped (confidence 1) [93EB7FB6] (AR v2)
Track 6 accurately ripped (confidence 1) [E20061D9] (AR v2)
Track 7 accurately ripped (confidence 1) [97DA366F] (AR v2)
Track 8 accurately ripped (confidence 1) [C96B0580] (AR v2)
Track 9 accurately ripped (confidence 1) [3FA8CFE1] (AR v2)
Track 10 accurately ripped (confidence 1) [B6FD8700] (AR v2)
Track 11 accurately ripped (confidence 1) [9905E918] (AR v2)
Track 12 accurately ripped (confidence 1) [7CBBF982] (AR v2)

All tracks accurately ripped

End of status report

==== Log checksum 41DAA4C5FAA1AE7D556E15E7C817E332CC00215C57055F04458E37E2F908F7E3 ====

[CUETools log; Date: 15.03.2018 19:51:40; Version: 2.1.4]
[CTDB TOCID: SKwaTzJG_Xq3cItgLC6TA4cd_j4-] found.
Track | CTDB Status
1 | (39/39) Accurately ripped
2 | (39/39) Accurately ripped
3 | (39/39) Accurately ripped
4 | (39/39) Accurately ripped
5 | (39/39) Accurately ripped
6 | (39/39) Accurately ripped
7 | (39/39) Accurately ripped
8 | (39/39) Accurately ripped
9 | (39/39) Accurately ripped
10 | (39/39) Accurately ripped
11 | (39/39) Accurately ripped
12 | (39/39) Accurately ripped
[AccurateRip ID: 000dcc48-007f517f-9d07000c] found.
Track [ CRC | V2 ] Status
01 [7c7b87e7|9a618f1a] (02+17/19) Accurately ripped
02 [09af9f7b|03822286] (02+16/18) Accurately ripped
03 [0be5d975|4461b418] (02+16/18) Accurately ripped
04 [0e4471ce|a75b5677] (02+16/18) Accurately ripped
05 [207ab0f7|93eb7fb6] (02+16/18) Accurately ripped
06 [69a1d1be|e20061d9] (02+16/18) Accurately ripped
07 [3ac892cd|97da366f] (02+16/18) Accurately ripped
08 [65f9f6a7|c96b0580] (02+16/18) Accurately ripped
09 [b2a9e4e6|3fa8cfe1] (02+16/18) Accurately ripped
10 [26f6d4de|b6fd8700] (02+16/18) Accurately ripped
11 [ca0cae9f|9905e918] (02+16/18) Accurately ripped
12 [5c0512df|7cbbf982] (02+16/18) Accurately ripped

Track Peak [ CRC32 ] [W/O NULL] [ LOG ]
– 99,9 [1056B2EA] [473465EF] CRC32
01 99,4 [2F2D95F0] [A7B4C3E3]
02 99,9 [CDC8BCA7] [4B207D79]
03 82,0 [7DC3ABA0] [62A95F80]
04 98,3 [738E1DEA] [F2919F28]
05 98,8 [6DC6A153] [E91DC945]
06 89,2 [D3BDBA36] [6668CD89]
07 95,3 [AAF2B0B8] [2EBA5854]
08 61,3 [062D85DC] [17DC4AF9]
09 77,6 [8CDB189C] [DA43F76C]
10 88,3 [EE8947D9] [1237433A]
11 94,1 [E9DD020F] [1B2D1EED]
12 87,0 [B83B5098] [E76EB426]

The Electric Prunes - Original Album Series (1967-1969) [5CD Box Set] (2013) (Repost)

CD 2: The Electric Prunes - Underground (1967)
EAC Rip | FLAC (image+.cue+log) - 227 MB | MP3 CBR 320 kbps (LAME 3.93) - 86 MB | Covers - 55 MB
Genre: Psychedelic Rock | RAR 3% Rec. | Label: Warner Bros. Records (8122796518-2)

Tracklist:
01. The Great Banana Hoax
02. Children Of Rain
03. Wind-Up Toys
04. Antique Doll
05. It's Not Fair
06. I Happen To Love You
07. Dr. Do-Good
08. I
09. Hideaway
10. Big City
11. Capt. Glory
12. Long Day's Flight

Total time: 36:31

Exact Audio Copy V1.0 beta 3 from 29. August 2011

EAC extraction logfile from 12. October 2013, 20:35

The Electric Prunes / Underground

Used drive : PLEXTOR BD-R PX-B950SA Adapter: 6 ID: 0

Read mode : Secure
Utilize accurate stream : Yes
Defeat audio cache : Yes
Make use of C2 pointers : No

Read offset correction : 6
Overread into Lead-In and Lead-Out : No
Fill up missing offset samples with silence : Yes
Delete leading and trailing silent blocks : No
Null samples used in CRC calculations : Yes
Used interface : Native Win32 interface for Win NT & 2000

Used output format : Internal WAV Routines
Sample format : 44.100 Hz; 16 Bit; Stereo


TOC of the extracted CD

Track | Start | Length | Start sector | End sector
––––––––––––––––––––––––––––-
1 | 0:00.00 | 4:09.21 | 0 | 18695
2 | 4:09.21 | 2:37.54 | 18696 | 30524
3 | 6:47.00 | 2:26.50 | 30525 | 41524
4 | 9:13.50 | 3:13.13 | 41525 | 56012
5 | 12:26.63 | 2:04.59 | 56013 | 65371
6 | 14:31.47 | 3:19.33 | 65372 | 80329
7 | 17:51.05 | 2:26.40 | 80330 | 91319
8 | 20:17.45 | 5:14.41 | 91320 | 114910
9 | 25:32.11 | 2:42.37 | 114911 | 127097
10 | 28:14.48 | 2:46.63 | 127098 | 139610
11 | 31:01.36 | 2:14.15 | 139611 | 149675
12 | 33:15.51 | 3:15.11 | 149676 | 164311


Range status and errors

Selected range

Filename C:\Users\Meijin\Desktop\Electric Prunes\2013 Original Album Series (5CD Box Set Rhino Records)\1967 Underground\The Electric Prunes - Underground.wav

Peak level 100.0 %
Extraction speed 6.5 X
Range quality 100.0 %
Test CRC 63419FA9
Copy CRC 63419FA9
Copy OK

No errors occurred


AccurateRip summary

Track 1 accurately ripped (confidence 1) [E5CBEA3A] (AR v2)
Track 2 accurately ripped (confidence 1) [BE2C43D0] (AR v2)
Track 3 accurately ripped (confidence 1) [9FFA0E68] (AR v2)
Track 4 accurately ripped (confidence 1) [D5054EA9] (AR v2)
Track 5 accurately ripped (confidence 1) [122CE036] (AR v2)
Track 6 accurately ripped (confidence 1) [44A9FF7D] (AR v2)
Track 7 accurately ripped (confidence 1) [A2734FE6] (AR v2)
Track 8 accurately ripped (confidence 1) [69ECDF4C] (AR v2)
Track 9 accurately ripped (confidence 1) [A2153DD0] (AR v2)
Track 10 accurately ripped (confidence 1) [B7E3C974] (AR v2)
Track 11 accurately ripped (confidence 1) [44926DF7] (AR v2)
Track 12 accurately ripped (confidence 1) [98E2766A] (AR v2)

All tracks accurately ripped

End of status report

==== Log checksum 19D7AD20E8958FB5574022B6A8E92CDEDE0271579390A4C000674C65AC6B43C9 ====

[CUETools log; Date: 15.03.2018 19:53:05; Version: 2.1.4]
[CTDB TOCID: cJLyU_AV2hcywDqmaDeqh0ujLBE-] found.
Track | CTDB Status
1 | (38/38) Accurately ripped
2 | (38/38) Accurately ripped
3 | (38/38) Accurately ripped
4 | (38/38) Accurately ripped
5 | (38/38) Accurately ripped
6 | (38/38) Accurately ripped
7 | (38/38) Accurately ripped
8 | (38/38) Accurately ripped
9 | (38/38) Accurately ripped
10 | (38/38) Accurately ripped
11 | (38/38) Accurately ripped
12 | (38/38) Accurately ripped
[AccurateRip ID: 0010785d-00991897-b2088e0c] found.
Track [ CRC | V2 ] Status
01 [85b26465|e5cbea3a] (00+16/16) Accurately ripped
02 [ca5d9c6c|be2c43d0] (00+16/16) Accurately ripped
03 [d2dd3296|9ffa0e68] (00+16/16) Accurately ripped
04 [83f9fb81|d5054ea9] (00+16/16) Accurately ripped
05 [6c3b09f7|122ce036] (00+16/16) Accurately ripped
06 [5e4ceef5|44a9ff7d] (00+16/16) Accurately ripped
07 [868b0b0c|a2734fe6] (00+16/16) Accurately ripped
08 [34b530a7|69ecdf4c] (00+16/16) Accurately ripped
09 [f075126b|a2153dd0] (00+16/16) Accurately ripped
10 [fc46e6c5|b7e3c974] (00+16/16) Accurately ripped
11 [8aafe182|44926df7] (00+16/16) Accurately ripped
12 [046c31c2|98e2766a] (00+16/16) Accurately ripped

Track Peak [ CRC32 ] [W/O NULL] [ LOG ]
– 100,0 [63419FA9] [F6F91751] CRC32
01 100,0 [E05D24CC] [73384AEC]
02 88,4 [E0DC1F15] [2386BDCA]
03 100,0 [EEE27A5F] [C1341188]
04 99,7 [653F1384] [5112E967]
05 99,9 [7D91C47E] [81D4F369]
06 97,2 [E5B8D823] [184EDBD1]
07 99,5 [6C6EDFFB] [F0EF3C3B]
08 91,4 [19F0640A] [AD5AA5FB]
09 99,7 [264E5671] [8A467354]
10 82,4 [92C413D9] [9173B957]
11 91,6 [B12481F0] [32449D8D]
12 93,3 [716B0CD2] [1C214667]

The Electric Prunes - Original Album Series (1967-1969) [5CD Box Set] (2013) (Repost)

CD 3: The Electric Prunes - Mass In F Minor (1968)
EAC Rip | FLAC (image+.cue+log) - 147 MB | MP3 CBR 320 kbps (LAME 3.93) - 62 MB | Covers - 53 MB
Genre: Psychedelic Rock | RAR 3% Rec. | Label: Warner Bros. Records (8122796518-3)

Tracklist:
01. Kyrie Eleison
02. Gloria
03. Credo
04. Sanctus
05. Benedictus
06. Agnus Dei

Total time: 26:28

Exact Audio Copy V1.0 beta 3 from 29. August 2011

EAC extraction logfile from 12. October 2013, 20:07

The Electric Prunes / Mass In F Minor

Used drive : PLEXTOR BD-R PX-B950SA Adapter: 6 ID: 0

Read mode : Secure
Utilize accurate stream : Yes
Defeat audio cache : Yes
Make use of C2 pointers : No

Read offset correction : 6
Overread into Lead-In and Lead-Out : No
Fill up missing offset samples with silence : Yes
Delete leading and trailing silent blocks : No
Null samples used in CRC calculations : Yes
Used interface : Native Win32 interface for Win NT & 2000

Used output format : Internal WAV Routines
Sample format : 44.100 Hz; 16 Bit; Stereo


TOC of the extracted CD

Track | Start | Length | Start sector | End sector
––––––––––––––––––––––––––––-
1 | 0:00.00 | 3:22.17 | 0 | 15166
2 | 3:22.17 | 5:45.45 | 15167 | 41086
3 | 9:07.62 | 5:01.43 | 41087 | 63704
4 | 14:09.30 | 2:57.12 | 63705 | 76991
5 | 17:06.42 | 4:52.53 | 76992 | 98944
6 | 21:59.20 | 4:29.15 | 98945 | 119134


Range status and errors

Selected range

Filename C:\Users\Meijin\Desktop\Electric Prunes\2013 Original Album Series (5CD Box Set Rhino Records)\1968 Mass In F Minor\The Electric Prunes - Mass In F Minor.wav

Peak level 90.9 %
Extraction speed 6.0 X
Range quality 100.0 %
Test CRC F7DC81A5
Copy CRC F7DC81A5
Copy OK

No errors occurred


AccurateRip summary

Track 1 accurately ripped (confidence 1) [051B09ED] (AR v2)
Track 2 accurately ripped (confidence 1) [9649AB79] (AR v2)
Track 3 accurately ripped (confidence 1) [190D422C] (AR v2)
Track 4 accurately ripped (confidence 1) [3446D20E] (AR v2)
Track 5 accurately ripped (confidence 1) [0179D449] (AR v2)
Track 6 accurately ripped (confidence 1) [6AA1D6E8] (AR v2)

All tracks accurately ripped

End of status report

==== Log checksum C72FD50D41E523B680310CF2C3F51AA1AF0D89FC9D8B5FE36A2A1EF8C140BA62 ====

[CUETools log; Date: 15.03.2018 19:53:47; Version: 2.1.4]
[CTDB TOCID: SF9r1ahsLf5XjriAeyCGTLJCa0o-] found.
Track | CTDB Status
1 | (44/45) Accurately ripped
2 | (45/45) Accurately ripped
3 | (45/45) Accurately ripped
4 | (45/45) Accurately ripped
5 | (45/45) Accurately ripped
6 | (43/45) Accurately ripped
[AccurateRip ID: 00065537-0021e3bf-3a063406] found.
Track [ CRC | V2 ] Status
01 [8c8b42ec|051b09ed] (02+16/21) Accurately ripped
02 [51634b38|9649ab79] (02+16/21) Accurately ripped
03 [36a7d2ec|190d422c] (02+16/21) Accurately ripped
04 [2323c7ba|3446d20e] (02+16/21) Accurately ripped
05 [ab71bf05|0179d449] (02+16/21) Accurately ripped
06 [6f5c4271|6aa1d6e8] (02+17/22) Accurately ripped
Offsetted by -6:
01 [772ac8ac] (00/21) No match (V2 was not tested)
02 [96c1dfa8] (00/21) No match (V2 was not tested)
03 [f238894e] (00/21) No match (V2 was not tested)
04 [2f35f35e] (00/21) No match (V2 was not tested)
05 [83a16cbd] (00/21) No match (V2 was not tested)
06 [f26e7851] (00/22) No match (V2 was not tested)

Track Peak [ CRC32 ] [W/O NULL] [ LOG ]
– 90,9 [F7DC81A5] [4A43DA77] CRC32
01 87,0 [8AC96F34] [D6994B15]
02 90,9 [354C7131] [50F15683]
03 86,0 [C428F72E] [53659847]
04 78,1 [45AB47AF] [7A7446E1]
05 73,6 [E52801B4] [52A4B7BA]
06 88,6 [DAC3F443] [62D82CA1]

The Electric Prunes - Original Album Series (1967-1969) [5CD Box Set] (2013) (Repost)

CD 4: The Electric Prunes - Release Of An Oath (1968)
EAC Rip | FLAC (image+.cue+log) - 158 MB | MP3 CBR 320 kbps (LAME 3.93) - 59 MB | Covers - 54 MB
Genre: Psychedelic Rock | RAR 3% Rec. | Label: Warner Bros. Records (8122796518-4)

Tracklist:
01. Kol Nidre
02. Holy Are You
03. General Confessional
04. Individual Confessional
05. Our Father, Our King
06. The Adoration
07. Closing Hymn

Total time: 25:17

Exact Audio Copy V1.0 beta 3 from 29. August 2011

EAC extraction logfile from 12. October 2013, 19:41

The Electric Prunes / Release Of An Oath

Used drive : PLEXTOR BD-R PX-B950SA Adapter: 6 ID: 0

Read mode : Secure
Utilize accurate stream : Yes
Defeat audio cache : Yes
Make use of C2 pointers : No

Read offset correction : 6
Overread into Lead-In and Lead-Out : No
Fill up missing offset samples with silence : Yes
Delete leading and trailing silent blocks : No
Null samples used in CRC calculations : Yes
Used interface : Native Win32 interface for Win NT & 2000

Used output format : Internal WAV Routines
Sample format : 44.100 Hz; 16 Bit; Stereo


TOC of the extracted CD

Track | Start | Length | Start sector | End sector
––––––––––––––––––––––––––––-
1 | 0:00.00 | 4:17.59 | 0 | 19333
2 | 4:17.59 | 4:09.50 | 19334 | 38058
3 | 8:27.34 | 4:19.67 | 38059 | 57550
4 | 12:47.26 | 2:17.61 | 57551 | 67886
5 | 15:05.12 | 3:13.41 | 67887 | 82402
6 | 18:18.53 | 3:51.31 | 82403 | 99758
7 | 22:10.09 | 3:07.26 | 99759 | 113809


Range status and errors

Selected range

Filename C:\Users\Meijin\Desktop\Electric Prunes\2013 Original Album Series (5CD Box Set Rhino Records)\1968 Release Of An Oath\The Electric Prunes - Release Of An Oath.wav

Peak level 96.0 %
Extraction speed 6.0 X
Range quality 100.0 %
Test CRC F0DFAC9B
Copy CRC F0DFAC9B
Copy OK

No errors occurred


AccurateRip summary

Track 1 accurately ripped (confidence 1) [17ADF3E3] (AR v2)
Track 2 accurately ripped (confidence 1) [8376A2A1] (AR v2)
Track 3 accurately ripped (confidence 1) [30D8286E] (AR v2)
Track 4 accurately ripped (confidence 1) [EB583665] (AR v2)
Track 5 accurately ripped (confidence 1) [33C4032A] (AR v2)
Track 6 accurately ripped (confidence 1) [B75FEF00] (AR v2)
Track 7 accurately ripped (confidence 1) [E3400D39] (AR v2)

All tracks accurately ripped

End of status report

==== Log checksum A812E38DDF52515C7987D360EF98DAF90FDFD559DD64345DAC96B9E22D2646A6 ====

[CUETools log; Date: 15.03.2018 19:54:36; Version: 2.1.4]
[CTDB TOCID: JYfF1nbmXzNY_H6CrHBlZZPDUOM-] found.
Track | CTDB Status
1 | (39/39) Accurately ripped
2 | (39/39) Accurately ripped
3 | (39/39) Accurately ripped
4 | (39/39) Accurately ripped
5 | (39/39) Accurately ripped
6 | (39/39) Accurately ripped
7 | (39/39) Accurately ripped
[AccurateRip ID: 00074e53-002b1de0-5105ed07] found.
Track [ CRC | V2 ] Status
01 [4f611902|17adf3e3] (00+17/17) Accurately ripped
02 [ca2f7b11|8376a2a1] (00+17/17) Accurately ripped
03 [011d03ed|30d8286e] (00+17/17) Accurately ripped
04 [0bd075f7|eb583665] (00+17/17) Accurately ripped
05 [709e9f0f|33c4032a] (00+17/17) Accurately ripped
06 [9f1959a8|b75fef00] (00+17/17) Accurately ripped
07 [2453e4fa|e3400d39] (00+17/17) Accurately ripped

Track Peak [ CRC32 ] [W/O NULL] [ LOG ]
– 96,0 [F0DFAC9B] [9CE2B4DB] CRC32
01 92,9 [00198C26] [140C4E42]
02 96,0 [69AFDC22] [14EC79D9]
03 94,7 [0C3D147E] [5A36B410]
04 89,8 [A3AEAF07] [B1F5AA60]
05 91,2 [4139764A] [DB4B5D92]
06 94,0 [8DB32077] [CF36BF7F]
07 93,6 [F347F4C5] [287EABD9]

The Electric Prunes - Original Album Series (1967-1969) [5CD Box Set] (2013) (Repost)

CD 5: The Electric Prunes - Just Good Old Rock And Roll (1969)
EAC Rip | FLAC (image+.cue+log) - 228 MB | MP3 CBR 320 kbps (LAME 3.93) - 88 MB | Covers - 46 MB
Genre: Psychedelic Rock | RAR 3% Rec. | Label: Warner Bros. Records (8122796518-5)

Tracklist:
01. Sell
02. 14 Year Old Funk
03. Love Grows
04. So Many People To Tell
05. Finders Keepers, Losers Weepers
06. Giant Sunhorse
07. Violent Rose
08. Thorjon
09. Silver Passion Mine
10. Tracks
11. Sing To Me

Total time: 37:33

Exact Audio Copy V1.0 beta 3 from 29. August 2011

EAC extraction logfile from 12. October 2013, 19:06

The Electric Prunes / Just Good Old Rock And Roll

Used drive : PLEXTOR BD-R PX-B950SA Adapter: 6 ID: 0

Read mode : Secure
Utilize accurate stream : Yes
Defeat audio cache : Yes
Make use of C2 pointers : No

Read offset correction : 6
Overread into Lead-In and Lead-Out : No
Fill up missing offset samples with silence : Yes
Delete leading and trailing silent blocks : No
Null samples used in CRC calculations : Yes
Used interface : Native Win32 interface for Win NT & 2000

Used output format : Internal WAV Routines
Sample format : 44.100 Hz; 16 Bit; Stereo


TOC of the extracted CD

Track | Start | Length | Start sector | End sector
––––––––––––––––––––––––––––-
1 | 0:00.00 | 3:14.65 | 0 | 14614
2 | 3:14.65 | 3:34.70 | 14615 | 30734
3 | 6:49.60 | 4:09.40 | 30735 | 49449
4 | 10:59.25 | 4:01.00 | 49450 | 67524
5 | 15:00.25 | 3:33.16 | 67525 | 83515
6 | 18:33.41 | 4:09.13 | 83516 | 102203
7 | 22:42.54 | 2:44.35 | 102204 | 114538
8 | 25:27.14 | 3:00.33 | 114539 | 128071
9 | 28:27.47 | 2:54.61 | 128072 | 141182
10 | 31:22.33 | 2:45.41 | 141183 | 153598
11 | 34:07.74 | 3:25.05 | 153599 | 168978


Range status and errors

Selected range

Filename C:\Users\Meijin\Desktop\Electric Prunes\2013 Original Album Series (5CD Box Set Rhino Records)\1969 Just Good Old Rock And Roll\The Electric Prunes - Just Good Old Rock And Roll.wav

Peak level 99.9 %
Extraction speed 3.0 X
Range quality 100.0 %
Test CRC DD81FD9B
Copy CRC DD81FD9B
Copy OK

No errors occurred


AccurateRip summary

Track 1 accurately ripped (confidence 1) [40274090] (AR v2)
Track 2 accurately ripped (confidence 1) [012AF0AB] (AR v2)
Track 3 accurately ripped (confidence 1) [F22F5CD0] (AR v2)
Track 4 accurately ripped (confidence 1) [9AA7C927] (AR v2)
Track 5 accurately ripped (confidence 1) [EA0B34EA] (AR v2)
Track 6 accurately ripped (confidence 1) [7B43C2FD] (AR v2)
Track 7 accurately ripped (confidence 1) [740FC682] (AR v2)
Track 8 accurately ripped (confidence 1) [1207FD74] (AR v2)
Track 9 accurately ripped (confidence 1) [8337C725] (AR v2)
Track 10 accurately ripped (confidence 1) [850F585A] (AR v2)
Track 11 accurately ripped (confidence 1) [271E885E] (AR v2)

All tracks accurately ripped

End of status report

==== Log checksum F50501A16736C26AB027B60E62D4B3BFD5A4730BB6413C3E1D534E008BA41F7B ====

[CUETools log; Date: 15.03.2018 19:55:19; Version: 2.1.4]
[CTDB TOCID: prhoJmwcNRuKiDYmzGYg1.mWpKg-] found.
Track | CTDB Status
1 | (41/41) Accurately ripped
2 | (40/41) Accurately ripped
3 | (40/41) Accurately ripped
4 | (40/41) Accurately ripped
5 | (40/41) Accurately ripped
6 | (40/41) Accurately ripped
7 | (40/41) Accurately ripped
8 | (40/41) Accurately ripped
9 | (40/41) Accurately ripped
10 | (40/41) Accurately ripped
11 | (40/41) Accurately ripped
[AccurateRip ID: 001016d1-008a6b98-8c08cd0b] found.
Track [ CRC | V2 ] Status
01 [2e73a58d|40274090] (00+17/17) Accurately ripped
02 [9affd4f2|012af0ab] (00+17/17) Accurately ripped
03 [4ab32817|f22f5cd0] (00+17/17) Accurately ripped
04 [8a32d654|9aa7c927] (00+17/17) Accurately ripped
05 [31cff980|ea0b34ea] (00+17/17) Accurately ripped
06 [ce2c7d12|7b43c2fd] (00+17/17) Accurately ripped
07 [84d15fa7|740fc682] (00+17/17) Accurately ripped
08 [083a8509|1207fd74] (00+17/17) Accurately ripped
09 [fd2e5d50|8337c725] (00+17/17) Accurately ripped
10 [c8a7284f|850f585a] (00+17/17) Accurately ripped
11 [5ce8c068|271e885e] (00+17/17) Accurately ripped

Track Peak [ CRC32 ] [W/O NULL] [ LOG ]
– 99,9 [DD81FD9B] [C29B8BDB] CRC32
01 99,9 [74A23590] [4061A2F3]
02 94,3 [E4E70E33] [2031E1AD]
03 92,2 [F047F315] [75EA7070]
04 80,5 [ACEF544A] [42204E10]
05 93,1 [D988DCD6] [1229D507]
06 95,5 [AAE8454A] [60D08E7D]
07 80,7 [74EC2F57] [ECE130CB]
08 83,0 [FF7AD870] [8C5336D7]
09 74,4 [E550E4E4] [236B80DE]
10 88,2 [EC16B632] [759E4B0B]
11 85,2 [917CDA8E] [B2DA003D]

Thanks to allekkss48