Subcategories

The Flonzaley Quartet Play Classical Masterpieces · Haydn · Mozart · Beethoven [2CD set] [Re-up]

Posted By: DanseDePuck
The Flonzaley Quartet Play Classical Masterpieces · Haydn · Mozart · Beethoven [2CD set] [Re-up]

The Flonzaley Quartet Play Classical Masterpieces · Haydn · Mozart · Beethoven
EAC rip | FLAC, IMG+CUE, Logs | 2 CD's | 463 MB | Full 300 dpi scans | WinRar Rec. 5%
Label: [OOP] Biddulph # LAB 089/90 | Rec. dates: 1926-29 | Released 1994

From the notes: If we wish to get an insight into what our music-loving grandparents regarded as "the Classical style", we need look no further than these discs, representing the work of the modern world's first great Franco-Belgian string quartet ensemble. Here is the epitome of the wristy bowing, springy rhythm and gutty but delicate sound, with its restrained vibrato, which flourished in Brussels, Liège and Paris until the Second World War, when it began to give ground to the advance of the Russian school. By the time these precious records were made, even the Flonzaley Quartet had taken a Russian violinist to its bosom - but the essential lightness and clarity of the Franco-Belgian method survived…. The Flonzaley Quartet was a full-time group composed of four absolutely equal partners and its performances were immaculately groomed. written by Tully Potter

The Flonzaley Quartet Play Classical Masterpieces · Haydn · Mozart · Beethoven [2CD set] [Re-up]

CD 1(LAB 089)
HAYDN
String Quartet in E (Op. 3 No. 1)

1. III. Andantino
Rec. 18 Dec. 1928
String Quartet in F (Op. 3 No. 5) "Serenade"
2. IV. Andante cantabile
Rec. 2 Feb. 19525
String Quartet in D (Op. 64 No. 5) "Lark"
3. I. Allegro moderato
4. II. Adagio cantabile
5. III. Menuetto: Allegretto
6. IV. Finale: Vivace

Rec. 18 Dec. 1928
String Quartet in G minor (Op. 74 No. 3) "Rider"
7. IV. Allegro con brio
Rec. 21 Dec. 1928
MOZART
String Quartet in D minor (K.421)

8. I. Allegro moderato
9. II. Andante
10. III. Menuetto: Allegretto - Trio - Menuetto
11. IV. Allegretto ma non troppo

Rec. 30 Apr. & 2 May 1929
String Quartet in D (K.575)
12. I. Allegretto
13. II. Andante
14. III. Menuetto: Allegretto - Trio - Menuetto
15. IV. Allegretto

Rec. 20-22 Oct. 1927
BEETHOVEN
String Quartet No. 4 in C minor (Op. 18 No. 4)

16. III. Menuetto: Allegretto
Rec. 3 Jan. 1927
String Quartet No. 6 in B-flat (Op. 18 No. 6)
17. III. Scherzo: Allegro
Rec. 3 May 1929


CD 2(LAB 090)
BEETHOVEN
String Quartet in G (Op. 18 No. 2)

1. I. Allegro
2. II. Adagio cantabile - Allegro
3. III. Scherzo: Allegro - Trio - Scherzo
4. IV. Allegro molto quasi presto

Rec. 10 & 11 Jan. 1926
String Quartet in E-flat (Op. 127)
5. I. Maestoso - Allegro
6. II. Adagio, ma non troppo e molto cantabile
7. III. Scherzando vivace
8. IV. Finale

Rec. 29-Apr. & 1-3 May 1929
String Quartet in F (Op. 135)
9. I. Allegretto
10. II. Vivace
11. III. Lento assai, cantante e tranquillo
12. IV. Der schwer begasste Entschluss:
Grave ma non troppo tratto - Allegro

Rec. 30 Dec. & 3-4 Jan. 1927

Adolfo Betti, Violin I
Alfred Pochon, Violin II
Nicolas Moldavan, Viola
Iwan d'Archambeau, Cello


Enjoy!

Exact Audio Copy V0.99 prebeta 5 from 4. May 2009

EAC extraction logfile from 20. December 2009, 21:30

Flonzaley Quartet CD 1 / Flonzaley Qt plays Haydn, Mozart, Beethoven

Used drive : HL-DT-STDVD-RAM GH22NP20 Adapter: 1 ID: 0

Read mode : Secure
Utilize accurate stream : Yes
Defeat audio cache : Yes
Make use of C2 pointers : No

Read offset correction : 102
Overread into Lead-In and Lead-Out : No
Fill up missing offset samples with silence : Yes
Delete leading and trailing silent blocks : No
Null samples used in CRC calculations : No
Used interface : Installed external ASPI interface

Used output format : Internal WAV Routines
Sample format : 44.100 Hz; 16 Bit; Stereo


TOC of the extracted CD

Track | Start | Length | Start sector | End sector
––––––––––––––––––––––––––––-
1 | 0:00.00 | 3:56.61 | 0 | 17760
2 | 3:56.61 | 3:22.10 | 17761 | 32920
3 | 7:18.71 | 4:15.65 | 32921 | 52110
4 | 11:34.61 | 4:47.29 | 52111 | 73664
5 | 16:22.15 | 2:32.20 | 73665 | 85084
6 | 18:54.35 | 1:51.60 | 85085 | 93469
7 | 20:46.20 | 4:22.24 | 93470 | 113143
8 | 25:08.44 | 4:47.65 | 113144 | 134733
9 | 29:56.34 | 4:26.06 | 134734 | 154689
10 | 34:22.40 | 3:13.68 | 154690 | 169232
11 | 37:36.33 | 4:47.71 | 169233 | 190828
12 | 42:24.29 | 5:02.27 | 190829 | 213505
13 | 47:26.56 | 3:43.10 | 213506 | 230240
14 | 51:09.66 | 3:47.10 | 230241 | 247275
15 | 54:57.01 | 5:35.60 | 247276 | 272460
16 | 60:32.61 | 3:31.01 | 272461 | 288286
17 | 64:03.62 | 3:23.05 | 288287 | 303516


Range status and errors

Selected range

Filename E:\ADIL\FLONZALEY\Flonzaley+Quartet\Flonzaley Quartet\Classical Masterworks\Classical Masters\Disc 1 (LAB 089)\Flonzaley Quartet CD 1 - Flonzaley Qt plays Haydn, Mozart, Beethoven.wav

Peak level 76.2 %
Range quality 100.0 %
Copy CRC A5C2C8F2
Copy OK

No errors occurred


AccurateRip summary

Track 1 not present in database
Track 2 not present in database
Track 3 not present in database
Track 4 not present in database
Track 5 not present in database
Track 6 not present in database
Track 7 not present in database
Track 8 not present in database
Track 9 not present in database
Track 10 not present in database
Track 11 not present in database
Track 12 not present in database
Track 13 not present in database
Track 14 not present in database
Track 15 not present in database
Track 16 not present in database
Track 17 not present in database

None of the tracks are present in the AccurateRip database

End of status report

Exact Audio Copy V0.99 prebeta 5 from 4. May 2009

EAC extraction logfile from 20. December 2009, 21:21

Flonzaley Quartet CD 2 / Flonzaley Quartet plays Haydn, Mozart & Beethoven v2

Used drive : HL-DT-STDVD-RAM GH22NP20 Adapter: 1 ID: 0

Read mode : Secure
Utilize accurate stream : Yes
Defeat audio cache : Yes
Make use of C2 pointers : No

Read offset correction : 102
Overread into Lead-In and Lead-Out : No
Fill up missing offset samples with silence : Yes
Delete leading and trailing silent blocks : No
Null samples used in CRC calculations : No
Used interface : Installed external ASPI interface

Used output format : Internal WAV Routines
Sample format : 44.100 Hz; 16 Bit; Stereo


TOC of the extracted CD

Track | Start | Length | Start sector | End sector
––––––––––––––––––––––––––––-
1 | 0:00.00 | 5:45.62 | 0 | 25936
2 | 5:45.62 | 6:08.46 | 25937 | 53582
3 | 11:54.33 | 4:23.47 | 53583 | 73354
4 | 16:18.05 | 5:38.37 | 73355 | 98741
5 | 21:56.42 | 6:26.38 | 98742 | 127729
6 | 28:23.05 | 13:03.48 | 127730 | 186502
7 | 41:26.53 | 7:05.06 | 186503 | 218383
8 | 48:31.59 | 6:36.40 | 218384 | 248123
9 | 55:08.24 | 6:17.60 | 248124 | 276458
10 | 61:26.09 | 3:12.35 | 276459 | 290893
11 | 64:38.44 | 5:58.20 | 290894 | 317763
12 | 70:36.64 | 5:51.67 | 317764 | 344155


Range status and errors

Selected range

Filename E:\ADIL\FLONZALEY\Flonzaley+Quartet\Flonzaley Quartet\Classical Masterworks\Classical Masters\Disc 2 (LAB 090)\Flonzaley Quartet CD 2 - Flonzaley Quartet plays Haydn, Mozart & Beethoven v2.wav

Peak level 97.8 %
Range quality 100.0 %
Copy CRC 890AB70A
Copy OK

No errors occurred


AccurateRip summary

Track 1 not present in database
Track 2 not present in database
Track 3 not present in database
Track 4 not present in database
Track 5 not present in database
Track 6 not present in database
Track 7 not present in database
Track 8 not present in database
Track 9 not present in database
Track 10 not present in database
Track 11 not present in database
Track 12 not present in database

None of the tracks are present in the AccurateRip database

End of status report