Subcategories

The Fusion Syndicate - Fusion Syndicate (2012)

Posted By: tiburon
The Fusion Syndicate - Fusion Syndicate (2012)

The Fusion Syndicate - Fusion Syndicate (2012)
EAC 1.0b3 | FLAC tracks level 8 | Cue+Log+M3U | Full Scans 300dpi | 383MB + 5% Recovery
Genre: Fusion, Jazz Rock

From the producer of The Prog Collective comes a new supergroup of unparalleled musical virtuosos who cut loose on this jazz-rock fusion album! Features performances by members of the biggest names in fusion including Mahavishnu Orchestra, Yellowjackets, Brand X, Soft Machine, and Spyro Gyra PLUS Yes, Dream Theater, King Crimson, Tool, Porcupine Tree, Hawkwind and more!
Track List
1. Random Acts Of Science (Rick Wakeman,Jerry Goodman, Nik Turner, Jimmy Haslip) 7:54
2. Stone Cold Infusion (Steve Stevens, Jordan Rudess, Mel Collins, Colin Edwin, Billy Cobham) 7:32
3. Molecular Breakdown (Jay Beckenstein, Billy Sheehan, Gavin Harrison, David Sancious) 7:20
4. Particle Accelerations (Larry Coryell, Derek Sherinian, Eric Marienthal, Chester Thompson) 7:39
5. At The Edge Of The Middle (Steve Morse, Jim Beard, Randy Brecker, Percy Jones) 7:37
6. Atom Smashing (John Etheridge, Tony Kaye, Chad Wackerman) 7:36
7. In The Spirit Of… (Steve Hillage, Scott Kinsey, Theo Travis, Justin Chancellor, Asaf Sirkis) 7:16

musicians
Billy Cobham - drums
Larry Coryell - guitar
Randy Brecker - trumpet
Jimmy Haslip - bass
Steve Stevens - guitar
Jay Beckenstein - sax
Eric Marienthal - sax
Rick Wakeman - keyboards
Steve Morse - lead guitar
Chester Thompson - drums
Jordan Rudess - keyboards
Jerry Goodman - violins
Nik Turner - sax
Mel Collins - sax
Colin Edwin - bass
David Sancious - keyboards
Billy Sheehan - bass
Gavin Harrison - drums
Derek Sherinian - keyboards
Jim Beard - piano
Percy Jones - bass
John Etheridge - guitar
Tony Kaye - Hammond organ, synths
Chad Wackerman - drums
Steve Hillage - guitar
Scott Kinsey - keyboards
Theo Travis - sax
Justin Chancellor - bass
Asaf Sirkis - bass
Billy Sherwood - keyboards, guitars, drums, Rhodes, synths, vocals

Produced by Billy Sherwood


Exact Audio Copy V1.0 beta 3 from 29. August 2011

EAC extraction logfile from 22. January 2013, 23:23

The Fusion Syndicate / Fusion Syndicate

Used drive : HL-DT-STDVDRAM GH20NS10 Adapter: 2 ID: 1

Read mode : Secure
Utilize accurate stream : Yes
Defeat audio cache : Yes
Make use of C2 pointers : No

Read offset correction : 667
Overread into Lead-In and Lead-Out : No
Fill up missing offset samples with silence : Yes
Delete leading and trailing silent blocks : No
Null samples used in CRC calculations : Yes
Used interface : Native Win32 interface for Win NT & 2000
Gap handling : Appended to previous track

Used output format : User Defined Encoder
Selected bitrate : 1024 kBit/s
Quality : High
Add ID3 tag : No
Command line compressor : C:\Program Files\Exact Audio Copy\Flac\flac.exe
Additional command line options : -8 -V -T "ARTIST=%artist%" -T "TITLE=%title%" -T "ALBUM=%albumtitle%" -T "DATE=%year%" -T "TRACKNUMBER=%tracknr%" -T "TOTALTRACKS=%numtracks%" -T "GENRE=%genre%" -T "ALBUMARTIST=%albumartist%" -T "ALBUM ARTIST=%albumartist%" -T "COMMENT=EAC Secure Mode, Test & Copy, AccurateRip, FLAC -8" %source%


TOC of the extracted CD

Track | Start | Length | Start sector | End sector
––––––––––––––––––––––––––––-
1 | 0:00.00 | 7:54.00 | 0 | 35549
2 | 7:54.00 | 7:31.74 | 35550 | 69448
3 | 15:25.74 | 7:20.00 | 69449 | 102448
4 | 22:45.74 | 7:39.00 | 102449 | 136873
5 | 30:24.74 | 7:37.01 | 136874 | 171149
6 | 38:02.00 | 7:35.73 | 171150 | 205347
7 | 45:37.73 | 7:16.06 | 205348 | 238053


Track 1

Filename D:\The Fusion Syndicate - Fusion Syndicate (2012) [FLAC]\01 - Random Acts Of Science.wav

Pre-gap length 0:00:02.00

Peak level 99.9 %
Extraction speed 4.2 X
Track quality 100.0 %
Test CRC C8590736
Copy CRC C8590736
Cannot be verified as accurate (confidence 1) [7157F301], AccurateRip returned [B54AF408] (AR v2)
Copy OK

Track 2

Filename D:\The Fusion Syndicate - Fusion Syndicate (2012) [FLAC]\02 - Stone Cold Infusion.wav

Pre-gap length 0:00:00.65

Peak level 98.8 %
Extraction speed 6.0 X
Track quality 100.0 %
Test CRC 73553EF1
Copy CRC 73553EF1
Cannot be verified as accurate (confidence 1) [810A127E], AccurateRip returned [177998EF] (AR v2)
Copy OK

Track 3

Filename D:\The Fusion Syndicate - Fusion Syndicate (2012) [FLAC]\03 - Molecular Breakdown.wav

Pre-gap length 0:00:00.58

Peak level 82.2 %
Extraction speed 5.5 X
Track quality 100.0 %
Test CRC 77424F4C
Copy CRC 77424F4C
Cannot be verified as accurate (confidence 1) [3F07EED2], AccurateRip returned [6E9293EF] (AR v2)
Copy OK

Track 4

Filename D:\The Fusion Syndicate - Fusion Syndicate (2012) [FLAC]\04 - Particle Accelerations.wav

Peak level 95.5 %
Extraction speed 6.2 X
Track quality 100.0 %
Test CRC C327FA4E
Copy CRC C327FA4E
Cannot be verified as accurate (confidence 1) [36766854], AccurateRip returned [69758E7A] (AR v2)
Copy OK

Track 5

Filename D:\The Fusion Syndicate - Fusion Syndicate (2012) [FLAC]\05 - At The Edge Of The Middle.wav

Pre-gap length 0:00:00.56

Peak level 97.7 %
Extraction speed 7.3 X
Track quality 100.0 %
Test CRC 77CFD48A
Copy CRC 77CFD48A
Cannot be verified as accurate (confidence 1) [65E6C303], AccurateRip returned [A11025B7] (AR v2)
Copy OK

Track 6

Filename D:\The Fusion Syndicate - Fusion Syndicate (2012) [FLAC]\06 - Atom Smashing.wav

Pre-gap length 0:00:01.54

Peak level 87.1 %
Extraction speed 8.3 X
Track quality 100.0 %
Test CRC 74279076
Copy CRC 74279076
Cannot be verified as accurate (confidence 1) [95674BA5], AccurateRip returned [582DA5EC] (AR v2)
Copy OK

Track 7

Filename D:\The Fusion Syndicate - Fusion Syndicate (2012) [FLAC]\07 - In The Spirit Of….wav

Pre-gap length 0:00:00.44

Peak level 96.6 %
Extraction speed 7.8 X
Track quality 100.0 %
Test CRC 2D4E6D19
Copy CRC 2D4E6D19
Cannot be verified as accurate (confidence 1) [2E543A66], AccurateRip returned [9707E64F] (AR v2)
Copy OK


No tracks could be verified as accurate
You may have a different pressing from the one(s) in the database

No errors occurred

End of status report

==== Log checksum D575D976A6D3DBB393A54A45F26CD5DF31AE17DA6C31EAD12B479CD2FEE2E0A9 ====


––––––––––––––––––––––––––––––––––––––––
Analyzed: The Fusion Syndicate / Fusion Syndicate
––––––––––––––––––––––––––––––––––––––––

DR Peak RMS Duration Track
––––––––––––––––––––––––––––––––––––––––
DR11 0.00 dB -12.56 dB 7:54 01-Random Acts Of Science
DR12 -0.10 dB -13.54 dB 7:32 02-Stone Cold Infusion
DR9 -1.70 dB -12.28 dB 7:20 03-Molecular Breakdown
DR10 -0.40 dB -12.79 dB 7:39 04-Particle Accelerations
DR11 -0.20 dB -12.52 dB 7:37 05-At The Edge Of The Middle
DR9 -1.20 dB -12.31 dB 7:36 06-Atom Smashing
DR11 -0.30 dB -12.82 dB 7:16 07-In The Spirit Of…
––––––––––––––––––––––––––––––––––––––––

Number of tracks: 7
Official DR value: DR10

Samplerate: 44100 Hz
Channels: 2
Bits per sample: 16
Bitrate: 969 kbps
Codec: FLAC
================================================================================

Woman's Weekly New Zealand - February 15, 2018
Woman's Weekly New Zealand - February 15, 2018
Woman's Weekly New Zealand - February 15, 2018


Rip by tiburon