Subcategories

The Greatest Show on Earth - 2 Studio Albums (1970) [Reissue 2012] (Repost)

Posted By: gribovar
The Greatest Show on Earth - 2 Studio Albums (1970) [Reissue 2012] (Repost)

The Greatest Show on Earth - 2 Studio Albums (1970) [Reissue 2012]
EAC Rip | WavPack (image+.cue+log) - 565 MB | MP3 CBR 320 kbps (LAME 3.93) - 216 MB | Covers - 333 MB
Genre: Progressive Rock | RAR 3% Rec. | Label: Esoteric Recordings

The Greatest Show on Earth - Horizons (1970). The Greatest Show on Earth were one of the more stylistically original signings to EMI’s legendary Progressive label Harvest. The band was formed in 1968 and featured brothers Garth and Norman Watt-Roy (who played guitar and bass respectively), along with American vocalist Ozzie Lane, Mick Deacon on Organ, a horn section of Dick Hanson, Tex Philpotts and Ian Aitcheson and drummer Ron Prudence. Initially beginning life as a Soul outfit, the band’s musical direction changed when vocalist Lane returned home to New Orleans in early 1969. Replaced by Colin Horton-Jennings (who also played guitar and flute), the band began to take on board more "progressive” influences, incorporating rock, jazz and acoustic music into their sound. An impressive live act, Greatest Show on Earth released their debut album, "Horizons” in February 1970 adorned in a startling Hipgnosis designed sleeve. The album was an excellent work featuring the ambitious eleven minute title track and "Real Cool World” which was released as a single throughout Europe, gaining some chart success on the Continent. This Esoteric Recordings reissue has been newly re-mastered from the original Harvest master tapes and features a booklet that fully restores all original album artwork with a new essay.

The Greatest Show On Earth - The Going's Easy (1970). "The Going’s Easy”, released in November 1970, was an equally competent work that included the excellent rock track ‘Borderline’ and the acoustic ‘Magic Woman Touch’ (later covered by The Hollies). Upon the band’s demise Mike Deacon joined Vinegar Joe (fronted by Elkie Brooks and Robert Palmer), Garth Watt-Roy went on to perform and record with Fuzzy Duck. Norman Watt-Roy and John Turnball later became founder members of Ian Dury’s backing group, The Blockheads. This Esoteric Recordings reissue features two bonus tracks, has been newly re-mastered from the original Harvest master tapes and features a booklet that fully restores all original album artwork with a new essay.

The Greatest Show on Earth - 2 Studio Albums (1970) [Reissue 2012] (Repost)

The Greatest Show on Earth - Horizons (1970) [Reissue 2012]
EAC Rip | WavPack (image+.cue+log) - 291 MB | MP3 CBR 320 kbps (LAME 3.93) - 106 MB | Covers - 172 MB
Genre: Progressive Rock | RAR 3% Rec. | Label: Esoteric Recordings (ECLEC2362)

Tracklist:
01. Sunflower Morning
02. Angelina
03. Skylight Man
04. Day Of The Lady
05. Real Cool World
06. I Fought For Love
07. Horizons
08. Again And Again

Total time: 45:04

Exact Audio Copy V1.0 beta 3 from 29. August 2011

EAC extraction logfile from 22. September 2013, 11:04

The Greatest Show on Earth / Horizons

Used drive : HL-DT-STBDDVDRW GBC-H20N Adapter: 1 ID: 0

Read mode : Secure
Utilize accurate stream : Yes
Defeat audio cache : Yes
Make use of C2 pointers : No

Read offset correction : 667
Overread into Lead-In and Lead-Out : No
Fill up missing offset samples with silence : Yes
Delete leading and trailing silent blocks : No
Null samples used in CRC calculations : Yes
Used interface : Native Win32 interface for Win NT & 2000

Used output format : User Defined Encoder
Selected bitrate : 1024 kBit/s
Quality : High
Add ID3 tag : No
Command line compressor : C:\Program Files\Exact Audio Copy\wavpack.exe
Additional command line options : -hm %source% %dest%


TOC of the extracted CD

Track | Start | Length | Start sector | End sector
––––––––––––––––––––––––––––-
1 | 0:00.00 | 4:58.64 | 0 | 22413
2 | 4:58.64 | 4:07.50 | 22414 | 40988
3 | 9:06.39 | 4:31.16 | 40989 | 61329
4 | 13:37.55 | 4:10.73 | 61330 | 80152
5 | 17:48.53 | 4:49.68 | 80153 | 101895
6 | 22:38.46 | 4:23.67 | 101896 | 121687
7 | 27:02.38 | 13:59.21 | 121688 | 184633
8 | 41:01.59 | 4:02.53 | 184634 | 202836


Range status and errors

Selected range

Filename C:\Users\ProgDog\Music\ZALIVKI\The Greatest Show on Earth - Horizons\The Greatest Show on Earth - Horizons.wav

Peak level 99.4 %
Extraction speed 5.5 X
Range quality 99.9 %
Test CRC B457D2C7
Copy CRC B457D2C7
Copy OK

No errors occurred


AccurateRip summary

Track 1 accurately ripped (confidence 1) [E20F728E] (AR v2)
Track 2 accurately ripped (confidence 1) [87BACA86] (AR v2)
Track 3 accurately ripped (confidence 1) [A45CE303] (AR v2)
Track 4 accurately ripped (confidence 1) [5B51E329] (AR v2)
Track 5 accurately ripped (confidence 1) [AE95C2AC] (AR v2)
Track 6 accurately ripped (confidence 1) [11AC3029] (AR v2)
Track 7 accurately ripped (confidence 1) [FB4D7C40] (AR v2)
Track 8 accurately ripped (confidence 1) [FC3EB7FB] (AR v2)

All tracks accurately ripped

End of status report

–– CUETools DB Plugin V2.1.3

[CTDB TOCID: jrNphQKYxAmpqP1s8jl2CAVEbEk-] disk not present in database, Submit result: jrNphQKYxAmpqP1s8jl2CAVEbEk- has been uploaded


==== Log checksum 752CB31875F589C7B6A65D14566593F710EB33805E32B3EF2C4764C7B7247CC0 ====

[CUETools log; Date: 23.02.2017 19:32:44; Version: 2.1.4]
[CTDB TOCID: jrNphQKYxAmpqP1s8jl2CAVEbEk-] found.
Track | CTDB Status
1 | (3/3) Accurately ripped
2 | (3/3) Accurately ripped
3 | (3/3) Accurately ripped
4 | (3/3) Accurately ripped
5 | (3/3) Accurately ripped
6 | (3/3) Accurately ripped
7 | (3/3) Accurately ripped
8 | (3/3) Accurately ripped
[AccurateRip ID: 000c7345-0055239e-560a9008] found.
Track [ CRC | V2 ] Status
01 [b01c300e|e20f728e] (0+2/2) Accurately ripped
02 [d3aae320|87baca86] (0+2/2) Accurately ripped
03 [18b0ae6b|a45ce303] (0+2/2) Accurately ripped
04 [a07d0bd8|5b51e329] (0+2/2) Accurately ripped
05 [2e36685b|ae95c2ac] (0+2/2) Accurately ripped
06 [4e61f897|11ac3029] (0+2/2) Accurately ripped
07 [c3741d70|fb4d7c40] (0+2/2) Accurately ripped
08 [d03b221e|fc3eb7fb] (0+2/2) Accurately ripped

Track Peak [ CRC32 ] [W/O NULL] [ LOG ]
– 99,4 [B457D2C7] [A1BB6C9F] CRC32
01 99,4 [D584D276] [31ECEA0A]
02 99,4 [F27E39A0] [765C64F9]
03 99,4 [EF537704] [1BFB658D]
04 99,4 [7505D1D2] [75D8259F]
05 99,4 [C3B1AC94] [58EE5BAA]
06 99,4 [80A6EC22] [E21D47DE]
07 99,4 [741B4870] [58451FE7]
08 99,4 [93357144] [5EBCFE75]

The Greatest Show on Earth - 2 Studio Albums (1970) [Reissue 2012] (Repost)

The Greatest Show On Earth - The Going's Easy (1970) [Reissue 2012]
EAC Rip | WavPack (image+.cue+log) - 274 MB | MP3 CBR 320 kbps (LAME 3.93) - 110 MB | Covers - 161 MB
Genre: Progressive Rock | RAR 3% Rec. | Label: Esoteric Recordings (ECLEC2363)

Tracklist:
01. Borderline
02. Magic Woman Touch
03. Story Times And Nursery Rhymes
04. The Leader
05. Love Magnet
06. Tell The Story
07. Mountain Song (Bonus track)
08. Magic Woman Touch (Single version, Bonus track)

Total time: 46:44

Exact Audio Copy V1.0 beta 3 from 29. August 2011

EAC extraction logfile from 22. September 2013, 11:31

The Greatest Show on Earth / The Going´s Easy

Used drive : HL-DT-STBDDVDRW GBC-H20N Adapter: 1 ID: 0

Read mode : Secure
Utilize accurate stream : Yes
Defeat audio cache : Yes
Make use of C2 pointers : No

Read offset correction : 667
Overread into Lead-In and Lead-Out : No
Fill up missing offset samples with silence : Yes
Delete leading and trailing silent blocks : No
Null samples used in CRC calculations : Yes
Used interface : Native Win32 interface for Win NT & 2000

Used output format : User Defined Encoder
Selected bitrate : 1024 kBit/s
Quality : High
Add ID3 tag : No
Command line compressor : C:\Program Files\Exact Audio Copy\wavpack.exe
Additional command line options : -hm %source% %dest%


TOC of the extracted CD

Track | Start | Length | Start sector | End sector
––––––––––––––––––––––––––––-
1 | 0:00.00 | 9:20.25 | 0 | 42024
2 | 9:20.25 | 5:13.70 | 42025 | 65569
3 | 14:34.20 | 4:52.04 | 65570 | 87473
4 | 19:26.24 | 5:45.28 | 87474 | 113376
5 | 25:11.52 | 9:28.25 | 113377 | 156001
6 | 34:40.02 | 4:34.65 | 156002 | 176616
7 | 39:14.67 | 3:34.22 | 176617 | 192688
8 | 42:49.14 | 3:54.26 | 192689 | 210264


Range status and errors

Selected range

Filename C:\Users\ProgDog\Music\ZALIVKI\The Greatest Show on Earth - The Going´s Easy\The Greatest Show on Earth - The Going´s Easy.wav

Peak level 99.4 %
Extraction speed 5.7 X
Range quality 100.0 %
Test CRC 94B2046C
Copy CRC 94B2046C
Copy OK

No errors occurred


AccurateRip summary

Track 1 accurately ripped (confidence 2) [93FDD67B] (AR v2)
Track 2 accurately ripped (confidence 2) [5F2E8001] (AR v2)
Track 3 accurately ripped (confidence 2) [F9F72ADB] (AR v2)
Track 4 accurately ripped (confidence 2) [CD0784FF] (AR v2)
Track 5 accurately ripped (confidence 2) [1EFAEE7B] (AR v2)
Track 6 accurately ripped (confidence 2) [FB417B7B] (AR v2)
Track 7 accurately ripped (confidence 2) [8C770C11] (AR v2)
Track 8 accurately ripped (confidence 2) [76A5DADC] (AR v2)

All tracks accurately ripped

End of status report

–– CUETools DB Plugin V2.1.3

[CTDB TOCID: JknOEFSZD6J_KFjeHl7nPku7Tvg-] disk not present in database, Submit result: JknOEFSZD6J_KFjeHl7nPku7Tvg- has been uploaded


==== Log checksum 5205E91B5E526AC669317830994D0B8DBAE501A12311EF7DF1B4D50868A79E3B ====

[CUETools log; Date: 23.02.2017 19:33:29; Version: 2.1.4]
[CTDB TOCID: JknOEFSZD6J_KFjeHl7nPku7Tvg-] found.
Track | CTDB Status
1 | (5/5) Accurately ripped
2 | (5/5) Accurately ripped
3 | (5/5) Accurately ripped
4 | (5/5) Accurately ripped
5 | (5/5) Accurately ripped
6 | (5/5) Accurately ripped
7 | (5/5) Accurately ripped
8 | (5/5) Accurately ripped
[AccurateRip ID: 000fee33-0067d13a-690af308] found.
Track [ CRC | V2 ] Status
01 [33d15ba1|93fdd67b] (0+4/4) Accurately ripped
02 [1d964487|5f2e8001] (0+4/4) Accurately ripped
03 [bc0cb161|f9f72adb] (0+4/4) Accurately ripped
04 [88bad745|cd0784ff] (0+4/4) Accurately ripped
05 [ddccc000|1efaee7b] (0+4/4) Accurately ripped
06 [6d2ceee1|fb417b7b] (0+4/4) Accurately ripped
07 [4f0a6bc1|8c770c11] (0+4/4) Accurately ripped
08 [34b73134|76a5dadc] (0+4/4) Accurately ripped

Track Peak [ CRC32 ] [W/O NULL] [ LOG ]
– 99,4 [94B2046C] [5AC3BC2C] CRC32
01 99,4 [86D782F1] [978554A5]
02 99,4 [0881F42D] [300FCF79]
03 99,4 [C6794CD1] [32C5CD82]
04 99,4 [15E4B452] [7CCF9387]
05 99,4 [562646C8] [5F7D5FB1]
06 99,4 [B498BFA8] [473B08D8]
07 92,4 [68754CE2] [09E61A66]
08 87,9 [EEA55F62] [D2061545]

Thanks to triGada