The London Studio Orchestra and Singers - For Lovers Only: Great Romantic Themes (1997, 3CD Box Set)

Posted By: popsakov
The London Studio Orchestra and Singers - For Lovers Only: Great Romantic Themes (1997, 3CD Box Set)

The London Studio Orchestra and Singers - For Lovers Only: Great Romantic Themes (1997)
3CD | EAC Rip | FLAC (Img) + Cue + Log ~ 1,12 Gb | MP3 CBR320 ~ 539 Mb
Scans Included (JPG, 300 dpi) | RAR 5% Recovery
Pop, Easy Listening, Instrumental | PWM Masters Ltd./ United Audio Entertainment Ltd. #2699942

This Box set includes 3CD: All Night Long - 20 Themes For Lovers; Memory - 20 Romantic Themes; Feelings - 16 Love Themes.

***************

The London Studio Orchestra and Singers - For Lovers Only: Great Romantic Themes (1997, 3CD Box Set)

The London Studio Orchestra - All Night Long: 20 Themes For Lovers (1997)
EAC Rip | FLAC (Img) + Cue + Log ~ 407 Mb | MP3 CBR320 ~ 187 Mb
Scans Included (JPG, 300 dpi) | RAR 5% Recovery
Orchestral, Easy Listening | PWM Masters Ltd./ United Audio Entertainment Ltd. #IP 21122

The London Studio Orchestra and Singers - For Lovers Only: Great Romantic Themes (1997, 3CD Box Set)

Track List CD1:

01. I Just Called To Say I Love You [04:23]
02. Never Gonna Let You Go [03:19]
03. With You I'm Born Again [03:13]
04. Baby Come To Me [03:16]
05. Take A Look At Me Now [03:18]
06. Blue Fantasy [03:21]
07. True [03:15]
08. Lady Of The Dawn [03:50]
09. All The Love In The World [03:36]
10. I Love You [03:10]
11. Caresess Whisper [05:03]
12. Lost Without Your Love [02:56]
13. Orchard Road [03:52]
14. Let It Be [03:41]
15. Tomorrow & Forever [03:06]
16. Old & Wise [03:10]
17. Midnight Blue [03:56]
18. Don't It Make Your Body Move [03:34]
19. You Are [03:29]
20. All Night Long [03:20]

Exact Audio Copy V1.0 beta 3 from 29. August 2011

EAC extraction logfile from 17. April 2015, 0:56

Studio London Orchestra / All Night Long

Used drive : PIONEER BD-RW BDR-TD03 Adapter: 0 ID: 1

Read mode : Secure
Utilize accurate stream : Yes
Defeat audio cache : Yes
Make use of C2 pointers : No

Read offset correction : 667
Overread into Lead-In and Lead-Out : No
Fill up missing offset samples with silence : Yes
Delete leading and trailing silent blocks : No
Null samples used in CRC calculations : Yes
Used interface : Native Win32 interface for Win NT & 2000

Used output format : User Defined Encoder
Selected bitrate : 768 kBit/s
Quality : High
Add ID3 tag : No
Command line compressor : C:\Program Files (x86)\Exact Audio Copy\FLAC\FLAC.EXE
Additional command line options : -6 -V -T "ARTIST=%artist%" -T "TITLE=%title%" -T "ALBUM=%albumtitle%" -T "DATE=%year%" -T "TRACKNUMBER=%tracknr%" -T "GENRE=%genre%" -T "COMMENT=%comment%" -T "BAND=%albuminterpret%" -T "ALBUMARTIST=%albuminterpret%" -T "COMPOSER=%composer%" %haslyrics%–tag-from-file=LYRICS="%lyricsfile%"%haslyrics% -T "DISCNUMBER=%cdnumber%" -T "TOTALDISCS=%totalcds%" -T "TOTALTRACKS=%numtracks%" %hascover%–picture="%coverfile%"%hascover% %source% -o %dest%


TOC of the extracted CD

Track | Start | Length | Start sector | End sector
––––––––––––––––––––––––––––-
1 | 0:00.32 | 4:22.28 | 32 | 19709
2 | 4:22.60 | 3:19.00 | 19710 | 34634
3 | 7:41.60 | 3:12.62 | 34635 | 49096
4 | 10:54.47 | 3:15.28 | 49097 | 63749
5 | 14:10.00 | 3:17.15 | 63750 | 78539
6 | 17:27.15 | 3:20.37 | 78540 | 93576
7 | 20:47.52 | 3:14.68 | 93577 | 108194
8 | 24:02.45 | 3:49.32 | 108195 | 125401
9 | 27:52.02 | 3:35.60 | 125402 | 141586
10 | 31:27.62 | 3:09.50 | 141587 | 155811
11 | 34:37.37 | 5:02.33 | 155812 | 178494
12 | 39:39.70 | 2:55.15 | 178495 | 191634
13 | 42:35.10 | 3:51.42 | 191635 | 209001
14 | 46:26.52 | 3:40.20 | 209002 | 225521
15 | 50:06.72 | 3:05.08 | 225522 | 239404
16 | 53:12.05 | 3:09.42 | 239405 | 253621
17 | 56:21.47 | 3:55.73 | 253622 | 271319
18 | 60:17.45 | 3:33.17 | 271320 | 287311
19 | 63:50.62 | 3:28.45 | 287312 | 302956
20 | 67:19.32 | 3:20.00 | 302957 | 317956


Range status and errors

Selected range

Filename C:\Users\Deris\Desktop\LoStOrch\cd1\Studio London Orchestra - All Night Long.wav

Peak level 92.8 %
Extraction speed 5.1 X
Range quality 100.0 %
Test CRC 26C30F1F
Copy CRC 26C30F1F
Copy OK

No errors occurred


AccurateRip summary

Track 1 cannot be verified as accurate (confidence 3) [4104D166], AccurateRip returned [39453EF6] (AR v2)
Track 2 cannot be verified as accurate (confidence 3) [4FB7AA48], AccurateRip returned [F78C530B] (AR v2)
Track 3 cannot be verified as accurate (confidence 3) [5C2B5AE4], AccurateRip returned [2002B7D0] (AR v2)
Track 4 cannot be verified as accurate (confidence 3) [497A0384], AccurateRip returned [26718C21] (AR v2)
Track 5 cannot be verified as accurate (confidence 3) [73ECF28B], AccurateRip returned [ED384607] (AR v2)
Track 6 cannot be verified as accurate (confidence 3) [C9EB5242], AccurateRip returned [65F13DCA] (AR v2)
Track 7 cannot be verified as accurate (confidence 3) [277792B0], AccurateRip returned [450C1605] (AR v2)
Track 8 cannot be verified as accurate (confidence 3) [B479BFF7], AccurateRip returned [437E7D4E] (AR v2)
Track 9 cannot be verified as accurate (confidence 3) [ED3FD195], AccurateRip returned [BA7FB499] (AR v2)
Track 10 cannot be verified as accurate (confidence 3) [59A35D5E], AccurateRip returned [0E5C85EC] (AR v2)
Track 11 cannot be verified as accurate (confidence 3) [DA112026], AccurateRip returned [267AED91] (AR v2)
Track 12 cannot be verified as accurate (confidence 3) [13AEDA9A], AccurateRip returned [149DDC32] (AR v2)
Track 13 cannot be verified as accurate (confidence 3) [2027D6E8], AccurateRip returned [DBC9AF03] (AR v2)
Track 14 cannot be verified as accurate (confidence 3) [75E3CEE0], AccurateRip returned [8E335067] (AR v2)
Track 15 cannot be verified as accurate (confidence 2) [D1652640], AccurateRip returned [D4A1880B] (AR v2)
Track 16 cannot be verified as accurate (confidence 3) [F825496F], AccurateRip returned [7925225B] (AR v2)
Track 17 cannot be verified as accurate (confidence 3) [3D129359], AccurateRip returned [694AF9EB] (AR v2)
Track 18 cannot be verified as accurate (confidence 3) [D9D83C54], AccurateRip returned [07BB98BB] (AR v2)
Track 19 cannot be verified as accurate (confidence 3) [981FA713], AccurateRip returned [AA083C6E] (AR v2)
Track 20 cannot be verified as accurate (confidence 3) [F61DCDB5], AccurateRip returned [7E752391] (AR v2)

No tracks could be verified as accurate
You may have a different pressing from the one(s) in the database

End of status report

–– CUETools DB Plugin V2.1.3

[CTDB TOCID: JrMAkiNKtT0thEkieGI08hhBW3A-] found, Submit result: discs with pregaps not supported in this protocol version
[f68608ed] (1/1) Differs in 0 samples @
You can use CUETools to repair this rip.


==== Log checksum B1C3B0E359A9A936C5AA2A4405CCCC06D84D1F8513795B78A7EB496E7521B54D ====

foobar2000 1.2.6 / Dynamic Range Meter 1.1.1
log date: 2015-04-21 14:16:40

––––––––––––––––––––––––––––––––––––––––
Analyzed: Studio London Orchestra / All Night Long
––––––––––––––––––––––––––––––––––––––––

DR Peak RMS Duration Track
––––––––––––––––––––––––––––––––––––––––
DR12 -2.90 dB -17.40 dB 4:22 01-I Just Called To Say I Love You
DR14 -3.57 dB -19.44 dB 3:19 02-Never Gonna Let You Go
DR13 -2.65 dB -18.49 dB 3:13 03-With You I'm Born Again
DR13 -3.28 dB -18.81 dB 3:15 04-Baby Come To Me
DR14 -0.80 dB -17.75 dB 3:17 05-Take A Look At Me Now
DR15 -0.80 dB -18.92 dB 3:20 06-Blue Fantasy
DR14 -2.05 dB -19.37 dB 3:15 07-True
DR11 -0.64 dB -14.83 dB 3:49 08-Lady Of The Dawn
DR13 -2.40 dB -17.44 dB 3:36 09-All The Love In The World
DR13 -3.47 dB -21.31 dB 3:10 10-I Love You
DR18 -1.37 dB -21.64 dB 5:02 11-Caresess Whisper
DR13 -1.94 dB -18.60 dB 2:55 12-Lost Without Your Love
DR13 -3.05 dB -19.24 dB 3:52 13-Orchard Road
DR13 -1.13 dB -19.40 dB 3:40 14-Let It Be
DR12 -2.45 dB -19.24 dB 3:05 15-Tomorrow & Forever
DR12 -4.78 dB -19.46 dB 3:10 16-Old & Wise
DR17 -5.21 dB -25.26 dB 3:56 17-Midnight Blue
DR15 -3.62 dB -21.52 dB 3:33 18-Don't It Make Your Body Move
DR15 -3.65 dB -23.11 dB 3:29 19-You Are
DR14 -3.56 dB -20.25 dB 3:20 20-All Night Long
––––––––––––––––––––––––––––––––––––––––

Number of tracks: 20
Official DR value: DR14

Samplerate: 44100 Hz
Channels: 2
Bits per sample: 16
Bitrate: 734 kbps
Codec: FLAC
================================================================================

[CUETools log; Date: 21.04.2015 14:15:21; Version: 2.1.5]
Pregap length 00:00:32.
[CTDB TOCID: JrMAkiNKtT0thEkieGI08hhBW3A-] found.
Track | CTDB Status
1 | (1/1) Accurately ripped
2 | (1/1) Accurately ripped
3 | (1/1) Accurately ripped
4 | (1/1) Accurately ripped
5 | (1/1) Accurately ripped
6 | (1/1) Accurately ripped
7 | (1/1) Accurately ripped
8 | (1/1) Accurately ripped
9 | (1/1) Accurately ripped
10 | (1/1) Accurately ripped
11 | (1/1) Accurately ripped
12 | (1/1) Accurately ripped
13 | (1/1) Accurately ripped
14 | (1/1) Accurately ripped
15 | (1/1) Accurately ripped
16 | (1/1) Accurately ripped
17 | (1/1) Accurately ripped
18 | (1/1) Accurately ripped
19 | (1/1) Accurately ripped
20 | (1/1) Accurately ripped
[AccurateRip ID: 0033146c-02ecc6aa-38108f14] found.
Track [ CRC | V2 ] Status
01 [2a7c712b|4104d166] (0+0/3) No match
02 [ed9a6f7b|4fb7aa48] (0+0/6) No match
03 [62ddfe7f|5c2b5ae4] (0+0/5) No match
04 [97092d33|497a0384] (0+0/5) No match
05 [5dfd6090|73ecf28b] (0+0/5) No match
06 [90c882b2|c9eb5242] (0+0/6) No match
07 [91036f12|277792b0] (0+0/5) No match
08 [e5783c39|b479bff7] (0+0/5) No match
09 [6676d861|ed3fd195] (0+0/6) No match
10 [90562a94|59a35d5e] (0+0/5) No match
11 [6ce40e03|da112026] (0+0/5) No match
12 [4b458a5a|13aeda9a] (0+0/6) No match
13 [b9916325|2027d6e8] (0+0/5) No match
14 [8770b866|75e3cee0] (0+0/5) No match
15 [ae05e8a3|d1652640] (0+0/4) No match
16 [fa045477|f825496f] (0+0/5) No match
17 [fb7cf617|3d129359] (0+0/5) No match
18 [e9e98e06|d9d83c54] (0+0/5) No match
19 [c6382e3d|981fa713] (0+0/5) No match
20 [e63ea1e4|f61dcdb5] (0+0/5) No match
Offsetted by -632:
01 [4c53c0a3] (0/3) No match (V2 was not tested)
02 [f78c530b] (3/6) Accurately ripped
03 [892d8dc7] (2/5) Accurately ripped
04 [d670ab0f] (2/5) Accurately ripped
05 [369bf2dc] (2/5) Accurately ripped
06 [65f13dca] (3/6) Accurately ripped
07 [0e10741a] (2/5) Accurately ripped
08 [b77a21d9] (2/5) Accurately ripped
09 [ba7fb499] (3/6) Accurately ripped
10 [ac25924c] (2/5) Accurately ripped
11 [c9c78323] (2/5) Accurately ripped
12 [149ddc32] (3/6) Accurately ripped
13 [bb1609d5] (2/5) Accurately ripped
14 [ec986f6e] (2/5) Accurately ripped
15 [d4a1880b] (2/4) Accurately ripped
16 [e1c84f0f] (2/5) Accurately ripped
17 [68fa3ea7] (2/5) Accurately ripped
18 [6ed3ee56] (2/5) Accurately ripped
19 [2dd52915] (2/5) Accurately ripped
20 [cfab5544] (2/5) Accurately ripped

Track Peak [ CRC32 ] [W/O NULL] [ LOG ]
– 92,8 [26C30F1F] [727CED35] CRC32
01 71,5 [288E0B8F] [C43E28BE]
02 66,2 [D274A4C5] [33BBBFC1]
03 73,7 [E71E510E] [779E2C43]
04 68,5 [6A66C003] [B47861A5]
05 91,1 [E6CF07DB] [BC9F42E3]
06 91,2 [1ADC0425] [07A6636D]
07 79,0 [1B94BAD2] [8802085C]
08 92,8 [06C4C076] [DA4A5756]
09 75,8 [6D9F3E69] [08E64647]
10 67,0 [7BF92231] [17457C49]
11 85,4 [17B30B4B] [4FF9FEA6]
12 79,9 [3C1BD2BF] [7D3F4C66]
13 70,3 [524F816F] [C6281E24]
14 87,7 [FEBCAEC0] [DCABE946]
15 75,4 [9896261E] [B6A457A1]
16 57,6 [7E805901] [A424FBB7]
17 54,8 [0A5295EA] [F5FE39D9]
18 65,9 [BEE8D4CE] [FF0AF569]
19 65,6 [28404450] [199C5D38]
20 66,3 [3CCF2404] [E46634CB]

***************

The London Studio Orchestra and Singers - For Lovers Only: Great Romantic Themes (1997, 3CD Box Set)

The London Studio Orchestra & Singers - Memory: 20 Romantic Themes (1997)
EAC Rip | FLAC (Img) + Cue + Log ~ 400 Mb | MP3 CBR320 ~ 183 Mb
Scans Included (JPG, 300 dpi) | RAR 5% Recovery
Pop, Easy Listening, Instrumental | PWM Masters Ltd./ United Audio Entertainment Ltd. #IP 21102

The London Studio Orchestra and Singers - For Lovers Only: Great Romantic Themes (1997, 3CD Box Set)

Track List CD2:

01. Hello [03:49]
02. Tonight I Celebrate My Love [03:24]
03. Body Talk [03:41]
04. All Time High [02:58]
05. It's A Funky Feeling [02:50]
06. One Day I'll Fly Away [03:15]
07. Annie's Song [03:01]
08. Avalon [03:20]
09. Love Chords [03:32]
10. Isn't She Lovely [03:04]
11. Memory [04:00]
12. Human Nature [03:22]
13. Live Is A Fabulous Groove [04:42]
14. With Love [02:57]
15. Come Back And Stay [03:39]
16. If You Leave Me Now [03:42]
17. Flashy Fashions [03:42]
18. To All The Girls I've Loved Before [03:36]
19. Michelle [03:15]
20. Goodnight Saigon [03:32]

Exact Audio Copy V1.0 beta 3 from 29. August 2011

EAC extraction logfile from 17. April 2015, 17:21

The London Studio Orchestra & Singers / Memory - 20 Romantic Themes

Used drive : PIONEER BD-RW BDR-TD03 Adapter: 0 ID: 1

Read mode : Secure
Utilize accurate stream : Yes
Defeat audio cache : Yes
Make use of C2 pointers : No

Read offset correction : 667
Overread into Lead-In and Lead-Out : No
Fill up missing offset samples with silence : Yes
Delete leading and trailing silent blocks : No
Null samples used in CRC calculations : Yes
Used interface : Native Win32 interface for Win NT & 2000

Used output format : User Defined Encoder
Selected bitrate : 768 kBit/s
Quality : High
Add ID3 tag : No
Command line compressor : C:\Program Files (x86)\Exact Audio Copy\FLAC\FLAC.EXE
Additional command line options : -6 -V -T "ARTIST=%artist%" -T "TITLE=%title%" -T "ALBUM=%albumtitle%" -T "DATE=%year%" -T "TRACKNUMBER=%tracknr%" -T "GENRE=%genre%" -T "COMMENT=%comment%" -T "BAND=%albuminterpret%" -T "ALBUMARTIST=%albuminterpret%" -T "COMPOSER=%composer%" %haslyrics%–tag-from-file=LYRICS="%lyricsfile%"%haslyrics% -T "DISCNUMBER=%cdnumber%" -T "TOTALDISCS=%totalcds%" -T "TOTALTRACKS=%numtracks%" %hascover%–picture="%coverfile%"%hascover% %source% -o %dest%


TOC of the extracted CD

Track | Start | Length | Start sector | End sector
––––––––––––––––––––––––––––-
1 | 0:01.00 | 3:48.63 | 75 | 17237
2 | 3:49.63 | 3:23.45 | 17238 | 32507
3 | 7:13.33 | 3:40.55 | 32508 | 49062
4 | 10:54.13 | 2:57.22 | 49063 | 62359
5 | 13:51.35 | 2:49.40 | 62360 | 75074
6 | 16:41.00 | 3:14.45 | 75075 | 89669
7 | 19:55.45 | 3:00.65 | 89670 | 103234
8 | 22:56.35 | 3:19.18 | 103235 | 118177
9 | 26:15.53 | 3:31.22 | 118178 | 134024
10 | 29:47.00 | 3:03.70 | 134025 | 147819
11 | 32:50.70 | 3:59.48 | 147820 | 165792
12 | 36:50.43 | 3:21.67 | 165793 | 180934
13 | 40:12.35 | 4:41.30 | 180935 | 202039
14 | 44:53.65 | 2:56.33 | 202040 | 215272
15 | 47:50.23 | 3:38.47 | 215273 | 231669
16 | 51:28.70 | 3:41.25 | 231670 | 248269
17 | 55:10.20 | 3:41.38 | 248270 | 264882
18 | 58:51.58 | 3:35.32 | 264883 | 281039
19 | 62:27.15 | 3:14.58 | 281040 | 295647
20 | 65:41.73 | 3:31.10 | 295648 | 311482


Range status and errors

Selected range

Filename C:\Users\Deris\Desktop\LoStOrch\cd2\The London Studio Orchestra & Singers - Memory - 20 Romantic Themes.wav

Peak level 95.5 %
Extraction speed 5.0 X
Range quality 100.0 %
Test CRC 217C5BC8
Copy CRC 217C5BC8
Copy OK

No errors occurred


AccurateRip summary

Track 1 not present in database
Track 2 not present in database
Track 3 not present in database
Track 4 not present in database
Track 5 not present in database
Track 6 not present in database
Track 7 not present in database
Track 8 not present in database
Track 9 not present in database
Track 10 not present in database
Track 11 not present in database
Track 12 not present in database
Track 13 not present in database
Track 14 not present in database
Track 15 not present in database
Track 16 not present in database
Track 17 not present in database
Track 18 not present in database
Track 19 not present in database
Track 20 not present in database

None of the tracks are present in the AccurateRip database

End of status report

–– CUETools DB Plugin V2.1.3

[CTDB TOCID: X7n1VwDKjtPmTCJtQ_GZtXYwS0o-] disk not present in database, Submit result: discs with pregaps not supported in this protocol version


==== Log checksum 892E13F8DD1522485BBE2D0AE043B1FA482455D224F95EC47F04501D1EFB5031 ====

foobar2000 1.2.6 / Dynamic Range Meter 1.1.1
log date: 2015-04-21 14:18:49

––––––––––––––––––––––––––––––––––––––––
Analyzed: The London Studio Orchestra & Singers / Memory - 20 Romantic Themes
––––––––––––––––––––––––––––––––––––––––

DR Peak RMS Duration Track
––––––––––––––––––––––––––––––––––––––––
DR15 -3.64 dB -24.57 dB 3:49 01-Hello
DR14 -4.73 dB -20.98 dB 3:24 02-Tonight I Celebrate My Love
DR16 -0.80 dB -18.86 dB 3:41 03-Body Talk
DR13 -3.79 dB -20.06 dB 2:57 04-All Time High
DR16 -0.79 dB -20.32 dB 2:50 05-It's A Funky Feeling
DR12 -1.89 dB -18.28 dB 3:15 06-One Day I'll Fly Away
DR11 -1.63 dB -15.38 dB 3:01 07-Annie's Song
DR14 -1.10 dB -18.93 dB 3:19 08-Avalon
DR13 -2.59 dB -20.90 dB 3:31 09-Love Chords
DR14 -0.40 dB -17.05 dB 3:04 10-Isn't She Lovely
DR12 -0.67 dB -17.93 dB 4:00 11-Memory
DR14 -0.80 dB -17.30 dB 3:22 12-Human Nature
DR12 -2.67 dB -19.76 dB 4:41 13-Live Is A Fabulous Groove
DR14 -1.97 dB -20.19 dB 2:56 14-With Love
DR13 -3.50 dB -19.99 dB 3:39 15-Come Back And Stay
DR11 -1.70 dB -16.96 dB 3:41 16-If You Leave Me Now
DR14 -2.24 dB -22.08 dB 3:42 17-Flashy Fashions
DR12 -1.61 dB -15.82 dB 3:35 18-To All The Girls I've Loved Before
DR11 -0.60 dB -14.24 dB 3:15 19-Michelle
DR13 -0.80 dB -18.60 dB 3:31 20-Goodnight Saigon
––––––––––––––––––––––––––––––––––––––––

Number of tracks: 20
Official DR value: DR13

Samplerate: 44100 Hz
Channels: 2
Bits per sample: 16
Bitrate: 737 kbps
Codec: FLAC
================================================================================

[CUETools log; Date: 21.04.2015 14:18:02; Version: 2.1.5]
Pregap length 00:01:00.
[CTDB TOCID: X7n1VwDKjtPmTCJtQ_GZtXYwS0o-] disk not present in database.
[AccurateRip ID: 00313aaa-02d4380c-26103814] disk not present in database.

Track Peak [ CRC32 ] [W/O NULL] [ LOG ]
– 95,5 [217C5BC8] [6FFC3510] CRC32
01 65,7 [66076FDC] [9FCD80C6]
02 57,9 [172082CE] [A7C2C888]
03 91,1 [62C0DD07] [DE5AA023]
04 64,6 [8781A0EF] [262E7080]
05 91,2 [062DB65B] [AAEFF3F6]
06 80,4 [62AC3507] [C807362B]
07 82,9 [11EB1CF3] [00578464]
08 88,1 [2CC14DDD] [1918F757]
09 74,2 [CCD4F094] [FD78F014]
10 95,5 [17AE2E2C] [307A35E3]
11 92,6 [D8CEFC30] [02891E64]
12 91,1 [CBADA316] [C7728A1B]
13 73,5 [8000C182] [4C609DAF]
14 79,7 [E5F35871] [2AF45C4A]
15 66,8 [071BC3C6] [104680C2]
16 82,2 [CA66FCC3] [59F619AF]
17 77,3 [F6451B0F] [18671F86]
18 83,0 [3926C3FD] [CC5F5D08]
19 93,3 [E86519C4] [A50E2A3C]
20 91,1 [F2A2ABCD] [FDACBB39]

***************

The London Studio Orchestra and Singers - For Lovers Only: Great Romantic Themes (1997, 3CD Box Set)

The London Studio Orchestra & Singers - Feelings: 16 Love Themes (1997)
EAC Rip | FLAC (Img) + Cue + Log ~ 345 Mb | MP3 CBR320 ~ 167 Mb
Scans Included (JPG, 300 dpi) | RAR 5% Recovery
Pop, Easy Listening, Instrumental | PWM Masters Ltd./ United Audio Entertainment Ltd. #IP 21132

The London Studio Orchestra and Singers - For Lovers Only: Great Romantic Themes (1997, 3CD Box Set)

Track List CD3:

01. Sleepy Shores [03:30]
02. Your Song [04:48]
03. Theme From Mahagony [04:13]
04. Douce Melodie [03:21]
05. Endless Love [03:23]
06. Theme From Reilly [04:26]
07. Feelings [04:55]
08. Reverie [04:33]
09. Nights In White Satin [03:54]
10. Un Homme Et Une Femme [03:05]
11. Gnossjenne [02:44]
12. Ballade Pour Adeline [02:34]
13. My Way [04:36]
14. I'm Not In Love [03:54]
15. Alcarrondas [05:07]
16. Love Is Music [03:30]

Exact Audio Copy V1.0 beta 3 from 29. August 2011

EAC extraction logfile from 17. April 2015, 18:06

London Studio Orchestra / Feelings / 16 Love Themes

Used drive : PIONEER BD-RW BDR-TD03 Adapter: 0 ID: 1

Read mode : Secure
Utilize accurate stream : Yes
Defeat audio cache : Yes
Make use of C2 pointers : No

Read offset correction : 667
Overread into Lead-In and Lead-Out : No
Fill up missing offset samples with silence : Yes
Delete leading and trailing silent blocks : No
Null samples used in CRC calculations : Yes
Used interface : Native Win32 interface for Win NT & 2000

Used output format : User Defined Encoder
Selected bitrate : 768 kBit/s
Quality : High
Add ID3 tag : No
Command line compressor : C:\Program Files (x86)\Exact Audio Copy\FLAC\FLAC.EXE
Additional command line options : -6 -V -T "ARTIST=%artist%" -T "TITLE=%title%" -T "ALBUM=%albumtitle%" -T "DATE=%year%" -T "TRACKNUMBER=%tracknr%" -T "GENRE=%genre%" -T "COMMENT=%comment%" -T "BAND=%albuminterpret%" -T "ALBUMARTIST=%albuminterpret%" -T "COMPOSER=%composer%" %haslyrics%–tag-from-file=LYRICS="%lyricsfile%"%haslyrics% -T "DISCNUMBER=%cdnumber%" -T "TOTALDISCS=%totalcds%" -T "TOTALTRACKS=%numtracks%" %hascover%–picture="%coverfile%"%hascover% %source% -o %dest%


TOC of the extracted CD

Track | Start | Length | Start sector | End sector
––––––––––––––––––––––––––––-
1 | 0:00.32 | 3:29.43 | 32 | 15749
2 | 3:30.00 | 4:47.60 | 15750 | 37334
3 | 8:17.60 | 4:12.15 | 37335 | 56249
4 | 12:30.00 | 3:20.42 | 56250 | 71291
5 | 15:50.42 | 3:22.65 | 71292 | 86506
6 | 19:13.32 | 4:25.08 | 86507 | 106389
7 | 23:38.40 | 4:54.17 | 106390 | 128456
8 | 28:32.57 | 4:32.65 | 128457 | 148921
9 | 33:05.47 | 3:53.05 | 148922 | 166401
10 | 36:58.52 | 3:04.33 | 166402 | 180234
11 | 40:03.10 | 2:43.65 | 180235 | 192524
12 | 42:47.00 | 2:33.57 | 192525 | 204056
13 | 45:20.57 | 4:35.30 | 204057 | 224711
14 | 49:56.12 | 3:53.50 | 224712 | 242236
15 | 53:49.62 | 5:06.10 | 242237 | 265196
16 | 58:55.72 | 3:29.63 | 265197 | 280934


Range status and errors

Selected range

Filename C:\Users\Deris\Desktop\LoStOrch\cd3\London Studio Orchestra - Feelings , 16 Love Themes.wav

Peak level 88.6 %
Extraction speed 4.8 X
Range quality 100.0 %
Test CRC 46DEBF32
Copy CRC 46DEBF32
Copy OK

No errors occurred


AccurateRip summary

Track 1 cannot be verified as accurate (confidence 1) [08332434], AccurateRip returned [F3CC647B] (AR v2)
Track 2 cannot be verified as accurate (confidence 1) [59810815], AccurateRip returned [0E60401C] (AR v2)
Track 3 cannot be verified as accurate (confidence 1) [207C5D0D], AccurateRip returned [D9C9F208] (AR v2)
Track 4 cannot be verified as accurate (confidence 1) [349F1611], AccurateRip returned [E973BB32] (AR v2)
Track 5 cannot be verified as accurate (confidence 1) [4E80FE4B], AccurateRip returned [676DF234] (AR v2)
Track 6 cannot be verified as accurate (confidence 1) [16C75E41], AccurateRip returned [559B5278] (AR v2)
Track 7 cannot be verified as accurate (confidence 1) [45D14FD3], AccurateRip returned [AA40E207] (AR v2)
Track 8 cannot be verified as accurate (confidence 1) [BE711F12], AccurateRip returned [9D6DB017] (AR v2)
Track 9 cannot be verified as accurate (confidence 1) [67D59495], AccurateRip returned [4270F20F] (AR v2)
Track 10 cannot be verified as accurate (confidence 1) [035F3498], AccurateRip returned [95420EFC] (AR v2)
Track 11 cannot be verified as accurate (confidence 1) [E4B3170E], AccurateRip returned [368F2A50] (AR v2)
Track 12 cannot be verified as accurate (confidence 1) [57A996F0], AccurateRip returned [E8BB5D89] (AR v2)
Track 13 cannot be verified as accurate (confidence 1) [EA806F7B], AccurateRip returned [83D05D05] (AR v2)
Track 14 cannot be verified as accurate (confidence 1) [A3CC6E78], AccurateRip returned [A3874CA2] (AR v2)
Track 15 cannot be verified as accurate (confidence 1) [6F456E4A], AccurateRip returned [72EAA825] (AR v2)
Track 16 cannot be verified as accurate (confidence 1) [AD7018E7], AccurateRip returned [55D1CB11] (AR v2)

No tracks could be verified as accurate
You may have a different pressing from the one(s) in the database

End of status report

–– CUETools DB Plugin V2.1.3

[CTDB TOCID: _aBwlqAAUMRGg_O3PCLKTyV7CrU-] disk not present in database, Submit result: discs with pregaps not supported in this protocol version


==== Log checksum C18CA7E026FAD6668593855583E826A03BCE6EF106AC23372AAB3F740C0BC93B ====

foobar2000 1.2.6 / Dynamic Range Meter 1.1.1
log date: 2015-04-21 14:20:36

––––––––––––––––––––––––––––––––––––––––
Analyzed: London Studio Orchestra / Feelings / 16 Love Themes
––––––––––––––––––––––––––––––––––––––––

DR Peak RMS Duration Track
––––––––––––––––––––––––––––––––––––––––
DR11 -1.04 dB -15.71 dB 3:30 01-London Studio Orchestra / Sleepy Shores
DR13 -7.03 dB -22.75 dB 4:48 02-London Studio Orchestra / Your Song
DR11 -5.42 dB -20.03 dB 4:12 03-London Studio Orchestra / Theme From Mahagony
DR13 -2.71 dB -19.15 dB 3:21 04-London Studio Orchestra / Douce Melodie
DR12 -3.62 dB -19.65 dB 3:23 05-London Studio Orchestra / Endless Love
DR11 -5.35 dB -19.81 dB 4:25 06-London Studio Orchestra / Theme From Reilly
DR12 -3.84 dB -19.50 dB 4:54 07-London Studio Orchestra / Feelings
DR13 -2.92 dB -19.86 dB 4:33 08-London Studio Orchestra / Reverie
DR12 -4.53 dB -20.77 dB 3:53 09-London Studio Orchestra / Nights In White Satin
DR13 -3.54 dB -19.27 dB 3:04 10-London Studio Orchestra / Un Homme Et Une Femme
DR13 -3.38 dB -19.75 dB 2:44 11-London Studio Orchestra / Gnossjenne
DR12 -3.66 dB -18.23 dB 2:34 12-London Studio Orchestra / Ballade Pour Adeline
DR13 -3.96 dB -20.34 dB 4:35 13-London Studio Orchestra / My Way
DR13 -3.48 dB -19.93 dB 3:54 14-London Studio Orchestra / I'm Not In Love
DR13 -3.80 dB -18.87 dB 5:06 15-London Studio Orchestra / Alcarrondas
DR12 -2.50 dB -17.70 dB 3:30 16-London Studio Orchestra / Love Is Music
––––––––––––––––––––––––––––––––––––––––

Number of tracks: 16
Official DR value: DR12

Samplerate: 44100 Hz
Channels: 2
Bits per sample: 16
Bitrate: 699 kbps
Codec: FLAC
================================================================================

[CUETools log; Date: 21.04.2015 14:19:50; Version: 2.1.5]
Pregap length 00:00:32.
[CTDB TOCID: _aBwlqAAUMRGg_O3PCLKTyV7CrU-] disk not present in database.
[AccurateRip ID: 0024bb43-01b6eb0b-df0ea110] found.
Track [ CRC | V2 ] Status
01 [047f6d1f|08332434] (0+0/1) No match
02 [62be432f|59810815] (0+0/1) No match
03 [cb64b131|207c5d0d] (0+0/1) No match
04 [a4346607|349f1611] (0+0/1) No match
05 [9f1a99f7|4e80fe4b] (0+0/1) No match
06 [8d4fe7d4|16c75e41] (0+0/1) No match
07 [7098c08e|45d14fd3] (0+0/1) No match
08 [d63e25f9|be711f12] (0+0/1) No match
09 [1fe004bd|67d59495] (0+0/1) No match
10 [f5f474b1|035f3498] (0+0/1) No match
11 [9f325112|e4b3170e] (0+0/1) No match
12 [d7fdab4b|57a996f0] (0+0/1) No match
13 [5cfe419b|ea806f7b] (0+0/1) No match
14 [04a21243|a3cc6e78] (0+0/1) No match
15 [d3619851|6f456e4a] (0+0/1) No match
16 [2a7579e6|ad7018e7] (0+0/1) No match
Offsetted by -573:
01 [f3cc647b] (1/1) Accurately ripped
02 [0e60401c] (1/1) Accurately ripped
03 [d9c9f208] (1/1) Accurately ripped
04 [e973bb32] (1/1) Accurately ripped
05 [676df234] (1/1) Accurately ripped
06 [559b5278] (1/1) Accurately ripped
07 [aa40e207] (1/1) Accurately ripped
08 [9d6db017] (1/1) Accurately ripped
09 [4270f20f] (1/1) Accurately ripped
10 [95420efc] (1/1) Accurately ripped
11 [368f2a50] (1/1) Accurately ripped
12 [e8bb5d89] (1/1) Accurately ripped
13 [83d05d05] (1/1) Accurately ripped
14 [a3874ca2] (1/1) Accurately ripped
15 [72eaa825] (1/1) Accurately ripped
16 [55d1cb11] (1/1) Accurately ripped

Track Peak [ CRC32 ] [W/O NULL] [ LOG ]
– 88,6 [46DEBF32] [E0FB8B0F] CRC32
01 88,6 [D8420289] [E266C856]
02 44,5 [80F508B4] [A844345F]
03 53,6 [B228F521] [7FE50365]
04 73,2 [9244DFD8] [0AC383FF]
05 65,9 [541A1248] [B67DCEEC]
06 54,0 [0E30A2CE] [F299A127]
07 64,2 [E4B026D3] [2E3A5013]
08 71,4 [0B3FA499] [18E5D5FB]
09 59,3 [133B8263] [38AC7213]
10 66,5 [520C6A11] [527FEA19]
11 67,7 [6C2BDEAE] [E4D1EB5C]
12 65,6 [098F422B] [8027404A]
13 63,3 [7E93BDD3] [B07C27F4]
14 67,0 [4B9F1B1C] [E6EC366A]
15 64,5 [118B89FE] [A79B4198]
16 74,9 [1CEFA5CB] [6AC2511F]

The London Studio Orchestra and Singers - For Lovers Only: Great Romantic Themes (1997, 3CD Box Set)

All thanks go to Boris1

Visit my blog!

Download: