Subcategories

The Long Beach Blues Band - The Long Beach Blues Band (2011)

Posted By: popsakov
The Long Beach Blues Band - The Long Beach Blues Band (2011)

The Long Beach Blues Band - The Long Beach Blues Band (2011)
EAC Rip | FLAC, Img+Cue, Log+Checker ~ 330 Mb | MP3 CBR320 ~ 115 Mb
Scans Included (JPG, 300 dpi) | FileSonic, FileServe, Uploaded | 3% Recovery
Electric Blues, Guitar Blues | Label: Long Beach Blues Band | Catalog#: 884501526531

Good electric blues from LA, California.
Track List:

01. Honey Do Day [03:42]
02. Overdrive Glide [03:48]
03. Cry Like Rain [04:15]
04. Float Down Stream [04:45]
05. Delta Train [04:25]
06. Further on up the Road [03:01]
07. 9 to 5 Blues [05:02]
08. She's Gotta Boogie [04:44]
09. She's Got A Ring in His Nose and a Ring on her hand [04:11]
10. Shake Rumble & Roll [03:54]
11. Katrina Blues [04:44]

Exact Audio Copy V0.99 prebeta 4 from 23. January 2008

Отчёт EAC об извлечении, выполненном 17. июня 2011, 19:50

The Long Beach Blues Band / The Long Beach Blues Band

Дисковод: PLEXTOR DVDR PX-880SA Adapter: 1 ID: 1

Режим чтения : Достоверность
Использование точного потока : Да
Отключение кэша аудио : Да
Использование указателей C2 : Нет

Коррекция смещения при чтении : 6
Способность читать области Lead-in и Lead-out : Нет
Заполнение пропущенных сэмплов тишиной : Да
Удаление блоков с тишиной в начале и конце : Нет
При вычислениях CRC использовались нулевые сэмплы : Да
Интерфейс : Встроенный Win32-интерфейс для Win NT/2000

Выходной формат : Пользовательский кодировщик
Выбранный битрейт : 1024 kBit/s
Качество : Высокий
Добавление ID3-тэга : Нет
Утилита сжатия : C:\Program Files\Exact Audio Copy\FLAC\FLAC.EXE
Дополнительные параметры : -6 -V -T "ARTIST=%a" -T "TITLE=%t" -T "ALBUM=%g" -T "DATE=%y" -T "TRACKNUMBER=%n" -T "GENRE=%m" -T "COMMENT=%e" %s -o %d


TOC извлечённого CD

Трек | Старт | Длительность | Начальный сектор | Конечный сектор
––––––––––––––––––––––––––––––––––-
1 | 0:00.00 | 3:44.24 | 0 | 16823
2 | 3:44.24 | 3:48.33 | 16824 | 33956
3 | 7:32.57 | 4:17.00 | 33957 | 53231
4 | 11:49.57 | 4:47.16 | 53232 | 74772
5 | 16:36.73 | 4:25.29 | 74773 | 94676
6 | 21:02.27 | 3:03.42 | 94677 | 108443
7 | 24:05.69 | 5:04.70 | 108444 | 131313
8 | 29:10.64 | 4:44.31 | 131314 | 152644
9 | 33:55.20 | 4:13.16 | 152645 | 171635
10 | 38:08.36 | 3:56.58 | 171636 | 189393
11 | 42:05.19 | 4:44.55 | 189394 | 210748


Характеристики диапазона извлечения и сообщения об ошибках

Выбранный диапазон

Имя файла J:\BitComet\The Long Beach Blues Band - The Long Beach Blues Band(2011)(flac)\The Long Beach Blues Band - The Long Beach Blues Band.wav

Пиковый уровень 97.2 %
Качество диапазона 100.0 %
CRC теста 90CF09B2
CRC копии 90CF09B2
Копирование… OK

Ошибок не произошло


AccurateRip: сводка

Трек 1 нет в базе данных
Трек 2 нет в базе данных
Трек 3 нет в базе данных
Трек 4 нет в базе данных
Трек 5 нет в базе данных
Трек 6 нет в базе данных
Трек 7 нет в базе данных
Трек 8 нет в базе данных
Трек 9 нет в базе данных
Трек 10 нет в базе данных
Трек 11 нет в базе данных

Ни одного трека нет в базе AccurateRip

Конец отчёта

AUDIOCHECKER v2.0 beta (build 457) - by Dester - opdester@freemail.hu
~~~~~~~~~~~~~~~~~~~~~~~~~~~~~~~~~~
-=== НЕ РЕДАКТИРУЙТЕ ЭТОТ ФАЙЛ! ===-

Путь: …\The Long Beach Blues Band - The Long Beach Blues Band(2011)(flac)

1 -=- The Long Beach Blues Band - The Long Beach Blues Band.flac -=- CDDA (100%)

178086340

[Verification date: 30.07.2011 7:46:53]
[Disc ID: 0012e28d-00a4d532-910af90b]
Track [ CRC ] Status
01 [d7b165d6] (01/01) Accurately ripped as in pressing(s) #1
02 [1a753ffd] (01/01) Accurately ripped as in pressing(s) #1
03 [69a0d2bc] (01/01) Accurately ripped as in pressing(s) #1
04 [5c238f87] (01/01) Accurately ripped as in pressing(s) #1
05 [90a36a04] (01/01) Accurately ripped as in pressing(s) #1
06 [41d56924] (01/01) Accurately ripped as in pressing(s) #1
07 [826b85f5] (01/01) Accurately ripped as in pressing(s) #1
08 [4febfa65] (01/01) Accurately ripped as in pressing(s) #1
09 [9474aeb2] (01/01) Accurately ripped as in pressing(s) #1
10 [e5df4bf0] (01/01) Accurately ripped as in pressing(s) #1
11 [b8a5d2bc] (01/01) Accurately ripped as in pressing(s) #1

Track [ CRC32 ] [W/O NULL] [ LOG ]
– [90CF09B2] [0A1E7D0E] CRC32
01 [9CF1C5DD] [427F00A5]
02 [2AEB87D2] [8329418C]
03 [503F8516] [CCBC3314]
04 [E36E9B11] [73084CF3]
05 [50CD6F13] [B819E5F7]
06 [B3584A41] [220CD225]
07 [50F9C1E3] [D6FD99C4]
08 [010E51AB] [0177D472]
09 [2A512931] [CE57CA70]
10 [7F72D3D3] [D7FE286F]
11 [A3C27992] [5E4273CB]

The Long Beach Blues Band - The Long Beach Blues Band (2011)

The Long Beach Blues Band - The Long Beach Blues Band (2011)

Download:

FileSonic: FLAC | mp3
FileServe: FLAC | mp3
Uploaded: FLAC | mp3

pass: avaxhome.ws

In case you encounter some dead links, please leave the comment here or send me a private message!

Visit my blog!

All thanks go to izia1956