Subcategories

The Merchants Of Dream - Strange Night Voyage (1969) [Reissue 2011]

Posted By: gribovar
The Merchants Of Dream - Strange Night Voyage (1969) [Reissue 2011]

The Merchants Of Dream - Strange Night Voyage (1969) [Reissue 2011]
EAC Rip | FLAC (image+.cue+log) - 222 MB | MP3 CBR 320 kbps (LAME 3.93) - 81 MB | Covers - 20 MB
Genre: Psychedelic Rock | RAR 3% Rec. | Label: Tune In (TUNE IN 006)

First time on CD for this magical psychedelic concept album based on J.M Barrie’s timeless Peter Pan story. Merchants Of Dream was produced by the legendary George "Shadow" Morton. The fourteen tracks encompass tales of everything from pirates and crocodiles to the joys of eternal childhood, Strange Night Voyage was the only release by this enigmatic six piece combo hailing from the East Coast. The complete album from the master tapes for the first time on CD with copious liner notes and a plethora of rare photographs.
Tracklist:
01. Mother's Overture
02. The Strange Night Voyage Of Peter Pan
03. Wendy
04. Jolly Roger Doldrums
05. Tribute To The Crocodile
06. Dorothy The Fairy Queen
07. Lovelife's Purple Circus
08. Father's Overture
09. Come Back Into Your Childhood With Me
10. Alicey
11. Sing My Life
12. My Magic Boat
13. When You're Pushin' Six
14. (We Are) Dream Vendors

Total time: 34:25

Exact Audio Copy V1.1 from 23. June 2015

Отчёт EAC об извлечении, выполненном 14. февраля 2016, 21:32

The Merchants Of Dream / Strange Night Voyage

Дисковод: hp CDDVDW SU-208CB Adapter: 0 ID: 0

Режим чтения : Достоверность
Использование точного потока : Да
Отключение кэша аудио : Да
Использование указателей C2 : Нет

Коррекция смещения при чтении : 6
Способность читать области Lead-in и Lead-out : Нет
Заполнение пропущенных сэмплов тишиной : Да
Удаление блоков с тишиной в начале и конце : Нет
При вычислениях CRC использовались нулевые сэмплы : Да
Интерфейс : Установленный внешний ASPI-интерфейс

Выходной формат : Пользовательский кодировщик
Выбранный битрейт : 1024 kBit/s
Качество : Высокий
Добавление ID3-тега : Нет
Утилита сжатия : C:\Program Files (x86)\Exact Audio Copy\Flac\flac.exe
Дополнительные параметры : -V -8 -T "Date=%year%" -T "Genre=%genre%" %source%


TOC извлечённого CD

Трек | Старт | Длительность | Начальный сектор | Конечный сектор
––––––––––––––––––––––––––––––––––-
1 | 0:00.00 | 2:06.04 | 0 | 9453
2 | 2:06.04 | 2:40.68 | 9454 | 21521
3 | 4:46.72 | 2:05.39 | 21522 | 30935
4 | 6:52.36 | 2:47.73 | 30936 | 43533
5 | 9:40.34 | 1:07.61 | 43534 | 48619
6 | 10:48.20 | 2:36.73 | 48620 | 60392
7 | 13:25.18 | 3:10.60 | 60393 | 74702
8 | 16:36.03 | 2:04.51 | 74703 | 84053
9 | 18:40.54 | 1:59.73 | 84054 | 93051
10 | 20:40.52 | 2:23.73 | 93052 | 103849
11 | 23:04.50 | 3:07.63 | 103850 | 117937
12 | 26:12.38 | 2:38.62 | 117938 | 129849
13 | 28:51.25 | 1:42.18 | 129850 | 137517
14 | 30:33.43 | 3:51.54 | 137518 | 154896


Характеристики диапазона извлечения и сообщения об ошибках

Выбранный диапазон

Имя файла C:\Users\Пользователь\Music\The Merchants Of Dream - 1969 - Strange Night Voyage\The Merchants Of Dream - Strange Night Voyage.wav

Пиковый уровень 96.6 %
Скорость извлечения 3.4 X
Качество диапазона 100.0 %
CRC теста 034370AA
CRC копии 034370AA
Копирование… OK

Ошибок не произошло


AccurateRip: сводка

Трек 1 : извлечено точно (доверие 1) [36D1DACC] (AR v2)
Трек 2 : извлечено точно (доверие 1) [36F6BD92] (AR v2)
Трек 3 : извлечено точно (доверие 1) [48CD3A76] (AR v2)
Трек 4 : извлечено точно (доверие 1) [20CCCAFE] (AR v2)
Трек 5 : извлечено точно (доверие 1) [727AA6E3] (AR v2)
Трек 6 : извлечено точно (доверие 1) [2BD0DCFF] (AR v2)
Трек 7 : извлечено точно (доверие 1) [57D3231A] (AR v2)
Трек 8 : извлечено точно (доверие 1) [C86A8EBD] (AR v2)
Трек 9 : извлечено точно (доверие 1) [4F4E2F0C] (AR v2)
Трек 10 : извлечено точно (доверие 1) [6BB4F620] (AR v2)
Трек 11 : извлечено точно (доверие 1) [83AD9F0C] (AR v2)
Трек 12 : извлечено точно (доверие 1) [F32D9B9E] (AR v2)
Трек 13 : извлечено точно (доверие 1) [C92C2F1E] (AR v2)
Трек 14 : извлечено точно (доверие 1) [BF431E15] (AR v2)

Все треки извлечены точно

Конец отчёта

==== Контрольная сумма отчёта 31FCCDF1258AEFDCD2FCF459F4A8CE8D29231CAFE31715217FEB2AFF27131686 ====

[CUETools log; Date: 19.10.2017 2:40:22; Version: 2.1.4]
[CTDB TOCID: DPxJhNJdJU4fsZXnK3xWsLHFyRA-] disk not present in database.
[AccurateRip ID: 0010f131-00b5dc11-bc08110e] found.
Track [ CRC | V2 ] Status
01 [6a5fd6ae|36d1dacc] (0+1/1) Accurately ripped
02 [3fbc904d|36f6bd92] (0+1/1) Accurately ripped
03 [777959e4|48cd3a76] (0+1/1) Accurately ripped
04 [4982d574|20cccafe] (0+1/1) Accurately ripped
05 [828d5099|727aa6e3] (0+1/1) Accurately ripped
06 [eef26a1b|2bd0dcff] (0+1/1) Accurately ripped
07 [f903712e|57d3231a] (0+1/1) Accurately ripped
08 [ae0efc39|c86a8ebd] (0+1/1) Accurately ripped
09 [c8b00bca|4f4e2f0c] (0+1/1) Accurately ripped
10 [9ddc82b6|6bb4f620] (0+1/1) Accurately ripped
11 [40489fe1|83ad9f0c] (0+1/1) Accurately ripped
12 [d96d8eaf|f32d9b9e] (0+1/1) Accurately ripped
13 [36069a35|c92c2f1e] (0+1/1) Accurately ripped
14 [a17632da|bf431e15] (0+1/1) Accurately ripped

Track Peak [ CRC32 ] [W/O NULL] [ LOG ]
– 96,6 [034370AA] [F0C1F2D3] CRC32
01 96,6 [550639AF] [AD0B9681]
02 96,6 [021FFD7F] [3F5B39E6]
03 96,6 [6A3FBBDE] [6B9E9B9D]
04 96,6 [6A3DD6D2] [1D89A8F5]
05 96,6 [47901BBD] [554AE495]
06 96,6 [D8CA35FB] [0ECB1F4A]
07 96,6 [9023A672] [48AB1AFC]
08 96,6 [3454624F] [B0AE1A29]
09 96,6 [C3986FEC] [54BFF3F8]
10 96,6 [8154D58F] [31C51EDF]
11 96,6 [B17FFC9C] [D9B8A5BE]
12 96,6 [35A253BE] [F0D83887]
13 96,6 [706E9D0B] [D034532F]
14 96,6 [F3FCE821] [6A0BC61A]

Thanks to Копысов